osu file format v14

[General]
AudioFilename: audio.mp3
AudioLeadIn: 0
PreviewTime: 1009
Countdown: 0
SampleSet: Soft
StackLeniency: 0.6
Mode: 0
LetterboxInBreaks: 0
EpilepsyWarning: 1
WidescreenStoryboard: 1

[Editor]
Bookmarks: 1095,3837,14809,36752,47729,55952,80637,83380,94352,116295,127272,135495,160180,162935,173895,194466,199952,224637,227380,238009
DistanceSpacing: 1.1
BeatDivisor: 4
GridSize: 32
TimelineZoom: 2.450001

[Metadata]
Title:Onegai! Kon kon Oinarisama
TitleUnicode:お願い!コンコンお稲荷さま
Artist:ARM x Komso feat. Nanahira
ArtistUnicode:ARM×狐夢想 feat. ななひら
Creator:Len
Version:Hard
Source:Muse Dash
Tags:japanese pop video game electronic IOSYS mekemon COOL&CREATE TRIP x Frolic トリップ×フロリック Confetto Fast Narcissu Rihan Karcher [Karcher] denpa
BeatmapID:2700872
BeatmapSetID:1302044

[Difficulty]
HPDrainRate:5
CircleSize:5.8
OverallDifficulty:6
ApproachRate:7.7
SliderMultiplier:1.2
SliderTickRate:1

[Events]
//Background and Video events
Video,0,"video.mp4"
0,0,"bg.jpg",0,0
//Break Periods
2,83592,90826
2,163621,171507
//Storyboard Layer 0 (Background)
//Storyboard Layer 1 (Fail)
//Storyboard Layer 2 (Pass)
//Storyboard Layer 3 (Foreground)
//Storyboard Layer 4 (Overlay)
//Storyboard Sound Samples

[TimingPoints]
1107,342.857142857143,4,2,1,40,1,0
1107,-111.111111111111,4,2,1,40,0,0
1192,-111.111111111111,4,2,1,20,0,0
1792,-111.111111111111,4,2,1,60,0,0
1878,-111.111111111111,4,2,1,5,0,0
1964,-111.111111111111,4,2,1,60,0,0
2049,-100,4,2,1,5,0,0
2135,-100,4,2,1,60,0,0
2221,-100,4,2,1,5,0,0
2478,-111.111111111111,4,2,1,60,0,0
2564,-111.111111111111,4,2,1,40,0,0
2821,-111.111111111111,4,2,1,60,0,0
2907,-111.111111111111,4,2,1,40,0,0
2992,-111.111111111111,4,2,1,60,0,0
3078,-100,4,2,1,40,0,0
3335,-100,4,2,1,55,0,0
3507,-100,4,2,1,60,0,0
3592,-100,4,2,1,20,0,0
3849,-100,4,2,2,70,0,0
12078,-100,4,2,2,40,0,0
13621,-100,4,2,1,40,0,0
13792,-100,4,2,1,60,0,0
13964,-100,4,2,1,40,0,0
14135,-100,4,2,1,60,0,0
14392,-100,4,2,1,5,0,0
14478,-100,4,2,1,40,0,0
14735,-100,4,2,1,5,0,0
14821,-100,4,3,3,50,0,0
22878,-100,4,2,2,50,0,0
23221,-100,4,2,2,60,0,0
23564,-100,4,2,2,50,0,0
23907,-100,4,2,2,60,0,0
24421,-100,4,2,1,50,0,0
24592,-100,4,2,1,25,0,0
25278,-100,4,2,2,50,0,0
25449,-100,4,2,2,40,0,0
25621,-100,4,2,2,30,0,0
25792,-100,4,3,4,60,0,0
34021,-100,4,1,4,60,0,0
34878,-100,4,1,4,50,0,0
35392,-100,4,1,4,55,0,0
36078,-100,4,1,4,60,0,0
36764,-111.111111111111,4,2,1,60,0,0
44992,-111.111111111111,4,2,4,60,0,0
45678,-111.111111111111,4,2,4,40,0,0
46364,-111.111111111111,4,2,2,50,0,0
46707,-111.111111111111,4,2,2,35,0,0
47735,-111.111111111111,4,2,1,60,0,0
48849,-111.111111111111,4,2,1,20,0,0
49107,-111.111111111111,4,2,1,60,0,0
50221,-111.111111111111,4,2,1,20,0,0
50478,-111.111111111111,4,2,3,45,0,0
51164,-111.111111111111,4,2,3,55,0,0
51849,-111.111111111111,4,2,3,65,0,0
53221,-111.111111111111,4,2,3,70,0,0
53307,-111.111111111111,4,2,1,45,0,0
55964,-100,4,2,1,80,0,1
66849,-100,4,2,1,30,0,1
66935,-100,4,2,1,80,0,1
78078,-100,4,1,1,65,0,1
80649,-100,4,2,3,70,0,0
80735,-100,4,2,1,20,0,0
81335,-100,4,2,1,60,0,0
81421,-100,4,2,1,5,0,0
81507,-100,4,2,1,60,0,0
81592,-100,4,2,1,5,0,0
81678,-100,4,2,1,60,0,0
81764,-100,4,2,1,5,0,0
82021,-100,4,2,1,60,0,0
82107,-100,4,2,1,40,0,0
82192,-100,4,2,1,55,0,0
82364,-100,4,2,1,60,0,0
82449,-100,4,2,1,40,0,0
82535,-100,4,2,1,60,0,0
82621,-100,4,2,1,40,0,0
82878,-100,4,2,1,55,0,0
83049,-100,4,2,1,60,0,0
83135,-100,4,2,1,20,0,0
83392,-100,4,2,1,60,0,0
91621,-100,4,2,1,35,0,0
92992,-100,4,2,1,60,0,0
94364,-100,4,3,3,50,0,0
102421,-100,4,2,2,50,0,0
102764,-100,4,2,2,60,0,0
103107,-100,4,2,2,50,0,0
103964,-100,4,2,1,50,0,0
104135,-100,4,2,1,25,0,0
104821,-100,4,2,2,50,0,0
104992,-100,4,2,2,40,0,0
105164,-100,4,2,2,30,0,0
105335,-100,4,3,4,60,0,0
113564,-100,4,1,4,60,0,0
114249,-100,4,1,4,50,0,0
114935,-100,4,1,4,55,0,0
115621,-100,4,1,4,60,0,0
116307,-111.111111111111,4,2,1,60,0,0
124535,-111.111111111111,4,2,4,60,0,0
125221,-111.111111111111,4,2,4,40,0,0
125907,-111.111111111111,4,2,2,50,0,0
126249,-111.111111111111,4,2,2,35,0,0
127278,-111.111111111111,4,2,1,60,0,0
128392,-111.111111111111,4,2,1,20,0,0
128649,-111.111111111111,4,2,1,60,0,0
129764,-111.111111111111,4,2,1,20,0,0
130021,-111.111111111111,4,2,3,45,0,0
130707,-111.111111111111,4,2,3,55,0,0
131392,-111.111111111111,4,2,3,65,0,0
132764,-111.111111111111,4,2,3,70,0,0
132849,-111.111111111111,4,2,1,45,0,0
135507,-100,4,2,1,80,0,1
146392,-100,4,2,1,30,0,1
146478,-100,4,2,1,80,0,1
157621,-100,4,1,1,65,0,1
160192,-100,4,2,3,70,0,0
160278,-100,4,2,1,20,0,0
160878,-100,4,2,1,60,0,0
160964,-100,4,2,1,5,0,0
161049,-100,4,2,1,60,0,0
161135,-100,4,2,1,5,0,0
161221,-100,4,2,1,60,0,0
161307,-100,4,2,1,5,0,0
161564,-100,4,2,1,60,0,0
161649,-100,4,2,1,40,0,0
161735,-100,4,2,1,55,0,0
161907,-100,4,2,1,60,0,0
161992,-100,4,2,1,40,0,0
162078,-100,4,2,1,60,0,0
162164,-100,4,2,1,40,0,0
162421,-100,4,2,1,55,0,0
162592,-100,4,2,1,60,0,0
162678,-100,4,2,1,20,0,0
162935,-100,4,2,1,60,0,0
172364,-100,4,2,3,30,0,0
173907,-125,4,1,3,45,0,0
173992,-125,4,1,3,20,0,0
174592,-125,4,1,3,45,0,0
174678,-125,4,1,3,20,0,0
174935,-125,4,1,3,45,0,0
175021,-125,4,1,3,20,0,0
175278,-125,4,1,3,45,0,0
175364,-125,4,1,3,20,0,0
175621,-125,4,1,3,45,0,0
175707,-125,4,1,3,20,0,0
175964,-125,4,1,3,45,0,0
176049,-125,4,1,3,20,0,0
176307,-125,4,1,3,35,0,0
176392,-125,4,1,3,20,0,0
176649,-125,4,1,3,45,0,0
176735,-125,4,1,3,20,0,0
177335,-125,4,1,3,45,0,0
177421,-125,4,1,3,20,0,0
177678,-125,4,1,3,45,0,0
177764,-125,4,1,3,20,0,0
178021,-125,4,1,3,45,0,0
178107,-125,4,1,3,20,0,0
178364,-125,4,1,3,45,0,0
178449,-125,4,1,3,20,0,0
178707,-125,4,1,3,45,0,0
178792,-125,4,1,3,20,0,0
179049,-125,4,1,3,35,0,0
179135,-125,4,1,3,20,0,0
179392,-125,4,1,3,45,0,0
179478,-125,4,1,3,20,0,0
180078,-125,4,1,3,45,0,0
180164,-125,4,1,3,20,0,0
180421,-125,4,1,3,45,0,0
180507,-125,4,1,3,20,0,0
180764,-125,4,1,3,45,0,0
180849,-125,4,1,3,20,0,0
181107,-125,4,1,3,45,0,0
181192,-125,4,1,3,20,0,0
181449,-125,4,1,3,45,0,0
181535,-125,4,1,3,20,0,0
181792,-125,4,1,3,35,0,0
181878,-125,4,1,3,20,0,0
182135,-125,4,1,3,45,0,0
182221,-125,4,1,3,20,0,0
182821,-125,4,1,3,45,0,0
182907,-125,4,1,3,20,0,0
183164,-125,4,1,3,45,0,0
183249,-125,4,1,3,20,0,0
183507,-125,4,1,3,45,0,0
183592,-125,4,1,3,20,0,0
183849,-125,4,1,3,45,0,0
183935,-125,4,1,3,20,0,0
184192,-125,4,1,3,45,0,0
184278,-125,4,1,3,20,0,0
184535,-125,4,1,3,35,0,0
184621,-125,4,1,3,20,0,0
184878,-111.111111111111,4,3,4,60,0,0
188992,-125,4,2,1,60,0,0
190449,-125,4,2,1,20,0,0
191049,-125,4,2,1,40,0,0
191135,-125,4,2,1,20,0,0
191735,-125,4,2,1,60,0,0
192421,-125,4,2,1,40,0,0
193107,-125,4,2,1,20,0,0
195849,-125,4,3,1,30,0,0
197221,-125,4,2,3,60,0,0
198592,-125,4,2,1,60,0,0
199278,-125,4,2,1,45,0,0
199964,-100,4,2,1,80,0,1
210849,-100,4,2,1,30,0,1
210935,-100,4,2,1,80,0,1
221907,-100,4,1,1,70,0,1
224649,-100,4,2,3,70,0,0
224735,-100,4,2,1,20,0,0
225335,-100,4,2,1,60,0,0
225421,-100,4,2,1,5,0,0
225507,-100,4,2,1,60,0,0
225592,-100,4,2,1,5,0,0
225678,-100,4,2,1,60,0,0
225764,-100,4,2,1,5,0,0
226021,-100,4,2,1,60,0,0
226107,-100,4,2,1,40,0,0
226192,-100,4,2,1,55,0,0
226364,-100,4,2,1,60,0,0
226449,-100,4,2,1,40,0,0
226535,-100,4,2,1,60,0,0
226621,-100,4,2,1,40,0,0
226878,-100,4,2,1,55,0,0
227049,-100,4,2,1,60,0,0
227135,-100,4,2,1,20,0,0
227392,-100,4,2,2,70,0,0
235621,-100,4,2,2,40,0,0
237164,-100,4,2,1,40,0,0
237335,-100,4,2,1,60,0,0
237935,-100,4,2,1,5,0,0
238021,-100,4,3,3,70,0,0
238107,-100,4,2,3,20,0,0

[Colours]
Combo1 : 255,228,149
Combo2 : 162,255,162
Combo3 : 123,183,255
Combo4 : 249,142,158

[HitObjects]
0,202,1107,6,0,P|67:195|122:191,1,107.999996704102,0|0,0:1|0:0,0:0:0:0:
147,315,1792,2,0,P|138:355|140:380,2,53.9999983520508,4|4|4,1:3|1:3|1:3,0:0:0:0:
267,266,2478,6,0,L|310:274,2,26.9999991760254,4|0|0,1:3|1:0|1:0,0:0:0:0:
225,215,2821,2,0,L|221:147,1,53.9999983520508,4|4,1:3|1:3,0:0:0:0:
267,39,3335,1,4,1:3:0:0:
267,39,3507,1,4,1:3:0:0:
374,114,3849,5,12,0:0:0:0:
418,64,4021,2,0,P|409:107|405:196,1,120,0|0,0:0|0:0,0:0:0:0:
451,229,4535,1,8,0:0:0:0:
405,276,4707,2,0,L|413:326,2,30,0|0|8,0:0|0:0|0:1,0:0:0:0:
355,232,5049,1,0,0:0:0:0:
303,274,5221,6,0,P|267:279|223:293,1,60,8|0,0:0|0:0,0:0:0:0:
223,222,5564,2,0,P|187:217|143:203,1,60,8|0,0:1|0:0,0:0:0:0:
103,238,5907,2,0,L|97:282,3,30,8|0|0|0,0:0|0:0|0:0|0:0,0:0:0:0:
112,284,6249,2,0,P|76:289|32:303,1,60,8|8,0:1|0:1,0:0:0:0:
7,246,6592,5,8,0:0:0:0:
52,197,6764,2,0,P|47:163|44:50,1,120,4|0,0:0|0:0,0:0:0:0:
77,20,7278,2,0,L|120:15,3,30,8|0|0|0,0:0|0:0|0:0|0:0,0:0:0:0:
121,32,7621,2,0,L|164:37,3,30,8|0|0|0,0:1|0:0|0:0|0:0,0:0:0:0:
202,4,7964,6,0,P|247:12|290:16,1,60,8|0,0:0|0:0,0:0:0:0:
283,76,8307,2,0,P|253:80|223:85,1,60,8|0,0:1|0:0,0:0:0:0:
186,140,8649,1,8,0:0:0:0:
186,140,8735,2,0,P|181:176|173:219,1,60,8|8,0:0|0:0,0:0:0:0:
193,213,8992,2,0,P|198:249|206:292,1,60,8|8,0:1|0:0,0:0:0:0:
173,332,9335,5,8,0:0:0:0:
227,370,9507,2,0,P|251:341|338:334,1,120,4|0,0:0|0:0,0:0:0:0:
378,286,10021,1,8,0:0:0:0:
427,328,10192,2,0,L|428:369,2,30,0|0|8,0:0|0:0|0:1,0:0:0:0:
491,311,10535,1,0,0:0:0:0:
443,264,10707,6,0,P|439:226|440:200,1,60,8|0,0:0|0:0,0:0:0:0:
495,169,11049,2,0,P|499:131|498:105,1,60,8|0,0:1|0:0,0:0:0:0:
466,51,11392,2,0,L|425:56,3,30,8|0|0|0,0:0|0:0|0:0|0:0,0:0:0:0:
423,38,11735,2,0,P|390:34|343:30,1,60,8|8,0:1|0:1,0:0:0:0:
302,4,12078,5,8,3:2:0:0:
301,29,13621,2,0,L|297:-15,2,30,2|2|2,0:1|0:1|0:1,0:0:0:0:
244,63,13964,1,2,0:1:0:0:
289,110,14135,2,0,P|282:153|270:242,1,120,2|2,0:1|0:1,0:0:0:0:
315,353,14821,6,0,P|350:362|386:379,1,60,4|0,0:2|0:0,0:0:0:0:
403,313,15164,2,0,P|373:305|346:294,1,60,8|0,0:0|0:0,0:0:0:0:
287,264,15507,2,0,P|284:224|279:132,1,120,8|2,0:0|0:1,0:0:0:0:
182,55,16192,6,0,P|147:46|111:29,1,60,8|0,0:0|0:0,0:0:0:0:
94,95,16535,2,0,P|123:102|150:113,1,60,8|0,0:0|0:0,0:0:0:0:
210,144,16878,1,8,0:0:0:0:
177,201,17049,2,0,P|183:248|188:286,1,60,2|2,0:1|0:1,0:0:0:0:
144,312,17392,1,0,0:0:0:0:
196,352,17564,6,0,L|237:356,4,30,0|0|0|0|8,0:2|0:0|0:0|0:0|0:0,0:0:0:0:
68,374,18249,5,8,0:0:0:0:
68,374,18421,2,0,L|27:378,2,30,0|0|8,0:0|0:0|0:0,0:0:0:0:
113,250,18935,5,2,0:0:0:0:
113,250,19107,2,0,L|107:210,2,30,2|2|2,0:0|0:0|0:0,0:0:0:0:
171,280,19449,1,2,0:0:0:0:
224,241,19621,2,0,P|229:203|242:119,1,120,2|4,0:0|0:1,0:0:0:0:
305,159,20135,1,8,0:1:0:0:
305,159,20307,6,0,P|346:147|380:142,1,60,4|0,0:2|0:0,0:0:0:0:
360,78,20649,2,0,P|319:90|285:95,1,60,8|0,0:0|0:0,0:0:0:0:
248,54,20992,2,0,P|219:51|130:30,1,120,8|2,0:0|0:1,0:0:0:0:
76,151,21678,6,0,P|35:163|1:168,1,60,8|0,0:0|0:0,0:0:0:0:
42,227,22020,2,0,P|83:215|117:210,1,60,8|0,0:0|0:0,0:0:0:0:
150,254,22364,1,8,0:0:0:0:
127,315,22535,2,0,P|98:304|69:299,2,60,2|2|8,0:1|0:1|3:0,0:0:0:0:
188,339,23049,5,8,0:3:0:0:
229,286,23221,2,0,L|224:219,2,60,8|8|8,0:0|0:0|0:3,0:0:0:0:
289,258,23735,5,8,0:3:0:0:
321,315,23907,2,0,P|356:325|387:335,2,60,8|8|8,0:0|0:0|1:2,0:0:0:0:
357,259,24421,6,2,P|354:218|472:212,1,180,2|0,0:1|0:0,0:1:0:0:
502,143,25107,2,2,P|505:102|443:48,1,120,0|8,0:0|0:0,0:1:0:0:
397,11,25621,1,8,0:0:0:0:
371,71,25792,6,0,P|331:75|293:81,1,60,4|0,0:2|0:0,0:0:0:0:
315,143,26135,2,0,P|275:139|237:133,1,60,8|0,0:0|0:0,0:0:0:0:
196,166,26478,2,0,P|190:122|183:30,1,120,8|2,0:0|2:1,0:0:0:0:
74,122,27164,6,0,P|78:162|84:200,1,60,8|0,0:0|0:0,0:0:0:0:
140,209,27507,2,0,P|136:249|130:287,1,60,8|0,0:0|0:0,0:0:0:0:
164,326,27849,1,8,0:0:0:0:
220,291,28021,2,0,P|229:331|232:361,2,60,2|2|0,0:1|0:1|0:0,0:0:0:0:
286,275,28535,5,8,0:0:0:0:
286,275,28707,2,0,L|292:232,2,30,0|0|8,0:0|0:0|0:0,0:0:0:0:
403,335,29221,5,8,0:0:0:0:
403,335,29392,2,0,L|407:378,2,30,0|0|8,0:0|0:0|0:0,0:0:0:0:
461,215,29907,6,0,P|426:211|389:202,1,60,8|0,0:1|0:0,0:0:0:0:
405,139,30249,2,0,P|440:143|477:152,1,60,8|0,0:1|0:0,0:0:0:0:
495,89,30592,2,0,P|442:77|358:70,1,120,8|4,0:1|0:1,0:0:0:0:
342,12,31107,1,0,0:0:0:0:
280,36,31278,6,0,P|272:76|270:99,1,60,4|0,0:2|0:0,0:0:0:0:
204,102,31621,2,0,P|212:142|214:165,1,60,8|0,0:0|0:0,0:0:0:0:
240,221,31964,2,0,P|200:225|115:242,1,120,8|2,0:0|2:1,0:0:0:0:
175,360,32649,6,0,P|183:320|185:297,1,60,8|0,0:0|0:0,0:0:0:0:
250,290,32992,2,0,P|242:330|240:353,1,60,8|0,0:0|0:0,0:0:0:0:
298,381,33335,1,8,0:0:0:0:
356,349,33507,2,0,P|350:316|347:281,1,60,2|2,2:1|2:1,0:0:0:0:
373,229,33849,1,0,0:0:0:0:
431,259,34021,5,4,0:2:0:0:
431,259,35392,5,12,0:2:0:0:
373,229,35564,2,0,L|368:195,2,30,8|8|8,0:3|0:3|0:3,0:0:0:0:
347,289,35907,1,8,0:2:0:0:
284,271,36078,2,0,P|237:273|141:286,1,120,8|2,0:2|0:1,0:0:0:0:
111,241,36592,1,2,0:1:0:0:
66,289,36764,6,0,P|74:328|75:352,2,53.9999983520508,6|0|2,0:0|0:0|0:0,0:0:0:0:
7,173,37449,2,0,P|9:146|15:119,1,53.9999983520508,8|0,0:0|0:0,0:0:0:0:
2,56,37792,2,0,P|37:54|75:45,1,53.9999983520508,8|0,0:0|0:0,0:0:0:0:
104,7,38135,6,0,P|142:16|223:23,1,107.999996704102,8|2,0:0|0:0,0:0:0:0:
292,128,38821,1,2,0:0:0:0:
292,128,38992,2,0,P|286:170|284:195,2,53.9999983520508,0|8|0,0:0|0:0|0:0,0:0:0:0:
338,82,39507,6,0,P|382:76|425:70,1,80.9999975280763,6|0,0:0|0:0,0:0:0:0:
434,57,39849,2,0,L|424:130,1,53.9999983520508,0|0,0:0|0:0,0:0:0:0:
477,150,40192,2,0,L|484:240,1,80.9999975280763,2|0,0:0|0:0,0:0:0:0:
492,251,40535,2,0,P|445:245|414:243,1,53.9999983520508,8|0,0:0|0:0,0:0:0:0:
390,288,40878,5,8,0:0:0:0:
337,249,41049,2,0,L|334:213,2,26.9999991760254,0|0|8,0:0|0:0|0:0,0:0:0:0:
312,309,41392,1,0,0:0:0:0:
251,285,41564,2,0,P|205:290|120:295,1,107.999996704102,2|4,0:0|0:3,0:0:0:0:
101,343,42078,1,4,0:3:0:0:
40,320,42249,6,0,P|41:346|46:373,2,53.9999983520508,6|0|2,0:0|0:0|0:0,0:0:0:0:
135,231,42935,2,0,P|146:194|150:157,1,53.9999983520508,8|0,0:0|0:0,0:0:0:0:
165,116,43278,2,0,P|119:119|91:121,1,53.9999983520508,8|0,0:0|0:0,0:0:0:0:
62,162,43621,5,8,0:0:0:0:
2,137,43792,2,0,L|-2:193,2,53.9999983520508,0|0|0,1:0|1:0|1:0,0:0:0:0:
30,78,44307,2,0,L|26:24,2,53.9999983520508,0|0|8,1:0|1:0|1:2,0:0:0:0:
89,104,44821,1,8,1:2:0:0:
62,162,44992,5,8,0:0:0:0:
62,162,46364,5,8,3:0:0:0:
165,82,46707,1,8,3:0:0:0:
165,82,46878,1,8,3:0:0:0:
165,82,47049,1,8,3:0:0:0:
44,33,47392,1,8,3:0:0:0:
62,162,47735,6,0,P|54:215|53:235,1,53.9999983520508,4|0,0:0|0:0,0:0:0:0:
99,262,48078,2,0,L|102:297,3,26.9999991760254,2|2|2|2,0:1|0:1|0:1|0:1,0:0:0:0:
96,310,48421,2,0,P|135:279|196:294,1,107.999996704102,2|8,0:1|0:2,0:0:0:0:
288,372,49107,6,0,P|325:368|351:366,1,53.9999983520508,12|0,0:2|0:0,0:0:0:0:
322,304,49449,2,0,L|328:261,3,26.9999991760254,2|2|2|2,0:1|0:1|0:1|0:1,0:0:0:0:
316,258,49792,2,0,P|355:289|416:274,1,107.999996704102,2|12,0:1|0:2,0:0:0:0:
489,177,50478,6,0,P|493:134|497:111,1,53.9999983520508,2|0,0:0|0:0,0:0:0:0:
433,100,50821,2,0,P|429:143|425:166,1,53.9999983520508,2|0,0:0|0:0,0:0:0:0:
367,128,51164,6,0,P|371:85|375:62,1,53.9999983520508,2|0,0:0|0:0,0:0:0:0:
311,51,51507,2,0,P|307:94|303:117,1,53.9999983520508,2|0,0:0|0:0,0:0:0:0:
256,147,51849,6,0,L|217:152,7,26.9999991760254,8|8|8|8|8|8|8|8,0:3|0:3|0:3|0:3|0:3|0:3|0:3|0:3,0:0:0:0:
218,169,52535,2,0,L|191:165,7,26.9999991760254,8|8|8|8|8|8|8|8,0:3|0:3|0:3|0:3|0:3|0:3|0:3|0:3,0:0:0:0:
143,121,53221,5,4,0:3:0:0:
418,15,55278,5,2,0:0:0:0:
394,142,55621,1,8,0:0:0:0:
493,38,55964,6,0,P|449:26|392:82,1,120,4|10,0:0|0:0,0:0:0:0:
394,142,56478,1,0,0:0:0:0:
429,204,56649,2,0,P|387:163|330:172,1,120,8|10,0:3|0:0,0:0:0:0:
281,119,57164,1,0,0:0:0:0:
232,171,57335,6,0,P|228:210|223:272,1,90,8|0,0:3|0:0,0:0:0:0:
237,286,57678,2,0,P|201:279|159:278,1,60,10|0,0:0|0:0,0:0:0:0:
137,217,58021,2,0,P|93:230|43:173,1,120,8|10,0:3|0:0,0:0:0:0:
5,122,58535,1,8,0:0:0:0:
72,95,58707,6,0,P|69:52|66:25,1,60,8|0,0:3|0:0,0:0:0:0:
134,9,59049,2,0,P|136:38|138:68,1,60,10|0,0:0|0:0,0:0:0:0:
180,131,59392,1,8,0:3:0:0:
180,131,59478,2,0,P|222:138|260:152,1,60,8|0,0:3|0:0,0:0:0:0:
263,132,59735,2,0,P|250:183|247:202,1,60,10|0,0:0|0:0,0:0:0:0:
272,258,60078,6,0,P|320:273|374:210,2,120,4|8|4,0:0|0:3|0:0,0:0:0:0:
217,305,60935,1,8,0:3:0:0:
217,305,61021,1,8,0:3:0:0:
217,305,61107,2,0,P|169:311|136:319,1,60,8|8,0:3|0:3,0:0:0:0:
111,368,61449,5,4,3:2:0:0:
54,323,61621,2,0,L|11:328,2,30,8|8|8,1:3|1:3|1:3,0:0:0:0:
101,268,61964,1,0,1:3:0:0:
53,219,62135,5,2,0:0:0:0:
53,219,62307,2,0,L|10:214,2,30,8|8|8,0:3|0:3|0:3,0:0:0:0:
98,163,62649,1,0,0:0:0:0:
150,212,62821,6,0,P|192:218|232:224,1,60,4|8,1:2|1:3,0:0:0:0:
236,217,63078,1,8,1:3:0:0:
265,213,63164,2,0,P|257:257|253:296,1,60,8|8,1:3|1:3,0:0:0:0:
282,338,63507,2,0,P|330:365|396:319,1,120,2|8,0:0|0:0,0:0:0:0:
489,241,64192,6,0,P|478:199|471:102,1,120,4|8,0:0|0:3,0:0:0:0:
497,55,64707,1,8,0:3:0:0:
441,9,64878,2,0,P|398:13|333:19,1,90,4|8,0:0|0:3,0:0:0:0:
336,40,65221,2,0,P|297:32|258:25,1,60,8|4,0:3|0:0,0:0:0:0:
175,130,65735,5,4,1:3:0:0:
110,97,65907,2,0,P|118:63|122:30,1,60,4|4,1:3|1:3,0:0:0:0:
58,12,66249,1,4,1:3:0:0:
58,12,66335,2,0,P|46:59|40:124,1,90,4|2,1:3|1:3,0:0:0:0:
3,161,66764,1,2,1:3:0:0:
55,210,66935,6,0,P|88:168|155:179,1,120,4|10,0:0|0:0,0:0:0:0:
165,244,67449,1,0,0:0:0:0:
109,290,67621,2,0,P|165:282|203:325,1,120,8|10,0:3|0:0,0:0:0:0:
261,369,68135,1,0,0:0:0:0:
321,329,68307,6,0,P|324:290|336:228,1,90,8|0,0:3|0:0,0:0:0:0:
342,215,68649,2,0,P|301:219|269:223,1,60,10|0,0:0|0:0,0:0:0:0:
224,178,68992,2,0,P|196:136|238:75,1,120,8|10,0:3|0:0,0:0:0:0:
260,15,69507,1,8,0:0:0:0:
322,51,69678,6,0,P|377:58|431:69,1,90,8|8,0:3|0:3,0:0:0:0:
435,50,70021,2,0,P|429:93|427:113,1,60,10|0,0:0|0:0,0:0:0:0:
478,161,70364,1,8,0:3:0:0:
478,161,70449,2,0,P|481:199|485:225,1,60,8|8,0:3|0:3,0:0:0:0:
499,243,70707,2,0,P|458:250|422:258,1,60,10|0,0:0|0:0,0:0:0:0:
407,317,71049,6,0,P|388:279|313:264,2,120,4|8|4,0:0|0:3|0:0,0:0:0:0:
347,358,71907,1,8,0:3:0:0:
347,358,71992,1,8,0:3:0:0:
347,358,72078,2,0,P|298:363|278:367,1,60,8|8,0:3|0:3,0:0:0:0:
222,334,72421,6,0,P|229:289|232:261,1,60,4|0,0:0|0:3,0:0:0:0:
161,254,72764,2,0,P|157:283|152:313,1,60,8|0,0:0|0:0,0:0:0:0:
81,329,73107,2,0,P|76:291|68:203,1,120,2|8,0:2|0:0,0:0:0:0:
12,164,73621,1,8,0:3:0:0:
57,108,73792,5,4,0:2:0:0:
112,154,73964,2,0,P|139:117|223:126,1,120,8|8,0:3|0:0,0:0:0:0:
259,165,74478,2,0,P|251:212|240:295,1,120,2|8,0:2|0:2,0:0:0:0:
196,340,74992,1,8,0:3:0:0:
261,370,75164,5,10,0:0:0:0:
391,309,75507,2,0,P|396:263|405:234,1,60,4|0,0:0|0:0,0:0:0:0:
336,215,75849,2,0,P|331:169|322:140,1,60,8|0,0:3|0:0,0:0:0:0:
379,105,76192,2,0,P|418:114|447:121,1,60,4|0,0:0|0:0,0:0:0:0:
460,50,76535,6,0,P|424:40|381:28,1,60,4|8,0:0|0:3,0:0:0:0:
335,7,76878,2,0,P|327:44|320:73,1,60,8|8,0:0|0:3,0:0:0:0:
259,102,77221,2,0,L|218:108,3,30,4|8|8|8,0:0|0:3|0:3|0:3,0:0:0:0:
217,131,77564,2,0,L|176:125,3,30,8|0|8|8,0:0|0:0|0:0|0:3,0:0:0:0:
150,76,77907,5,4,0:0:0:0:
256,192,77992,12,4,80649,0:3:0:0:
328,247,81335,6,0,P|365:258|388:272,2,60,4|4|4,1:3|1:3|1:3,0:0:0:0:
326,117,82021,5,12,1:3:0:0:
326,117,82192,2,0,L|320:80,2,30,8|8|4,1:3|1:3|1:3,0:0:0:0:
372,164,82535,1,4,1:3:0:0:
265,241,82878,5,4,1:3:0:0:
265,241,83049,1,4,1:3:0:0:
340,349,83392,5,4,0:0:0:0:
256,192,91621,12,2,93678,1:1:0:0:
111,78,94364,6,0,P|146:71|175:63,1,60,0|0,0:0|0:0,0:0:0:0:
190,127,94707,2,0,P|155:134|126:142,1,60,8|0,0:0|0:0,0:0:0:0:
98,197,95049,2,0,P|154:207|230:222,1,120,8|2,0:0|0:1,0:0:0:0:
236,349,95735,6,0,P|265:341|294:335,1,60,8|0,0:0|0:0,0:0:0:0:
329,279,96078,2,0,P|299:271|270:265,1,60,8|0,0:0|0:0,0:0:0:0:
207,286,96421,1,8,0:0:0:0:
215,219,96592,2,0,P|210:189|207:159,1,60,2|2,0:1|0:1,0:0:0:0:
246,105,96935,1,0,0:0:0:0:
190,68,97107,6,0,L|154:64,4,30,8|0|0|0|8,0:0|0:0|0:0|0:0|0:0,0:0:0:0:
317,35,97792,6,0,L|336:-6,4,30,8|0|0|0|8,0:0|0:0|0:0|0:0|0:0,0:0:0:0:
360,159,98478,6,0,L|402:181,3,30,10|0|0|0,0:0|0:0|0:0|0:0,0:0:0:0:
410,168,98821,2,0,P|405:210|401:234,1,60,10|2,0:0|0:0,0:0:0:0:
449,273,99164,2,0,P|407:258|348:314,1,120,10|4,0:0|0:1,0:0:0:0:
303,346,99678,1,8,0:1:0:0:
256,298,99849,6,0,P|252:266|245:234,1,60,4|0,0:2|0:0,0:0:0:0:
311,227,100192,2,0,P|315:195|322:163,1,60,8|0,0:0|0:0,0:0:0:0:
355,111,100535,2,0,P|318:149|247:137,1,120,8|2,0:0|0:1,0:0:0:0:
209,18,101221,6,0,P|217:54|222:94,1,60,8|0,0:0|0:0,0:0:0:0:
154,67,101564,2,0,P|146:103|141:143,1,60,8|0,0:0|0:0,0:0:0:0:
180,180,101907,1,8,0:0:0:0:
128,221,102078,2,0,P|86:225|54:233,2,60,2|2|8,0:1|0:1|3:0,0:0:0:0:
172,269,102592,5,8,0:3:0:0:
229,235,102764,2,0,P|238:191|249:167,2,60,8|8|8,0:0|0:0|0:3,0:0:0:0:
265,290,103278,1,8,0:3:0:0:
210,327,103449,2,0,P|171:336|131:353,2,60,8|8|8,0:0|0:0|1:2,0:0:0:0:
262,367,103964,6,2,P|295:319|408:347,1,180,2|0,0:1|0:0,0:1:0:0:
448,292,104649,2,2,P|415:244|357:244,1,120,8|8,0:0|0:0,0:1:0:0:
307,201,105164,1,0,0:0:0:0:
269,254,105335,6,0,P|234:260|207:264,1,60,4|0,0:2|0:0,0:0:0:0:
210,197,105678,2,0,P|175:203|148:207,1,60,8|0,0:0|0:0,0:0:0:0:
93,239,106021,2,0,P|88:201|78:113,1,120,8|2,0:0|0:1,0:0:0:0:
161,16,106707,6,0,P|196:22|223:26,1,60,8|0,0:0|0:0,0:0:0:0:
210,91,107050,2,0,P|245:85|272:81,1,60,8|0,0:0|0:0,0:0:0:0:
308,28,107392,1,8,0:0:0:0:
366,58,107564,2,0,P|370:16|374:-13,2,60,2|2|0,0:1|0:1|0:0,0:0:0:0:
327,112,108078,6,0,L|333:147,4,30,8|0|0|0|8,0:0|0:0|0:0|0:0|0:0,0:0:0:0:
436,38,108764,6,0,L|441:2,4,30,8|0|0|0|8,0:0|0:0|0:0|0:0|0:0,0:0:0:0:
499,153,109449,6,0,P|454:142|412:140,1,60,8|0,0:1|0:0,0:0:0:0:
409,199,109792,2,0,P|454:210|496:212,1,60,8|0,0:1|0:0,0:0:0:0:
490,273,110135,2,0,P|450:282|368:308,1,120,8|4,0:1|0:1,0:0:0:0:
325,260,110649,1,0,0:0:0:0:
268,295,110821,6,0,P|262:333|258:362,1,60,4|0,0:2|0:0,0:0:0:0:
197,331,111164,2,0,P|203:293|207:264,1,60,8|0,0:0|0:0,0:0:0:0:
243,217,111507,2,0,P|209:250|120:227,1,120,8|2,0:0|0:1,0:0:0:0:
55,144,112192,6,0,P|61:106|65:77,1,60,8|0,0:0|0:0,0:0:0:0:
130,79,112535,2,0,P|124:117|120:146,1,60,8|0,0:0|0:0,0:0:0:0:
164,188,112878,1,8,0:0:0:0:
213,144,113049,2,0,P|251:139|293:130,1,60,2|2,0:1|0:1,0:0:0:0:
289,70,113392,1,0,0:0:0:0:
349,97,113564,5,4,0:2:0:0:
349,97,114935,5,12,0:2:0:0:
289,70,115107,2,0,L|285:41,2,30,8|8|8,0:3|0:3|0:3,0:0:0:0:
272,134,115449,1,8,0:2:0:0:
332,162,115621,2,0,P|326:207|318:296,1,120,8|2,0:2|0:1,0:0:0:0:
279,334,116135,1,2,0:1:0:0:
332,372,116307,6,0,P|361:373|394:377,2,53.9999983520508,6|0|2,0:0|0:0|0:0,0:0:0:0:
230,290,116992,2,0,P|187:294|153:296,1,53.9999983520508,8|0,0:0|0:0,0:0:0:0:
117,323,117335,2,0,P|111:295|100:266,1,53.9999983520508,2|0,0:0|0:0,0:0:0:0:
41,247,117678,6,0,P|51:212|61:130,1,107.999996704102,2|8,0:0|0:3,0:0:0:0:
172,75,118364,1,8,0:0:0:0:
172,75,118535,2,0,P|179:43|181:14,2,53.9999983520508,0|2|0,0:0|0:0|0:0,0:0:0:0:
213,124,119049,6,0,L|299:116,1,80.9999975280763,6|0,0:0|0:0,0:0:0:0:
313,107,119392,2,0,L|303:176,1,53.9999983520508,0|0,0:0|0:0,0:0:0:0:
273,217,119735,2,0,P|317:222|342:264,1,80.9999975280763,8|0,0:0|0:0,0:0:0:0:
358,259,120078,2,0,P|351:296|350:323,1,53.9999983520508,0|0,0:0|0:0,0:0:0:0:
385,366,120421,5,8,0:0:0:0:
446,344,120592,2,0,L|483:354,2,26.9999991760254,0|8|8,0:0|0:0|0:0,0:0:0:0:
415,286,120935,1,8,0:0:0:0:
458,237,121107,2,0,P|448:188|441:114,1,107.999996704102,8|10,0:0|0:0,0:0:0:0:
405,76,121621,1,2,0:0:0:0:
438,20,121792,6,0,P|475:15|508:11,2,53.9999983520508,6|0|2,0:0|0:0|0:0,0:0:0:0:
344,110,122478,2,0,P|309:99|287:98,1,53.9999983520508,8|0,0:0|0:0,0:0:0:0:
230,119,122821,2,0,P|225:82|223:55,1,53.9999983520508,8|0,0:0|0:0,0:0:0:0:
159,55,123164,5,0,0:0:0:0:
125,110,123335,2,0,P|127:136|131:163,2,53.9999983520508,0|0|0,1:0|1:0|1:0,0:0:0:0:
68,77,123849,2,0,P|36:68|16:62,2,53.9999983520508,0|0|8,1:0|1:0|1:2,0:0:0:0:
104,22,124364,1,8,1:2:0:0:
159,55,124535,5,8,0:0:0:0:
159,55,125907,5,8,3:0:0:0:
69,147,126249,1,8,3:0:0:0:
69,147,126421,1,8,3:0:0:0:
69,147,126592,1,8,3:0:0:0:
193,182,126935,1,8,3:0:0:0:
159,55,127278,6,0,P|147:96|146:127,1,53.9999983520508,4|0,0:0|0:0,0:0:0:0:
190,155,127621,2,0,L|193:190,3,26.9999991760254,2|2|2|2,0:1|0:1|0:1|0:1,0:0:0:0:
188,204,127964,2,0,P|227:173|288:188,1,107.999996704102,2|8,0:1|0:2,0:0:0:0:
335,300,128649,6,0,P|298:293|271:287,1,53.9999983520508,12|0,0:0|0:0,0:0:0:0:
217,299,128992,2,0,L|219:337,3,26.9999991760254,2|2|2|2,0:1|0:1|0:1|0:1,0:0:0:0:
227,346,129335,2,0,P|194:339|104:335,1,107.999996704102,2|12,0:1|0:2,0:0:0:0:
23,246,130021,6,0,P|14:218|1:189,1,53.9999983520508,2|0,0:0|0:0,0:0:0:0:
68,189,130364,2,0,P|62:146|56:123,1,53.9999983520508,2|0,0:0|0:0,0:0:0:0:
123,145,130707,6,0,P|124:108|128:81,1,53.9999983520508,2|0,0:0|0:0,0:0:0:0:
188,109,131049,2,0,P|197:75|210:49,1,53.9999983520508,2|0,0:0|0:0,0:0:0:0:
263,29,131392,6,0,L|302:34,7,26.9999991760254,8|8|8|8|8|8|8|8,0:3|0:3|0:3|0:3|0:3|0:3|0:3|0:3,0:0:0:0:
301,51,132078,2,0,L|328:47,7,26.9999991760254,8|8|8|8|8|8|8|8,0:3|0:3|0:3|0:3|0:3|0:3|0:3|0:3,0:0:0:0:
376,3,132764,5,4,0:3:0:0:
44,238,134821,5,2,0:0:0:0:
167,277,135164,1,8,0:0:0:0:
24,296,135507,6,0,P|30:253|36:162,1,120,4|10,0:0|0:0,0:0:0:0:
13,107,136021,1,0,0:0:0:0:
62,54,136192,2,0,P|118:50|153:120,1,120,8|10,0:3|0:0,0:0:0:0:
212,53,136707,1,0,0:0:0:0:
268,97,136878,6,0,P|261:130|254:194,1,90,8|0,0:3|0:0,0:0:0:0:
265,211,137221,2,0,P|231:213|201:220,1,60,10|0,0:0|0:0,0:0:0:0:
165,278,137564,2,0,P|201:284|281:330,1,120,8|10,0:3|0:0,0:0:0:0:
327,274,138078,1,8,0:0:0:0:
389,310,138249,6,0,P|396:277|409:244,1,60,8|0,0:3|0:0,0:0:0:0:
352,203,138592,2,0,P|345:170|332:137,1,60,10|0,0:0|0:0,0:0:0:0:
387,94,138935,1,8,0:3:0:0:
336,41,139107,2,0,L|341:7,2,30,0|0|10,0:0|0:0|0:0,0:0:0:0:
287,94,139449,1,0,0:0:0:0:
226,54,139621,6,0,P|180:49|96:38,2,120,4|8|4,0:0|0:3|0:0,0:0:0:0:
292,99,140478,1,8,0:3:0:0:
292,99,140564,1,8,0:3:0:0:
292,99,140649,2,0,P|299:140|304:170,1,60,8|8,0:0|0:0,0:0:0:0:
255,213,140992,5,4,3:2:0:0:
308,261,141164,2,0,L|300:305,2,30,8|8|8,1:3|1:3|1:3,0:0:0:0:
357,208,141507,1,0,1:0:0:0:
409,263,141678,5,2,0:0:0:0:
409,263,141849,2,0,L|417:307,2,30,8|8|8,0:3|0:3|0:3,0:0:0:0:
464,216,142192,1,8,0:3:0:0:
414,161,142364,6,0,P|411:122|408:76,1,60,4|8,1:2|1:3,0:0:0:0:
413,73,142621,1,8,1:3:0:0:
417,47,142707,2,0,P|380:48|344:50,1,60,8|8,1:3|1:3,0:0:0:0:
310,103,143049,2,0,P|291:73|208:54,1,120,2|8,0:0|0:0,0:0:0:0:
121,164,143735,6,0,P|115:213|108:295,1,120,4|8,0:0|0:3,0:0:0:0:
148,343,144249,1,8,0:3:0:0:
208,303,144421,2,0,P|244:297|284:336,1,90,4|8,0:0|0:3,0:0:0:0:
280,356,144764,2,0,P|318:348|355:345,1,60,8|4,0:3|0:0,0:0:0:0:
366,204,145278,5,4,1:3:0:0:
431,237,145450,2,0,P|423:271|419:304,1,60,4|4,1:3|1:3,0:0:0:0:
483,322,145792,1,4,1:3:0:0:
483,322,145878,2,0,P|495:275|501:210,1,90,4|2,1:3|1:3,0:0:0:0:
471,167,146307,1,2,1:3:0:0:
504,103,146478,6,0,P|460:97|375:61,1,120,4|10,0:0|0:0,0:0:0:0:
345,13,146992,1,0,0:0:0:0:
313,77,147164,2,0,P|277:34|202:46,1,120,8|10,0:3|0:0,0:0:0:0:
173,93,147678,1,0,0:0:0:0:
106,65,147849,6,0,P|99:109|96:165,1,90,8|0,0:3|0:0,0:0:0:0:
82,177,148192,2,0,P|116:187|150:201,1,60,10|0,0:0|0:0,0:0:0:0:
203,164,148535,2,0,P|240:193|216:272,1,120,8|10,0:3|0:0,0:0:0:0:
162,279,149049,1,8,0:0:0:0:
179,349,149221,6,0,P|226:354|276:370,1,90,8|8,0:3|0:3,0:0:0:0:
284,350,149564,2,0,P|331:342|360:336,1,60,10|0,0:0|0:0,0:0:0:0:
406,374,149907,1,8,0:3:0:0:
442,312,150078,1,0,0:0:0:0:
442,312,150164,1,8,0:3:0:0:
442,312,150249,2,0,P|440:274|438:238,1,60,10|0,0:0|0:0,0:0:0:0:
385,203,150592,6,0,P|428:185|452:110,2,120,4|8|4,0:0|0:3|0:0,0:0:0:0:
358,135,151449,1,8,0:3:0:0:
358,135,151535,1,8,0:3:0:0:
358,135,151621,2,0,P|319:127|292:125,1,60,8|8,0:3|0:3,0:0:0:0:
228,142,151964,6,0,P|221:109|217:77,1,60,4|0,0:0|0:0,0:0:0:0:
156,44,152307,2,0,P|151:73|145:103,1,60,8|0,0:0|0:0,0:0:0:0:
75,119,152649,2,0,P|119:119|160:189,1,120,2|8,0:2|0:0,0:0:0:0:
111,230,153164,1,8,0:3:0:0:
162,279,153335,5,4,0:2:0:0:
213,227,153507,2,0,P|262:220|297:215,1,60,8|8,0:3|0:3,0:0:0:0:
292,149,153849,1,8,0:0:0:0:
359,174,154021,2,0,P|345:226|339:312,1,120,2|8,0:2|0:0,0:0:0:0:
288,343,154535,1,8,0:3:0:0:
350,380,154707,5,10,0:0:0:0:
229,302,155049,2,0,P|226:270|217:236,1,60,4|0,0:0|0:0,0:0:0:0:
282,208,155392,2,0,P|285:178|292:149,1,60,8|0,0:3|0:0,0:0:0:0:
224,122,155735,2,0,P|194:128|153:136,1,60,4|0,0:0|0:0,0:0:0:0:
141,65,156078,6,0,P|170:59|199:53,1,60,4|8,0:0|0:3,0:0:0:0:
271,65,156421,2,0,P|279:24|285:0,1,60,8|8,0:0|0:3,0:0:0:0:
342,48,156764,2,0,L|383:54,3,30,4|8|8|8,0:0|0:3|0:3|0:3,0:0:0:0:
384,77,157107,2,0,L|425:71,3,30,8|0|8|8,0:0|0:0|0:0|0:3,0:0:0:0:
451,22,157450,5,4,0:0:0:0:
256,192,157535,12,4,160192,0:3:0:0:
64,156,160878,6,0,P|59:118|52:89,2,60,4|4|4,1:3|1:3|1:3,0:0:0:0:
167,262,161564,5,12,1:3:0:0:
167,262,161735,2,0,L|161:299,2,30,8|8|4,1:3|1:3|1:3,0:0:0:0:
223,227,162078,1,4,1:3:0:0:
138,131,162421,5,4,1:3:0:0:
138,131,162592,1,4,1:3:0:0:
222,29,162935,5,2,0:0:0:0:
256,192,172364,12,8,173221,0:1:0:0:
365,234,173907,6,0,B|377:173|480:192|452:279|404:309,1,192,8|8,0:0|0:2,0:0:0:0:
268,367,175278,2,0,P|231:360|155:352,2,96,8|8|8,0:3|0:3|0:2,0:0:0:0:
237,216,176649,6,0,B|225:155|122:174|150:261|198:291,1,192,8|8,0:0|0:2,0:0:0:0:
336,343,178021,2,0,P|373:336|449:328,2,96,8|8|8,0:3|0:3|0:2,0:0:0:0:
274,297,179049,1,2,0:3:0:0:
342,262,179392,6,0,P|361:204|252:195,1,192,8|8,0:0|0:2,0:0:0:0:
151,290,180764,2,0,P|114:283|38:275,2,96,8|8|8,0:3|0:3|0:2,0:0:0:0:
24,203,182135,6,0,P|5:145|114:136,1,192,8|8,0:0|0:2,0:0:0:0:
207,237,183507,2,0,P|244:230|320:222,2,96,8|8|8,0:3|0:3|0:2,0:0:0:0:
167,170,184535,1,8,0:3:0:0:
241,126,184878,6,0,P|248:85|256:14,2,107.999996704102,8|8|8,0:1|0:1|0:1,0:0:0:0:
167,170,185907,1,8,0:1:0:0:
217,239,186249,2,0,P|271:247|335:275,1,107.999996704102,8|0,0:1|0:0,0:0:0:0:
393,313,186935,2,0,P|388:349|387:371,2,53.9999983520508,8|0|8,0:1|0:0|0:1,0:0:0:0:
462,260,187621,5,8,0:1:0:0:
394,206,187964,1,8,0:1:0:0:
452,142,188307,2,0,P|449:106|447:76,2,53.9999983520508,8|0|8,0:1|0:0|0:1,0:0:0:0:
394,206,188992,6,0,B|361:116|229:158|299:242,1,192,6|0,0:0|0:0,0:0:0:0:
369,96,190364,2,0,P|374:50|400:-4,1,96,2|0,0:0|0:0,0:0:0:0:
285,44,191049,2,0,P|246:33|174:24,1,96,2|0,0:0|0:0,0:0:0:0:
97,92,191735,1,6,0:0:0:0:
256,192,191821,12,8,194478,0:3:0:0:
206,65,195849,5,8,0:3:0:0:
256,192,197221,12,2,198592,0:0:0:0:
493,335,199278,5,2,0:0:0:0:
362,302,199621,1,8,0:0:0:0:
478,216,199964,6,0,B|413:205|440:251|353:231,1,120,4|10,0:0|0:0,0:0:0:0:
329,169,200478,1,0,0:0:0:0:
266,204,200649,2,0,P|295:182|286:94,1,120,8|10,0:3|0:0,0:0:0:0:
242,54,201164,1,0,0:0:0:0:
189,102,201335,6,0,P|148:97|80:82,1,90,8|0,0:3|0:0,0:0:0:0:
79,71,201678,2,0,P|84:111|83:137,1,60,10|0,0:0|0:0,0:0:0:0:
50,194,202021,2,0,P|110:203|159:257,1,120,8|10,0:3|0:0,0:0:0:0:
137,313,202535,1,8,0:0:0:0:
205,336,202707,6,0,P|211:302|224:262,1,60,8|0,0:3|0:0,0:0:0:0:
277,236,203049,2,0,P|268:207|263:177,1,60,6|0,0:0|0:0,0:0:0:0:
294,113,203392,1,8,0:3:0:0:
294,113,203478,2,0,P|329:120|362:124,1,60,8|0,0:3|0:0,0:0:0:0:
377,136,203735,2,0,P|374:99|373:62,1,60,10|0,0:0|0:0,0:0:0:0:
442,55,204078,6,0,P|484:90|458:157,2,120,4|8|4,0:0|0:3|0:0,0:0:0:0:
386,8,204935,1,8,0:3:0:0:
386,8,205021,1,8,0:3:0:0:
386,8,205107,2,0,P|344:4|316:1,1,60,8|8,0:0|0:3,0:0:0:0:
287,62,205449,5,4,0:0:0:0:
219,35,205621,2,0,L|214:3,2,30,8|8|8,1:3|1:3|1:3,0:0:0:0:
169,87,205964,1,0,1:0:0:0:
205,153,206135,5,2,0:2:0:0:
205,153,206307,2,0,L|198:182,2,30,8|8|8,0:3|0:3|0:3,0:0:0:0:
274,134,206649,1,0,0:3:0:0:
287,62,206821,6,0,P|323:50|358:56,1,60,4|8,1:2|1:3,0:0:0:0:
366,63,207078,1,8,1:3:0:0:
381,83,207164,2,0,P|368:117|366:148,1,60,8|8,1:3|1:3,0:0:0:0:
427,177,207507,2,0,P|391:188|330:252,1,120,2|8,0:0|0:0,0:0:0:0:
274,378,208192,6,0,P|234:369|144:362,1,120,4|8,0:0|0:3,0:0:0:0:
85,382,208707,1,8,0:3:0:0:
54,317,208878,2,0,P|64:284|74:216,1,90,4|8,0:0|0:3,0:0:0:0:
64,204,209221,2,0,P|95:212|132:217,1,60,8|4,0:3|0:0,0:0:0:0:
191,89,209735,5,4,1:3:0:0:
137,40,209907,2,0,P|94:47|66:55,1,60,4|4,1:3|1:3,0:0:0:0:
45,116,210249,1,4,1:3:0:0:
45,116,210335,2,0,P|83:122|124:133,1,60,4|0,1:3|1:0,0:0:0:0:
128,114,210592,2,0,P|117:152|113:187,1,60,2|2,1:3|1:3,0:0:0:0:
141,238,210935,6,0,B|219:248|181:209|272:222,1,120,4|10,0:0|0:0,0:0:0:0:
300,277,211449,1,0,0:0:0:0:
365,246,211621,2,0,P|383:213|338:149,1,120,8|10,0:3|0:0,0:0:0:0:
379,88,212135,1,0,0:0:0:0:
316,52,212307,6,0,P|272:58|207:61,1,90,8|0,0:3|0:0,0:0:0:0:
204,47,212649,2,0,P|208:82|207:108,1,60,10|0,0:0|0:0,0:0:0:0:
164,165,212992,2,0,P|231:187|255:243,1,120,8|10,0:3|0:0,0:0:0:0:
209,285,213507,1,8,0:0:0:0:
249,344,213678,6,0,P|293:332|338:327,1,90,8|8,0:3|0:3,0:0:0:0:
354,306,214021,2,0,P|385:313|418:318,1,60,10|0,0:0|0:0,0:0:0:0:
481,348,214364,1,8,0:3:0:0:
481,348,214449,2,0,P|474:308|474:272,1,60,8|8,0:3|0:3,0:0:0:0:
457,266,214707,2,0,P|463:235|466:184,1,60,10|0,0:0|0:0,0:0:0:0:
504,146,215049,6,0,P|484:98|414:104,2,120,4|8|4,0:0|0:3|0:0,0:0:0:0:
472,214,215907,1,8,0:3:0:0:
472,214,215992,1,8,0:3:0:0:
472,214,216078,2,0,P|432:217|396:224,1,60,8|8,0:0|0:0,0:0:0:0:
349,255,216421,6,0,P|346:218|346:189,1,60,4|0,0:0|0:0,0:0:0:0:
274,182,216764,2,0,P|277:219|277:248,1,60,8|0,0:0|0:0,0:0:0:0:
271,313,217107,2,0,P|252:274|166:261,1,120,2|8,0:2|0:0,0:0:0:0:
141,313,217621,1,8,0:3:0:0:
81,272,217792,5,4,0:0:0:0:
125,215,217964,2,0,P|132:181|140:95,1,120,8|8,0:3|0:0,0:0:0:0:
98,37,218478,2,0,P|126:7|206:28,1,120,2|8,0:2|0:0,0:0:0:0:
211,89,218992,1,8,0:3:0:0:
280,67,219164,5,10,0:0:0:0:
377,173,219507,2,0,P|364:214|362:232,1,60,4|0,0:0|0:0,0:0:0:0:
291,217,219849,2,0,P|304:258|306:276,1,60,8|0,0:3|0:0,0:0:0:0:
373,301,220192,2,0,P|405:290|441:283,1,60,4|0,0:0|0:0,0:0:0:0:
426,356,220535,6,0,P|394:367|358:374,1,60,4|8,0:0|0:3,0:0:0:0:
303,340,220878,2,0,P|271:329|235:322,1,60,8|8,0:0|0:3,0:0:0:0:
179,353,221221,2,0,L|173:312,3,30,4|8|8|8,0:0|0:3|0:3|0:3,0:0:0:0:
150,311,221564,2,0,L|156:270,3,30,8|0|8|8,0:0|0:0|0:0|0:3,0:0:0:0:
205,244,221907,5,4,0:0:0:0:
256,192,221992,12,4,224649,0:3:0:0:
337,103,225335,6,0,P|349:59|351:36,2,60,4|4|4,1:3|1:3|1:3,0:0:0:0:
226,174,226021,5,12,1:3:0:0:
226,174,226192,2,0,L|231:210,2,30,8|8|4,1:3|1:3|1:3,0:0:0:0:
172,134,226535,1,4,1:3:0:0:
230,15,226878,5,4,1:3:0:0:
230,15,227049,1,4,1:3:0:0:
108,66,227392,5,12,0:0:0:0:
61,18,227564,2,0,P|72:50|69:154,1,120,0|0,0:0|0:0,0:0:0:0:
22,176,228078,1,8,0:0:0:0:
63,227,228249,2,0,L|53:272,2,30,0|0|8,0:0|0:0|0:1,0:0:0:0:
117,189,228592,1,0,0:0:0:0:
152,245,228764,6,0,P|186:253|220:263,1,60,8|0,0:0|0:0,0:0:0:0:
211,193,229107,2,0,P|245:185|279:175,1,60,8|0,0:1|0:0,0:0:0:0:
302,235,229449,2,0,L|346:241,3,30,0|0|0|0,0:0|0:0|0:0|0:0,0:0:0:0:
348,257,229792,2,0,P|353:221|366:181,1,60,8|8,0:1|0:1,0:0:0:0:
338,134,230135,5,8,0:0:0:0:
392,96,230307,2,0,P|439:120|439:187,1,120,4|0,0:0|0:0,0:0:0:0:
412,240,230821,2,0,L|407:283,3,30,8|0|0|0,0:0|0:0|0:0|0:0,0:0:0:0:
424,284,231164,2,0,L|429:327,3,30,8|0|0|0,0:1|0:0|0:0|0:0,0:0:0:0:
386,358,231507,6,0,P|352:366|316:377,1,60,8|0,0:0|0:0,0:0:0:0:
333,307,231849,2,0,P|304:298|274:291,1,60,8|0,0:1|0:0,0:0:0:0:
215,317,232192,1,8,0:0:0:0:
215,317,232278,2,0,P|210:283|203:255,1,60,8|8,0:0|0:0,0:0:0:0:
185,243,232535,2,0,P|190:209|197:181,1,60,8|8,0:1|0:0,0:0:0:0:
156,131,232878,5,8,0:0:0:0:
98,162,233049,2,0,P|61:139|94:62,1,120,4|0,0:0|0:0,0:0:0:0:
99,10,233564,1,8,0:0:0:0:
159,36,233735,2,0,L|169:92,2,30,0|0|8,0:0|0:0|0:1,0:0:0:0:
217,5,234078,1,0,0:0:0:0:
246,63,234249,6,0,P|239:102|233:136,1,60,8|0,0:0|0:0,0:0:0:0:
301,121,234592,2,0,P|308:160|314:194,1,60,8|0,0:1|0:0,0:0:0:0:
284,240,234935,2,0,L|320:245,3,30,8|0|0|0,0:0|0:0|0:0|0:0,0:0:0:0:
328,263,235278,2,0,P|361:256|401:254,1,60,8|8,0:1|0:1,0:0:0:0:
425,200,235621,5,8,3:2:0:0:
425,200,237164,6,0,L|433:159,2,30,2|2|2,0:1|0:1|0:1,0:0:0:0:
387,253,237507,1,2,0:1:0:0:
335,212,237678,2,0,P|292:219|203:231,1,120,2|4,0:1|1:3,0:0:0:0:
