osu file format v14

[General]
AudioFilename: audio13421.mp3
AudioLeadIn: 0
PreviewTime: 132803
Countdown: 0
SampleSet: Drum
StackLeniency: 0.6
Mode: 0
LetterboxInBreaks: 0
WidescreenStoryboard: 1

[Editor]
Bookmarks: 1232,241232
DistanceSpacing: 1.1
BeatDivisor: 4
GridSize: 4
TimelineZoom: 1.2

[Metadata]
Title:Onegai! Kon kon Oinarisama
TitleUnicode:お願い!コンコンお稲荷さま
Artist:ARM x Komso feat. Nanahira
ArtistUnicode:ARM×狐夢想 feat. ななひら
Creator:ColdTooth
Version:Novice
Source:Muse Dash
Tags:electronic japanese video game Q-15a Confetto COOL&CREATE IOSYS Denpa Makemon Trip×Frolic Torippu × furorikku 喵斯快跑 トリップ×フロリック ばやちゃお 魔けモン! 春M3
BeatmapID:2606090
BeatmapSetID:1254015

[Difficulty]
HPDrainRate:3.3
CircleSize:2.9
OverallDifficulty:4.4
ApproachRate:5.4
SliderMultiplier:1.06
SliderTickRate:1

[Events]
//Background and Video events
Video,-185,"KON KON silent.mp4"
0,0,"background.jpg",0,0
//Break Periods
2,163107,166568
//Storyboard Layer 0 (Background)
//Storyboard Layer 1 (Fail)
//Storyboard Layer 2 (Pass)
//Storyboard Layer 3 (Foreground)
//Storyboard Layer 4 (Overlay)
//Storyboard Sound Samples

[TimingPoints]
1079,342.857142857143,4,2,3,50,1,0
1164,-100,4,2,3,25,0,0
1764,-100,4,3,3,100,0,0
2450,-100,4,2,3,100,0,0
3307,-100,4,3,3,100,0,0
3821,-100,4,2,3,60,0,1
3907,-100,4,2,3,100,0,0
4164,-100,4,1,3,100,0,0
4250,-100,4,2,3,100,0,0
4507,-100,4,1,3,100,0,0
4593,-100,4,2,3,100,0,0
4850,-100,4,1,3,100,0,0
4936,-100,4,2,3,100,0,0
5193,-100,4,1,3,100,0,0
5279,-100,4,2,3,100,0,0
5536,-100,4,1,3,100,0,0
5621,-100,4,2,3,100,0,0
5879,-100,4,1,3,100,0,0
5964,-100,4,2,3,100,0,0
6221,-100,4,1,3,100,0,0
6564,-100,4,1,3,100,0,0
6650,-100,4,2,3,100,0,0
6907,-100,4,1,3,100,0,0
6993,-100,4,2,3,100,0,0
7250,-100,4,1,3,100,0,0
7336,-100,4,2,3,100,0,0
7593,-100,4,1,3,100,0,0
7679,-100,4,2,3,100,0,0
8621,-100,4,1,3,100,0,0
9050,-100,4,2,3,100,0,0
9136,-100,4,1,3,100,0,0
9221,-100,4,2,3,100,0,0
9307,-100,4,1,3,100,0,0
9393,-100,4,2,3,100,0,0
9650,-100,4,1,3,100,0,0
9736,-100,4,2,3,100,0,0
9993,-100,4,1,3,100,0,0
10079,-100,4,2,3,100,0,0
10336,-100,4,1,3,100,0,0
10421,-100,4,2,3,100,0,0
10679,-100,4,1,3,100,0,0
10764,-100,4,2,3,100,0,0
11021,-100,4,1,3,100,0,0
11107,-100,4,2,3,100,0,0
11364,-100,4,1,3,100,0,0
11707,-100,4,1,3,100,0,0
12050,-100,4,3,3,100,0,0
13079,-100,4,3,3,100,0,0
13250,-100,4,2,3,100,0,0
13593,-100,4,2,0,100,0,0
14107,-100,4,1,3,100,0,0
14193,-100,4,2,3,100,0,0
14279,-100,4,1,3,100,0,0
14364,-100,4,2,3,100,0,0
14450,-100,4,1,3,100,0,0
14536,-100,4,2,3,100,0,0
14793,-100,4,2,3,80,0,0
14879,-100,4,2,3,100,0,0
15136,-100,4,1,3,100,0,0
15221,-100,4,2,3,100,0,0
15479,-100,4,1,3,100,0,0
15564,-100,4,2,3,100,0,0
16164,-100,4,1,3,100,0,0
16250,-100,4,2,3,100,0,0
16507,-100,4,1,3,100,0,0
16593,-100,4,2,3,100,0,0
16850,-100,4,1,3,100,0,0
16936,-100,4,2,3,100,0,0
17536,-100,4,1,3,100,0,0
17621,-100,4,2,3,100,0,0
17879,-100,4,1,3,100,0,0
17964,-100,4,2,3,100,0,0
18221,-100,4,1,3,100,0,0
18307,-100,4,2,3,100,0,0
18564,-100,4,1,3,100,0,0
18650,-100,4,2,3,100,0,0
18907,-100,4,3,3,100,0,0
18993,-100,4,2,3,100,0,0
19079,-100,4,3,3,100,0,0
19164,-100,4,2,3,100,0,0
19250,-100,4,3,3,100,0,0
19336,-100,4,2,3,100,0,0
19421,-100,4,3,3,100,0,0
19507,-100,4,2,3,100,0,0
19593,-100,4,1,3,100,0,0
20107,-100,4,2,3,100,0,0
20279,-100,4,1,3,100,0,0
20364,-100,4,2,3,100,0,0
20621,-100,4,1,3,100,0,0
20707,-100,4,2,3,100,0,0
20964,-100,4,1,3,100,0,0
21050,-100,4,2,3,100,0,0
21650,-100,4,1,3,100,0,0
21736,-100,4,2,3,100,0,0
21993,-100,4,1,3,100,0,0
22079,-100,4,2,3,100,0,0
22336,-100,4,1,3,100,0,0
22421,-100,4,2,3,100,0,0
22850,-100,4,1,3,100,0,0
23193,-100,4,2,3,100,0,0
23536,-100,4,1,3,100,0,0
23879,-100,4,2,3,100,0,0
24221,-100,4,1,3,100,0,0
24393,-100,4,1,3,100,0,0
24479,-100,4,2,3,100,0,0
25079,-100,4,1,3,100,0,0
25336,-100,4,2,3,100,0,0
25421,-100,4,1,3,50,0,0
25507,-100,4,2,3,100,0,0
25593,-100,4,1,3,50,0,0
25679,-100,4,2,3,100,0,0
25764,-100,4,2,3,100,0,0
26107,-100,4,1,3,100,0,0
26193,-100,4,2,3,100,0,0
26450,-100,4,1,3,100,0,0
26536,-100,4,2,3,100,0,0
27136,-100,4,1,3,100,0,0
27221,-100,4,2,3,100,0,0
27479,-100,4,1,3,100,0,0
27564,-100,4,2,3,100,0,0
27821,-100,4,1,3,100,0,0
27907,-100,4,2,3,100,0,0
28507,-100,4,1,3,100,0,0
28593,-100,4,2,3,100,0,0
28850,-100,4,1,3,100,0,0
28936,-100,4,2,3,100,0,0
29193,-100,4,1,3,100,0,0
29279,-100,4,2,3,100,0,0
29536,-100,4,1,3,100,0,0
29621,-100,4,2,3,100,0,0
29879,-100,4,3,3,100,0,0
29964,-100,4,2,3,100,0,0
30050,-100,4,3,3,100,0,0
30136,-100,4,2,3,100,0,0
30221,-100,4,3,3,100,0,0
30307,-100,4,2,3,100,0,0
30393,-100,4,3,3,100,0,0
30479,-100,4,2,3,100,0,0
30564,-100,4,1,3,100,0,0
30993,-100,4,2,3,100,0,0
31250,-100,4,1,3,100,0,0
31336,-100,4,2,3,100,0,0
31593,-100,4,1,3,100,0,0
31679,-100,4,2,3,100,0,0
31936,-100,4,1,3,100,0,0
32021,-100,4,2,3,100,0,0
32621,-100,4,1,3,100,0,0
32707,-100,4,2,3,100,0,0
32964,-100,4,1,3,100,0,0
33050,-100,4,2,3,100,0,0
33307,-100,4,1,3,100,0,0
33393,-100,4,2,3,100,0,0
33993,-100,4,1,3,70,0,0
35364,-100,4,3,3,70,0,0
35536,-100,4,1,3,70,0,0
35879,-100,4,3,3,70,0,0
36564,-100,4,1,3,70,0,0
36736,-100,4,2,3,100,0,0
36907,-100,4,2,3,100,0,0
37764,-100,4,3,3,60,0,0
37850,-100,4,2,3,60,0,0
39136,-100,4,3,3,60,0,0
39221,-100,4,2,3,60,0,0
40507,-100,4,3,3,60,0,0
40593,-100,4,2,3,60,0,0
41707,-100,4,3,3,60,0,0
42221,-100,4,2,3,60,0,0
43250,-100,4,3,3,60,0,0
43336,-100,4,2,3,100,0,0
43593,-100,4,1,3,100,0,0
43764,-100,4,3,3,70,0,0
43850,-100,4,2,3,70,0,0
43936,-100,4,3,3,70,0,0
44021,-100,4,2,3,70,0,0
44107,-100,4,3,3,70,0,0
44193,-100,4,2,3,70,0,0
44279,-100,4,3,3,70,0,0
44364,-100,4,2,3,70,0,0
44450,-100,4,3,3,70,0,0
44536,-100,4,2,3,70,0,0
44621,-100,4,3,3,80,0,0
44964,-100,4,3,3,100,0,0
45050,-100,4,2,3,60,0,0
47707,-100,4,3,3,90,0,0
47793,-100,4,1,3,70,0,0
49079,-100,4,3,3,90,0,0
49164,-100,4,1,3,70,0,0
50450,-100,4,1,3,80,0,0
51136,-100,4,1,3,85,0,0
51821,-100,4,1,3,90,0,0
52507,-100,4,1,3,95,0,0
53193,-100,4,3,3,100,0,0
53279,-100,4,2,3,60,0,0
54564,-100,4,1,3,100,0,0
54650,-100,4,2,3,50,0,0
54736,-100,4,1,3,100,0,0
54821,-100,4,2,3,50,0,0
54907,-100,4,1,3,100,0,0
54993,-100,4,2,3,50,0,0
55079,-100,4,1,3,100,0,0
55164,-100,4,2,3,50,0,0
55250,-100,4,1,3,100,0,0
55336,-100,4,2,3,50,0,0
55421,-100,4,1,3,100,0,0
55850,-100,4,2,3,100,0,0
55936,-100,4,2,3,80,0,1
56021,-100,4,2,3,100,0,1
56279,-100,4,1,3,100,0,1
56364,-100,4,2,3,100,0,1
56621,-100,4,1,3,100,0,1
56707,-100,4,2,3,100,0,1
56964,-100,4,1,3,100,0,1
57050,-100,4,2,3,100,0,1
57307,-100,4,1,3,100,0,1
57393,-100,4,2,3,100,0,1
57650,-100,4,1,3,100,0,1
57736,-100,4,2,3,100,0,1
57993,-100,4,1,3,100,0,1
58079,-100,4,2,3,100,0,1
58336,-100,4,1,3,100,0,1
58679,-100,4,1,3,100,0,1
58764,-100,4,2,3,100,0,1
59021,-100,4,1,3,100,0,1
59107,-100,4,2,3,100,0,1
59364,-100,4,1,3,100,0,1
59450,-100,4,2,3,100,0,1
59707,-100,4,1,3,100,0,1
59793,-100,4,2,3,100,0,1
60050,-100,4,1,3,100,0,1
60136,-100,4,2,3,100,0,1
60393,-100,4,1,3,100,0,1
60479,-100,4,2,3,100,0,1
60736,-100,4,1,3,100,0,1
60821,-100,4,2,3,100,0,1
61079,-100,4,1,3,100,0,1
61164,-100,4,2,3,100,0,1
61421,-100,4,2,3,80,0,1
61593,-100,4,3,3,100,0,1
61764,-100,4,1,3,100,0,1
61850,-100,4,3,3,100,0,1
62107,-100,4,1,3,100,0,1
62193,-100,4,2,3,100,0,1
62450,-100,4,1,3,100,0,1
62536,-100,4,2,3,100,0,1
62793,-100,4,2,3,80,0,1
62964,-100,4,3,3,100,0,1
63136,-100,4,1,3,100,0,1
63221,-100,4,3,3,100,0,1
63479,-100,4,1,3,100,0,1
63564,-100,4,2,3,100,0,1
63821,-100,4,1,3,100,0,1
63907,-100,4,2,3,100,0,1
64164,-100,4,2,3,80,0,1
64250,-100,4,2,3,100,0,1
64507,-100,4,1,3,100,0,1
64593,-100,4,2,3,100,0,1
64850,-100,4,1,3,100,0,1
64936,-100,4,2,3,100,0,1
65107,-100,4,1,3,100,0,1
65279,-100,4,2,3,100,0,1
65364,-100,4,1,3,100,0,1
65450,-100,4,2,3,100,0,1
65536,-100,4,3,3,100,0,0
66221,-100,4,1,3,100,0,0
66907,-100,4,2,3,80,0,1
66993,-100,4,2,3,100,0,1
67250,-100,4,1,3,100,0,1
67336,-100,4,2,3,100,0,1
67593,-100,4,1,3,100,0,1
67679,-100,4,2,3,100,0,1
67936,-100,4,1,3,100,0,1
68021,-100,4,2,3,100,0,1
68279,-100,4,1,3,100,0,1
68364,-100,4,2,3,100,0,1
68621,-100,4,1,3,100,0,1
68707,-100,4,2,3,100,0,1
68964,-100,4,1,3,100,0,1
69050,-100,4,2,3,100,0,1
69307,-100,4,1,3,100,0,1
69650,-100,4,1,3,100,0,1
69736,-100,4,2,3,100,0,1
69993,-100,4,1,3,100,0,1
70079,-100,4,2,3,100,0,1
70336,-100,4,1,3,100,0,1
70421,-100,4,2,3,100,0,1
70679,-100,4,1,3,100,0,1
70764,-100,4,2,3,100,0,1
71021,-100,4,1,3,100,0,1
71107,-100,4,2,3,100,0,1
71364,-100,4,1,3,100,0,1
71450,-100,4,2,3,100,0,1
71707,-100,4,1,3,100,0,1
71793,-100,4,2,3,100,0,1
72050,-100,4,1,3,100,0,1
72136,-100,4,2,3,100,0,1
72393,-100,4,1,3,100,0,1
72479,-100,4,2,3,100,0,1
72736,-100,4,1,3,100,0,1
72821,-100,4,2,3,100,0,1
73079,-100,4,1,3,100,0,1
73164,-100,4,2,3,100,0,1
73421,-100,4,1,3,100,0,1
73507,-100,4,2,3,100,0,1
73764,-100,4,1,3,100,0,1
73850,-100,4,2,3,100,0,1
74107,-100,4,1,3,100,0,1
74193,-100,4,2,3,100,0,1
74450,-100,4,1,3,100,0,1
74536,-100,4,2,3,100,0,1
74793,-100,4,1,3,100,0,1
74879,-100,4,2,3,100,0,1
75136,-100,4,2,3,80,0,1
75221,-100,4,2,3,100,0,1
75479,-100,4,1,3,100,0,1
75564,-100,4,2,3,100,0,1
75821,-100,4,1,3,100,0,1
75907,-100,4,2,3,100,0,1
76164,-100,4,1,3,100,0,1
76250,-100,4,2,3,100,0,1
76507,-100,4,2,3,80,0,1
76593,-100,4,2,3,100,0,1
76850,-100,4,1,3,100,0,1
76936,-100,4,2,3,100,0,1
77193,-100,4,1,3,100,0,1
77279,-100,4,2,3,100,0,1
77536,-100,4,1,3,100,0,1
77621,-100,4,2,3,100,0,1
77879,-100,4,2,3,80,0,1
78050,-100,4,3,3,100,0,1
78393,-100,4,1,3,100,0,1
78736,-100,4,3,3,100,0,1
79079,-100,4,1,3,100,0,1
79421,-100,4,3,3,100,0,1
79764,-100,4,1,3,100,0,1
80107,-100,4,3,3,100,0,1
80450,-100,4,1,3,100,0,1
80621,-100,4,3,3,80,0,0
80707,-100,4,2,3,50,0,0
81307,-100,4,3,3,100,0,0
83364,-100,4,2,3,60,0,1
83450,-100,4,2,3,100,0,0
83707,-100,4,1,3,100,0,0
83793,-100,4,2,3,100,0,0
84050,-100,4,1,3,100,0,0
84136,-100,4,2,3,100,0,0
84393,-100,4,1,3,100,0,0
84479,-100,4,2,3,100,0,0
84736,-100,4,1,3,100,0,0
84821,-100,4,2,3,100,0,0
85079,-100,4,1,3,100,0,0
85164,-100,4,2,3,100,0,0
85421,-100,4,1,3,100,0,0
85507,-100,4,2,3,100,0,0
85764,-100,4,1,3,100,0,0
86107,-100,4,1,3,100,0,0
86193,-100,4,2,3,100,0,0
86450,-100,4,1,3,100,0,0
86536,-100,4,2,3,100,0,0
86793,-100,4,1,3,100,0,0
86879,-100,4,2,3,100,0,0
87136,-100,4,1,3,100,0,0
87221,-100,4,2,3,100,0,0
87479,-100,4,2,3,100,0,0
88164,-100,4,1,3,100,0,0
88593,-100,4,2,3,100,0,0
88679,-100,4,1,3,100,0,0
88764,-100,4,2,3,100,0,0
88850,-100,4,1,3,100,0,0
88936,-100,4,2,3,100,0,0
89193,-100,4,1,3,100,0,0
89279,-100,4,2,3,100,0,0
89536,-100,4,1,3,100,0,0
89621,-100,4,2,3,100,0,0
89879,-100,4,1,3,100,0,0
89964,-100,4,2,3,100,0,0
90221,-100,4,1,3,100,0,0
90564,-100,4,1,3,100,0,0
90650,-100,4,1,3,100,0,0
90907,-100,4,1,3,100,0,0
91421,-100,4,3,3,100,0,0
91593,-100,4,3,3,80,0,0
91679,-100,4,2,3,80,0,0
91936,-100,4,2,3,40,0,0
92964,-100,4,3,3,50,0,0
93650,-100,4,3,3,70,0,0
93993,-100,4,1,3,80,0,0
94336,-100,4,2,3,80,0,0
95193,-100,4,2,3,60,0,0
95364,-100,4,1,3,30,0,0
95707,-100,4,2,3,80,0,0
96564,-100,4,2,3,60,0,0
96736,-100,4,1,3,30,0,0
97079,-100,4,2,3,80,0,0
97421,-100,4,3,3,80,0,0
97507,-100,4,2,3,80,0,0
98107,-100,4,3,3,80,0,0
98193,-100,4,2,3,80,0,0
98450,-100,4,3,3,80,0,0
99821,-100,4,2,3,80,0,0
100679,-100,4,2,3,60,0,0
100850,-100,4,1,3,30,0,0
101193,-100,4,2,3,80,0,0
102393,-100,4,1,3,80,0,0
102736,-100,4,2,3,80,0,0
103079,-100,4,1,3,80,0,0
103421,-100,4,2,3,80,0,0
103764,-100,4,1,3,80,0,0
103936,-100,4,1,3,80,0,0
104021,-100,4,2,3,80,0,0
104621,-100,4,1,3,80,0,0
104879,-100,4,2,3,80,0,0
104964,-100,4,1,3,40,0,0
105050,-100,4,2,3,80,0,0
105136,-100,4,1,3,40,0,0
105221,-100,4,2,3,80,0,0
105307,-100,4,2,3,100,0,0
106164,-100,4,2,3,60,0,0
106336,-100,4,1,3,30,0,0
106679,-100,4,2,3,100,0,0
107536,-100,4,2,3,60,0,0
107707,-100,4,1,3,30,0,0
108050,-100,4,2,3,100,0,0
108393,-100,4,3,3,100,0,0
108479,-100,4,2,3,100,0,0
109079,-100,4,3,3,100,0,0
109164,-100,4,2,3,100,0,0
109421,-100,4,3,3,80,0,0
110793,-100,4,2,3,100,0,0
111650,-100,4,2,3,60,0,0
111821,-100,4,1,3,30,0,0
112164,-100,4,2,3,100,0,0
113021,-100,4,2,3,60,0,0
113193,-100,4,1,3,30,0,0
113536,-100,4,1,3,70,0,0
114907,-100,4,3,3,70,0,0
115079,-100,4,1,3,70,0,0
115421,-100,4,3,3,70,0,0
116107,-100,4,1,3,70,0,0
116279,-100,4,2,3,60,0,0
120393,-100,4,2,3,70,0,0
121764,-100,4,2,3,70,0,0
122793,-100,4,3,3,70,0,0
122879,-100,4,2,3,70,0,0
123136,-100,4,1,3,70,0,0
123307,-100,4,3,3,70,0,0
123393,-100,4,2,3,70,0,0
123479,-100,4,3,3,70,0,0
123564,-100,4,2,3,70,0,0
123650,-100,4,3,3,70,0,0
123736,-100,4,2,3,70,0,0
123821,-100,4,3,3,70,0,0
123907,-100,4,2,3,70,0,0
123993,-100,4,3,3,70,0,0
124079,-100,4,2,3,70,0,0
124164,-100,4,3,3,80,0,0
124336,-100,4,2,3,80,0,0
124507,-100,4,3,3,100,0,0
124593,-100,4,2,3,60,0,0
127250,-100,4,3,3,90,0,0
127336,-100,4,1,3,70,0,0
128621,-100,4,3,3,90,0,0
128707,-100,4,1,3,70,0,0
129993,-100,4,1,3,80,0,0
130679,-100,4,1,3,85,0,0
131364,-100,4,1,3,90,0,0
132050,-100,4,1,3,95,0,0
132736,-100,4,3,3,100,0,0
132821,-100,4,2,3,60,0,0
134107,-100,4,1,3,100,0,0
134193,-100,4,2,3,50,0,0
134279,-100,4,1,3,100,0,0
134364,-100,4,2,3,50,0,0
134450,-100,4,1,3,100,0,0
134536,-100,4,2,3,50,0,0
134621,-100,4,1,3,100,0,0
134707,-100,4,2,3,50,0,0
134793,-100,4,1,3,100,0,0
134879,-100,4,2,3,50,0,0
134964,-100,4,1,3,100,0,0
135479,-100,4,2,3,80,0,1
135564,-100,4,2,3,100,0,1
135821,-100,4,1,3,100,0,1
135907,-100,4,2,3,100,0,1
136164,-100,4,1,3,100,0,1
136250,-100,4,2,3,100,0,1
136507,-100,4,1,3,100,0,1
136593,-100,4,2,3,100,0,1
136850,-100,4,1,3,100,0,1
136936,-100,4,2,3,100,0,1
137193,-100,4,1,3,100,0,1
137279,-100,4,2,3,100,0,1
137536,-100,4,1,3,100,0,1
137621,-100,4,2,3,100,0,1
137879,-100,4,1,3,100,0,1
138221,-100,4,1,3,100,0,1
138307,-100,4,2,3,100,0,1
138564,-100,4,1,3,100,0,1
138650,-100,4,2,3,100,0,1
138907,-100,4,1,3,100,0,1
138993,-100,4,2,3,100,0,1
139250,-100,4,1,3,100,0,1
139336,-100,4,2,3,100,0,1
139593,-100,4,1,3,100,0,1
139679,-100,4,2,3,100,0,1
139936,-100,4,1,3,100,0,1
140021,-100,4,2,3,100,0,1
140279,-100,4,1,3,100,0,1
140364,-100,4,2,3,100,0,1
140621,-100,4,1,3,100,0,1
140707,-100,4,2,3,100,0,1
140964,-100,4,2,3,80,0,1
141136,-100,4,3,3,100,0,1
141307,-100,4,1,3,100,0,1
141393,-100,4,3,3,100,0,1
141650,-100,4,1,3,100,0,1
141736,-100,4,2,3,100,0,1
141993,-100,4,1,3,100,0,1
142079,-100,4,2,3,100,0,1
142336,-100,4,2,3,80,0,1
142507,-100,4,3,3,100,0,1
142679,-100,4,1,3,100,0,1
142764,-100,4,3,3,100,0,1
143021,-100,4,1,3,100,0,1
143107,-100,4,2,3,100,0,1
143364,-100,4,1,3,100,0,1
143450,-100,4,2,3,100,0,1
143707,-100,4,2,3,80,0,1
143793,-100,4,2,3,100,0,1
144050,-100,4,1,3,100,0,1
144136,-100,4,2,3,100,0,1
144393,-100,4,1,3,100,0,1
144479,-100,4,2,3,100,0,1
144650,-100,4,1,3,100,0,1
144821,-100,4,2,3,100,0,1
144907,-100,4,1,3,100,0,1
144993,-100,4,2,3,100,0,1
145079,-100,4,3,3,100,0,0
145764,-100,4,1,3,100,0,0
146450,-100,4,2,3,80,0,1
146536,-100,4,2,3,100,0,1
146793,-100,4,1,3,100,0,1
146879,-100,4,2,3,100,0,1
147136,-100,4,1,3,100,0,1
147221,-100,4,2,3,100,0,1
147479,-100,4,1,3,100,0,1
147564,-100,4,2,3,100,0,1
147821,-100,4,1,3,100,0,1
147907,-100,4,2,3,100,0,1
148164,-100,4,1,3,100,0,1
148250,-100,4,2,3,100,0,1
148507,-100,4,1,3,100,0,1
148593,-100,4,2,3,100,0,1
148850,-100,4,1,3,100,0,1
149193,-100,4,1,3,100,0,1
149279,-100,4,2,3,100,0,1
149536,-100,4,1,3,100,0,1
149621,-100,4,2,3,100,0,1
149879,-100,4,1,3,100,0,1
149964,-100,4,2,3,100,0,1
150221,-100,4,1,3,100,0,1
150307,-100,4,2,3,100,0,1
150564,-100,4,1,3,100,0,1
150650,-100,4,2,3,100,0,1
150907,-100,4,1,3,100,0,1
150993,-100,4,2,3,100,0,1
151250,-100,4,1,3,100,0,1
151336,-100,4,2,3,100,0,1
151593,-100,4,1,3,100,0,1
151679,-100,4,2,3,100,0,1
151936,-100,4,1,3,100,0,1
152021,-100,4,2,3,100,0,1
152279,-100,4,1,3,100,0,1
152364,-100,4,2,3,100,0,1
152621,-100,4,1,3,100,0,1
152707,-100,4,2,3,100,0,1
152964,-100,4,1,3,100,0,1
153050,-100,4,2,3,100,0,1
153307,-100,4,1,3,100,0,1
153393,-100,4,2,3,100,0,1
153650,-100,4,1,3,100,0,1
153736,-100,4,2,3,100,0,1
153993,-100,4,1,3,100,0,1
154079,-100,4,2,3,100,0,1
154336,-100,4,1,3,100,0,1
154421,-100,4,2,3,100,0,1
154679,-100,4,2,3,80,0,1
154764,-100,4,2,3,100,0,1
155021,-100,4,1,3,100,0,1
155107,-100,4,2,3,100,0,1
155364,-100,4,1,3,100,0,1
155450,-100,4,2,3,100,0,1
155707,-100,4,1,3,100,0,1
155793,-100,4,2,3,100,0,1
156050,-100,4,2,3,80,0,1
156136,-100,4,2,3,100,0,1
156393,-100,4,1,3,100,0,1
156479,-100,4,2,3,100,0,1
156736,-100,4,1,3,100,0,1
156821,-100,4,2,3,100,0,1
157079,-100,4,1,3,100,0,1
157164,-100,4,2,3,100,0,1
157421,-100,4,2,3,80,0,1
157593,-100,4,3,3,100,0,1
157936,-100,4,1,3,100,0,1
158279,-100,4,3,3,100,0,1
158621,-100,4,1,3,100,0,1
158964,-100,4,3,3,100,0,1
159307,-100,4,1,3,100,0,1
159650,-100,4,3,3,100,0,1
159993,-100,4,1,3,100,0,1
160164,-100,4,3,3,100,0,0
160250,-100,4,2,3,50,0,0
160850,-100,4,3,3,100,0,0
162907,-100,4,3,3,100,0,0
167707,-125,4,2,3,100,0,0
168393,-125,4,3,3,60,0,0
169079,-125,4,2,3,100,0,0
169164,-125,4,3,3,60,0,0
170450,-125,4,2,3,100,0,0
170536,-125,4,3,3,60,0,0
171821,-125,4,2,3,100,0,0
171907,-125,4,3,3,60,0,0
172507,-125,4,2,3,100,0,0
173193,-125,4,2,3,60,0,0
173364,-125,4,3,3,50,0,0
173536,-125,4,3,3,60,0,0
173707,-125,4,3,3,70,0,0
173879,-125,4,2,3,60,0,0
174564,-125,4,2,3,80,0,0
174907,-125,4,2,3,40,0,0
175250,-125,4,2,3,60,0,0
175593,-125,4,2,3,40,0,0
175936,-125,4,2,3,60,0,0
176279,-125,4,3,3,60,0,0
176621,-125,4,2,3,40,0,0
176707,-125,4,2,3,60,0,0
177650,-125,4,2,3,40,0,0
177821,-125,4,2,3,60,0,0
178336,-125,4,2,3,40,0,0
178507,-125,4,2,3,60,0,0
178679,-125,4,2,3,60,0,0
178764,-125,4,2,3,60,0,0
179364,-125,4,2,3,40,0,0
179707,-125,4,2,3,60,0,0
180393,-125,4,2,3,40,0,0
180564,-125,4,2,3,60,0,0
181079,-125,4,2,3,40,0,0
181250,-125,4,2,3,60,0,0
182107,-125,4,2,3,40,0,0
182450,-125,4,2,3,60,0,0
183136,-125,4,2,3,40,0,0
183307,-125,4,2,3,60,0,0
183821,-125,4,2,3,40,0,0
183993,-125,4,2,3,60,0,0
184850,-100,4,2,3,50,0,0
184936,-100,4,2,3,80,0,0
185193,-100,4,1,3,80,0,0
185279,-100,4,2,3,80,0,0
185536,-100,4,2,3,50,0,0
185621,-100,4,2,3,80,0,0
185879,-100,4,1,3,80,0,0
185964,-100,4,2,3,80,0,0
186221,-100,4,2,3,50,0,0
186307,-100,4,2,3,80,0,0
186564,-100,4,1,3,80,0,0
186650,-100,4,2,3,80,0,0
186907,-100,4,2,3,50,0,0
186993,-100,4,2,3,80,0,0
187079,-100,4,1,3,60,0,0
187593,-100,4,1,3,80,0,0
188964,-166.666666666667,4,2,3,100,0,0
189050,-166.666666666667,4,2,3,50,0,0
191707,-133.333333333333,4,2,3,100,0,0
191793,-133.333333333333,4,2,3,50,0,0
194450,-133.333333333333,4,1,3,70,0,0
195821,-133.333333333333,4,1,3,80,0,0
197193,-100,4,1,3,90,0,0
198564,-100,4,2,3,100,0,0
198650,-100,4,2,3,50,0,0
198736,-100,4,1,3,100,0,0
198821,-100,4,2,3,50,0,0
198907,-100,4,1,3,100,0,0
198993,-100,4,2,3,50,0,0
199079,-100,4,1,3,100,0,0
199164,-100,4,2,3,50,0,0
199250,-100,4,1,3,100,0,0
199336,-100,4,2,3,50,0,0
199421,-100,4,1,3,100,0,0
199507,-100,4,2,3,100,0,0
199936,-100,4,2,3,80,0,1
200021,-100,4,2,3,100,0,1
200279,-100,4,1,3,100,0,1
200364,-100,4,2,3,100,0,1
200621,-100,4,1,3,100,0,1
200707,-100,4,2,3,100,0,1
200964,-100,4,1,3,100,0,1
201050,-100,4,2,3,100,0,1
201307,-100,4,1,3,100,0,1
201393,-100,4,2,3,100,0,1
201650,-100,4,1,3,100,0,1
201736,-100,4,2,3,100,0,1
201993,-100,4,1,3,100,0,1
202079,-100,4,2,3,100,0,1
202336,-100,4,1,3,100,0,1
202679,-100,4,1,3,100,0,1
202764,-100,4,2,3,100,0,1
203021,-100,4,1,3,100,0,1
203107,-100,4,2,3,100,0,1
203364,-100,4,1,3,100,0,1
203450,-100,4,2,3,100,0,1
203707,-100,4,1,3,100,0,1
203793,-100,4,2,3,100,0,1
204050,-100,4,1,3,100,0,1
204136,-100,4,2,3,100,0,1
204393,-100,4,1,3,100,0,1
204479,-100,4,2,3,100,0,1
204736,-100,4,1,3,100,0,1
204821,-100,4,2,3,100,0,1
205079,-100,4,1,3,100,0,1
205164,-100,4,2,3,100,0,1
205421,-100,4,2,3,80,0,1
205593,-100,4,3,3,100,0,1
205764,-100,4,1,3,100,0,1
205850,-100,4,3,3,100,0,1
206107,-100,4,1,3,100,0,1
206193,-100,4,2,3,100,0,1
206450,-100,4,1,3,100,0,1
206536,-100,4,2,3,100,0,1
206793,-100,4,2,3,80,0,1
206964,-100,4,3,3,100,0,1
207136,-100,4,1,3,100,0,1
207221,-100,4,3,3,100,0,1
207479,-100,4,1,3,100,0,1
207564,-100,4,2,3,100,0,1
207821,-100,4,1,3,100,0,1
207907,-100,4,2,3,100,0,1
208164,-100,4,2,3,80,0,1
208250,-100,4,2,3,100,0,1
208507,-100,4,1,3,100,0,1
208593,-100,4,2,3,100,0,1
208850,-100,4,1,3,100,0,1
208936,-100,4,2,3,100,0,1
209107,-100,4,1,3,100,0,1
209279,-100,4,2,3,100,0,1
209364,-100,4,1,3,100,0,1
209450,-100,4,2,3,100,0,1
209536,-100,4,3,3,100,0,0
210221,-100,4,1,3,100,0,0
210907,-100,4,2,3,80,0,1
210993,-100,4,2,3,100,0,1
211250,-100,4,1,3,100,0,1
211336,-100,4,2,3,100,0,1
211593,-100,4,1,3,100,0,1
211679,-100,4,2,3,100,0,1
211936,-100,4,1,3,100,0,1
212021,-100,4,2,3,100,0,1
212279,-100,4,1,3,100,0,1
212364,-100,4,2,3,100,0,1
212621,-100,4,1,3,100,0,1
212707,-100,4,2,3,100,0,1
212964,-100,4,1,3,100,0,1
213050,-100,4,2,3,100,0,1
213307,-100,4,1,3,100,0,1
213650,-100,4,1,3,100,0,1
213736,-100,4,2,3,100,0,1
213993,-100,4,1,3,100,0,1
214079,-100,4,2,3,100,0,1
214336,-100,4,1,3,100,0,1
214421,-100,4,2,3,100,0,1
214679,-100,4,1,3,100,0,1
214764,-100,4,2,3,100,0,1
215021,-100,4,1,3,100,0,1
215107,-100,4,2,3,100,0,1
215364,-100,4,1,3,100,0,1
215450,-100,4,2,3,100,0,1
215707,-100,4,1,3,100,0,1
215793,-100,4,2,3,100,0,1
216050,-100,4,1,3,100,0,1
216136,-100,4,2,3,100,0,1
216393,-100,4,1,3,100,0,1
216479,-100,4,2,3,100,0,1
216736,-100,4,1,3,100,0,1
216821,-100,4,2,3,100,0,1
217079,-100,4,1,3,100,0,1
217164,-100,4,2,3,100,0,1
217421,-100,4,1,3,100,0,1
217507,-100,4,2,3,100,0,1
217764,-100,4,1,3,100,0,1
217850,-100,4,2,3,100,0,1
218107,-100,4,1,3,100,0,1
218193,-100,4,2,3,100,0,1
218450,-100,4,1,3,100,0,1
218536,-100,4,2,3,100,0,1
218793,-100,4,1,3,100,0,1
218879,-100,4,2,3,100,0,1
219136,-100,4,2,3,80,0,1
219221,-100,4,2,3,100,0,1
219479,-100,4,1,3,100,0,1
219564,-100,4,2,3,100,0,1
219821,-100,4,1,3,100,0,1
219907,-100,4,2,3,100,0,1
220164,-100,4,1,3,100,0,1
220250,-100,4,2,3,100,0,1
220507,-100,4,2,3,80,0,1
220593,-100,4,2,3,100,0,1
220850,-100,4,1,3,100,0,1
220936,-100,4,2,3,100,0,1
221193,-100,4,1,3,100,0,1
221279,-100,4,2,3,100,0,1
221536,-100,4,1,3,100,0,1
221621,-100,4,2,3,100,0,1
221879,-100,4,2,3,80,0,1
222050,-100,4,3,3,100,0,1
222393,-100,4,1,3,100,0,1
222736,-100,4,3,3,100,0,1
223079,-100,4,1,3,100,0,1
223421,-100,4,3,3,100,0,1
223764,-100,4,1,3,100,0,1
224107,-100,4,3,3,100,0,1
224450,-100,4,1,3,100,0,1
224621,-100,4,3,3,100,0,0
224707,-100,4,2,3,50,0,0
225307,-100,4,3,3,100,0,0
227364,-100,4,2,3,70,0,1
227450,-100,4,2,3,100,0,0
227707,-100,4,1,3,100,0,0
227793,-100,4,2,3,100,0,0
228050,-100,4,1,3,100,0,0
228136,-100,4,2,3,100,0,0
228393,-100,4,1,3,100,0,0
228479,-100,4,2,3,100,0,0
228736,-100,4,1,3,100,0,0
228821,-100,4,2,3,100,0,0
229079,-100,4,1,3,100,0,0
229164,-100,4,2,3,100,0,0
229421,-100,4,1,3,100,0,0
229507,-100,4,2,3,100,0,0
229764,-100,4,1,3,100,0,0
230107,-100,4,1,3,100,0,0
230193,-100,4,2,3,100,0,0
230450,-100,4,1,3,100,0,0
230536,-100,4,2,3,100,0,0
230793,-100,4,1,3,100,0,0
230879,-100,4,2,3,100,0,0
231136,-100,4,1,3,100,0,0
231221,-100,4,2,3,100,0,0
232164,-100,4,1,3,100,0,0
232593,-100,4,2,3,100,0,0
232679,-100,4,1,3,100,0,0
232764,-100,4,2,3,100,0,0
232850,-100,4,2,3,70,0,0
232936,-100,4,2,3,100,0,0
233193,-100,4,1,3,100,0,0
233279,-100,4,2,3,100,0,0
233536,-100,4,1,3,100,0,0
233621,-100,4,2,3,100,0,0
233879,-100,4,1,3,100,0,0
233964,-100,4,2,3,100,0,0
234221,-100,4,1,3,100,0,0
234307,-100,4,2,3,100,0,0
234564,-100,4,1,3,100,0,0
234650,-100,4,2,3,100,0,0
234907,-100,4,1,3,100,0,0
234993,-100,4,2,3,100,0,0
235250,-100,4,1,3,100,0,0
235507,-100,4,2,3,100,0,0
235593,-125,4,3,3,70,0,0
237136,-125,4,3,3,80,0,0
237993,-125,4,3,3,100,0,0
238079,-125,4,2,3,20,0,0

[Colours]
Combo1 : 201,201,201
Combo2 : 182,35,90
Combo3 : 221,213,108
Combo4 : 95,65,184

[HitObjects]
92,231,1079,6,0,B|144:215|144:215|185:246,1,106,0|0,0:0|0:0,0:0:0:0:
274,304,1764,2,0,L|269:357,2,53,2|2|2,0:0|0:0|0:0,0:0:0:0:
373,265,2450,6,0,L|367:213,2,53,0|0|0,0:0|0:0|0:0,0:0:0:0:
425,277,2964,1,0,0:0:0:0:
469,180,3307,2,0,L|463:128,1,53,2|6,0:0|0:0,0:0:0:0:
408,37,3821,6,0,P|362:56|309:44,1,106,4|8,0:0|0:0,0:0:0:0:
203,43,4507,2,0,P|152:56|104:37,1,106,0|8,0:0|0:0,0:0:0:0:
50,129,5193,2,0,L|44:181,1,53,0|0,0:0|0:0,0:0:0:0:
68,228,5536,2,0,L|62:280,1,53,8|0,0:0|0:0,0:0:0:0:
73,332,5879,2,0,P|53:334|21:340,2,53,0|0|8,0:0|0:0|0:0,0:0:0:0:
178,320,6564,6,0,B|223:322|223:322|232:310|232:310|279:313,1,106,0|8,0:0|0:0,0:0:0:0:
331,319,7079,1,0,0:0:0:0:
384,317,7250,2,0,L|382:369,2,53,0|0|8,0:0|0:0|0:0,0:0:0:0:
436,307,7764,1,0,0:0:0:0:
489,311,7936,2,0,P|481:271|486:207,1,106,2|2,0:0|0:0,0:0:0:0:
391,159,8621,2,0,P|396:106|388:54,1,106,0|0,0:0|0:0,0:0:0:0:
340,31,9136,1,0,0:0:0:0:
289,19,9307,6,0,L|181:24,1,106,0|8,0:0|0:0,0:0:0:0:
134,43,9821,1,0,0:0:0:0:
82,51,9993,2,0,P|62:38|31:30,2,53,0|0|8,0:0|0:0|0:0,0:0:0:0:
138,142,10679,1,0,0:0:0:0:
61,215,11021,1,8,0:0:0:0:
103,312,11364,2,0,L|60:345,2,53,0|0|8,0:0|0:0|0:0,0:0:0:0:
156,304,11879,1,8,0:0:0:0:
208,314,12050,5,0,0:0:0:0:
261,316,12221,2,0,B|274:300|298:271|298:271|343:304|401:285,1,159,0|0,0:0|0:0,0:0:0:0:
478,223,13079,2,0,P|482:200|480:169,1,53,0|0,0:0|0:0,0:0:0:0:
420,83,13593,2,0,B|366:79|366:79|331:51|331:51|272:47,1,159,2|0,0:0|0:0,0:0:0:0:
168,73,14450,1,0,0:0:0:0:
75,124,14793,6,0,P|66:99|74:22,2,106,4|0|0,0:0|0:0|0:0,0:0:0:0:
165,180,15821,1,2,0:0:0:0:
271,188,16164,2,0,B|326:184|326:184|376:202,2,106,0|0|0,0:0|0:0|0:0,0:0:0:0:
244,233,17021,2,0,P|247:254|246:286,1,53,2|2,0:0|0:0,0:0:0:0:
146,322,17536,6,0,L|91:330,2,53,0|0|0,0:0|0:0|0:0,0:0:0:0:
130,217,18221,2,0,L|75:225,2,53,0|0|0,0:0|0:0|0:0,0:0:0:0:
115,112,18907,1,2,0:0:0:0:
179,27,19250,1,2,0:0:0:0:
284,43,19593,2,0,P|313:54|383:35,1,106,0|0,0:0|0:0,0:0:0:0:
435,28,20107,1,0,0:0:0:0:
483,49,20279,6,0,L|476:155,1,106,0|0,0:0|0:0,0:0:0:0:
468,207,20793,1,0,0:0:0:0:
476,259,20964,2,0,P|446:250|377:271,1,106,0|2,0:0|0:0,0:0:0:0:
299,343,21650,2,0,P|247:351|199:330,1,106,0|0,0:0|0:0,0:0:0:0:
148,317,22164,1,0,0:0:0:0:
96,327,22336,2,0,B|88:305|88:305|98:221,1,106,0|2,0:0|0:0,0:0:0:0:
98,170,22850,6,0,L|94:117,1,53,0|0,0:0|0:0,0:0:0:0:
242,60,23536,2,0,L|291:39,1,53,0|0,0:0|0:0,0:0:0:0:
414,148,24221,1,0,0:0:0:0:
414,148,24393,2,0,B|383:211|410:251|441:299|395:353,1,212,0|0,0:0|0:0,0:0:0:0:
299,311,25421,2,0,P|276:305|244:307,1,53,4|4,0:0|0:0,0:0:0:0:
197,325,25764,6,0,P|160:337|98:316,1,106,4|0,0:0|0:0,0:0:0:0:
53,289,26279,1,0,0:0:0:0:
0,287,26450,2,0,B|10:231|10:231|3:182,1,106,0|2,0:0|0:0,0:0:0:0:
46,85,27136,2,0,L|44:29,2,53,0|0|0,0:0|0:0|0:0,0:0:0:0:
98,93,27650,1,0,0:0:0:0:
150,100,27821,2,0,P|200:99|248:71,1,106,0|2,0:0|0:0,0:0:0:0:
346,35,28507,6,0,L|397:19,2,53,0|0|0,0:0|0:0|0:0,0:0:0:0:
412,119,29193,2,0,L|463:103,2,53,0|0|0,0:0|0:0|0:0,0:0:0:0:
357,210,29879,1,2,0:0:0:0:
395,309,30221,1,2,0:0:0:0:
313,377,30564,2,0,B|268:363|268:363|210:371,1,106,0|0,0:0|0:0,0:0:0:0:
159,354,31079,1,0,0:0:0:0:
109,337,31250,6,0,B|51:345|51:345|6:331,2,106,0|0|0,0:0|0:0|0:0,0:0:0:0:
152,240,32279,1,2,0:0:0:0:
127,137,32621,2,0,B|69:129|69:129|24:143,2,106,0|0|0,0:0|0:0|0:0,0:0:0:0:
180,144,33479,2,0,P|200:135|223:114,1,53,2|2,0:0|0:0,0:0:0:0:
236,63,33821,1,0,0:0:0:0:
233,10,33993,5,0,0:0:0:0:
444,28,34679,1,0,0:0:0:0:
324,202,35364,2,0,P|316:252|343:304,1,106,8|0,0:0|0:0,0:0:0:0:
391,315,35879,1,8,0:0:0:0:
434,284,36050,2,0,P|442:234|415:182,1,106,8|0,0:0|0:0,0:0:0:0:
356,99,36736,6,0,B|290:128|247:98|206:69|152:104,1,212,2|0,0:0|0:0,0:0:0:0:
78,180,37764,1,0,0:0:0:0:
100,283,38107,2,0,P|68:288|5:254,2,106,0|0|0,0:0|0:0|0:0,0:0:0:0:
192,229,39136,1,0,0:0:0:0:
293,196,39479,6,0,B|344:210|344:210|369:257,1,106,2|0,0:0|0:0,0:0:0:0:
469,222,40164,2,0,B|455:170|455:170|483:125,1,106,0|8,0:0|0:0,0:0:0:0:
431,34,40850,2,0,B|372:124|372:124|271:99,1,212,0|0,0:0|0:0,0:0:0:0:
191,28,41879,2,0,P|166:24|137:26,1,53,8|8,0:0|0:0,0:0:0:0:
96,57,42221,6,0,L|46:33,2,53,2|0|0,0:0|0:0|0:0,0:0:0:0:
168,135,42907,2,0,B|163:170|163:170|176:197|176:197|170:245,1,106,0|8,0:0|0:0,0:0:0:0:
177,290,43421,1,0,0:0:0:0:
172,343,43593,2,0,B|221:319|272:353|272:353|314:317|373:328,1,212,0|2,0:0|0:0,0:0:0:0:
477,324,44621,1,4,0:0:0:0:
481,271,44793,1,4,0:0:0:0:
482,218,44964,6,0,P|460:199|451:31,1,212,8|0,0:0|0:0,0:0:0:0:
282,37,46336,2,0,L|177:32,1,106,0|0,0:0|0:0,0:0:0:0:
125,44,46850,1,0,0:0:0:0:
75,59,47021,2,0,L|70:164,1,106,0|0,0:0|0:0,0:0:0:0:
122,258,47707,5,8,0:0:0:0:
220,300,48050,2,0,L|272:305,1,53,0|0,0:0|0:0,0:0:0:0:
325,311,48393,2,0,P|336:276|397:270,1,106,0|0,0:0|0:0,0:0:0:0:
443,175,49079,5,8,0:0:0:0:
345,133,49422,2,0,L|293:128,1,53,0|0,0:0|0:0,0:0:0:0:
240,122,49765,2,0,P|229:157|168:163,1,106,0|0,0:0|0:0,0:0:0:0:
66,136,50450,6,0,L|64:83,2,53,0|0|8,0:0|0:0|0:0,0:0:0:0:
5,222,51136,2,0,L|7:275,2,53,0|0|8,0:0|0:0|0:0,0:0:0:0:
107,249,51821,2,0,B|111:355|111:355|206:306|206:306|227:351|227:351|248:334|280:329,1,318,0|8,0:0|0:0,0:0:0:0:
382,339,53193,6,0,B|465:347|465:347|492:261|492:261|426:258|426:258|349:252|318:192,1,371,8|0,0:0|0:0,0:0:0:0:
304,142,54564,2,0,L|313:32,2,106,0|0|0,0:0|0:0|0:0,0:0:0:0:
198,149,55593,1,0,0:0:0:0:
100,108,55936,6,0,P|55:112|19:157,1,106,4|8,0:0|0:0,0:0:0:0:
14,210,56450,1,0,0:0:0:0:
18,263,56621,2,0,P|47:304|99:312,1,106,0|8,0:0|0:0,0:0:0:0:
203,288,57307,2,0,L|311:292,2,106,0|8|0,0:0|0:0|0:0,0:0:0:0:
131,210,58336,2,0,P|130:184|138:157,1,53,8|8,0:0|0:0,0:0:0:0:
165,113,58679,6,0,B|221:116|221:116|266:96,1,106,0|8,0:0|0:0,0:0:0:0:
314,72,59193,1,0,0:0:0:0:
361,48,59364,2,0,B|417:45|417:45|462:65,1,106,0|8,0:0|0:0,0:0:0:0:
497,106,59879,1,0,0:0:0:0:
497,159,60050,2,0,P|485:194|490:264,1,106,0|8,0:0|0:0,0:0:0:0:
413,336,60736,2,0,P|378:324|308:329,1,106,0|8,0:0|0:0,0:0:0:0:
258,337,61250,1,0,0:0:0:0:
208,321,61421,6,0,L|215:269,2,53,4|0|8,0:0|0:0|0:0,0:0:0:0:
103,327,62107,2,0,B|51:317|51:317|33:266,1,106,0|8,0:0|0:0,0:0:0:0:
64,166,62793,2,0,L|116:173,2,53,4|0|8,0:0|0:0|0:0,0:0:0:0:
53,61,63479,2,0,L|158:74,1,106,0|8,0:0|0:0,0:0:0:0:
211,67,63993,1,0,0:0:0:0:
259,45,64164,6,0,P|296:41|363:62,1,106,4|8,0:0|0:0,0:0:0:0:
399,98,64679,1,0,0:0:0:0:
421,146,64850,2,0,B|469:151|469:151|500:137,2,79.5
394,249,65707,2,0,L|447:255,2,53,2|2|2,0:0|0:0|0:0,0:0:0:0:
342,237,66221,2,0,B|277:230|242:261|242:261|223:243|193:231,1,159,0|0,0:0|0:0,0:0:0:0:
145,241,66907,6,0,L|135:350,2,106,4|8|0,0:0|0:0|0:0,0:0:0:0:
89,150,67936,1,8,0:0:0:0:
49,52,68279,2,0,B|100:32|151:64|151:64|176:24|247:25,1,212,0|0,0:0|0:0,0:0:0:0:
338,73,69307,2,0,L|390:77,1,53,8|8,0:0|0:0,0:0:0:0:
442,65,69650,6,0,P|425:104|437:164,1,106,0|8,0:0|0:0,0:0:0:0:
473,204,70164,1,0,0:0:0:0:
508,244,70336,2,0,P|521:294|503:343,1,106,0|8,0:0|0:0,0:0:0:0:
398,363,71021,1,0,0:0:0:0:
309,308,71364,1,8,0:0:0:0:
210,343,71707,1,0,0:0:0:0:
121,288,72050,2,0,P|93:284|67:287,1,53,8|0,0:0|0:0,0:0:0:0:
24,258,72393,6,0,P|19:230|8:206,1,53,0|0,0:0|0:0,0:0:0:0:
20,156,72736,2,0,P|45:142|64:125,1,53,8|0,0:0|0:0,0:0:0:0:
116,130,73079,2,0,P|136:149|159:162,2,53,0|0|8,0:0|0:0|0:0,0:0:0:0:
159,33,73764,2,0,L|265:32,1,106,0|8,0:0|0:0,0:0:0:0:
316,48,74279,1,0,0:0:0:0:
369,46,74450,2,0,P|399:50|420:58,1,53,0|2,0:0|0:0,0:0:0:0:
469,79,74793,2,0,P|490:99|503:118,1,53,8|10,0:0|0:0,0:0:0:0:
506,172,75136,5,6,0:0:0:0:
481,275,75479,2,0,P|444:263|379:276,1,106,8|0,0:0|0:0,0:0:0:0:
287,327,76164,2,0,P|236:340|185:327,1,106,8|4,0:0|0:0,0:0:0:0:
144,229,76850,1,8,0:0:0:0:
193,135,77193,2,0,P|243:121|294:134,2,106,0|8|4,0:0|0:0|0:0,0:0:0:0:
87,140,78221,5,2,0:0:0:0:
38,234,78564,2,0,L|33:340,1,106,0|2,0:0|0:0,0:0:0:0:
139,334,79250,2,0,L|144:228,1,106,0|2,0:0|0:0,0:0:0:0:
250,220,79936,2,0,L|245:326,1,106,0|2,0:0|0:0,0:0:0:0:
294,346,80450,1,0,0:0:0:0:
346,356,80621,6,0,P|391:346|425:299,1,106,4|0,0:0|0:0,0:0:0:0:
415,194,81307,2,0,L|470:190,2,53,2|2|2,0:0|0:0|0:0,0:0:0:0:
434,89,81993,6,0,L|486:85,2,53,0|0|0,0:0|0:0|0:0,0:0:0:0:
384,71,82507,1,0,0:0:0:0:
288,26,82850,2,0,L|235:29,1,53,2|6,0:0|0:0,0:0:0:0:
130,19,83364,6,0,P|81:35|44:75,1,106,4|8,0:0|0:0,0:0:0:0:
5,171,84050,2,0,P|5:221|31:269,1,106,0|8,0:0|0:0,0:0:0:0:
97,353,84736,2,0,L|149:349,1,53,0|0,0:0|0:0,0:0:0:0:
196,323,85079,2,0,L|248:319,1,53,8|0,0:0|0:0,0:0:0:0:
301,328,85421,2,0,B|332:333|349:348|349:348|372:337|408:335,1,106,0|8,0:0|0:0,0:0:0:0:
455,244,86107,6,0,P|470:208|451:145,1,106,0|8,0:0|0:0,0:0:0:0:
416,107,86621,1,0,0:0:0:0:
369,82,86793,2,0,L|373:29,2,53,0|0|8,0:0|0:0|0:0,0:0:0:0:
316,84,87307,1,0,0:0:0:0:
264,94,87479,2,0,L|154:87,1,106,2|2,0:0|0:0,0:0:0:0:
75,151,88164,2,0,L|68:261,1,106,0|0,0:0|0:0,0:0:0:0:
90,305,88679,1,0,0:0:0:0:
126,343,88850,6,0,P|175:336|229:356,1,106,0|8,0:0|0:0,0:0:0:0:
280,360,89364,1,0,0:0:0:0:
331,345,89536,2,0,L|328:292,2,53,0|0|8,0:0|0:0|0:0,0:0:0:0:
436,334,90221,1,0,0:0:0:0:
447,229,90564,1,8,0:0:0:0:
457,123,90907,2,0,P|485:122|512:133,2,53,0|0|0,0:0|0:0|0:0,0:0:0:0:
404,128,91421,1,2,0:0:0:0:
351,132,91593,6,0,B|287:138|246:87|246:87|198:80|161:120,1,212,4|0,0:0|0:0,0:0:0:0:
104,322,92964,2,0,B|51:333|51:333|-3:323,2,106,0|0|0,0:0|0:0|0:0,0:0:0:0:
205,289,93993,1,0,0:0:0:0:
310,279,94336,6,0,B|361:295|398:336|398:336|419:291|472:263,1,212,8|0,0:0|0:0,0:0:0:0:
499,162,95364,1,2,0:0:0:0:
413,101,95707,2,0,P|426:82|505:58,2,106,8|0|0,0:0|0:0|0:0,0:0:0:0:
333,171,96736,1,2,0:0:0:0:
230,147,97079,6,0,L|123:144,1,106,0|2,0:0|0:0,0:0:0:0:
72,154,97593,1,0,0:0:0:0:
20,164,97764,2,0,P|10:145|5:115,2,53,0|0|2,0:0|0:0|0:0,0:0:0:0:
49,266,98450,2,0,P|75:271|103:284,1,53,0|0,0:0|0:0,0:0:0:0:
147,305,98793,2,0,P|171:315|197:320,1,53,0|0,0:0|0:0,0:0:0:0:
248,303,99136,1,0,0:0:0:0:
353,314,99479,1,2,0:0:0:0:
442,257,99821,6,0,P|453:290|448:362,2,106,8|0|0,0:0|0:0|0:0,0:0:0:0:
346,211,100850,1,2,0:0:0:0:
252,161,101193,2,0,P|241:128|246:56,1,106,0|0,0:0|0:0,0:0:0:0:
261,7,101707,1,0,0:0:0:0:
314,5,101879,2,0,L|418:21,1,106,0|2,0:0|0:0,0:0:0:0:
466,45,102393,6,0,P|480:62|488:91,1,53,0|0,0:0|0:0,0:0:0:0:
403,226,103079,2,0,P|391:244|366:261,1,53,0|0,0:0|0:0,0:0:0:0:
224,201,103764,1,0,0:0:0:0:
224,201,103936,2,0,B|171:180|108:196|108:196|71:171|71:171|25:188,1,212,0|0,0:0|0:0,0:0:0:0:
33,294,104964,2,0,P|47:310|75:324,1,53,4|4,0:0|0:0,0:0:0:0:
128,328,105307,6,0,P|161:314|230:324,1,106,8|0,0:0|0:0,0:0:0:0:
279,341,105821,1,0,0:0:0:0:
331,353,105993,2,0,P|382:364|431:348,1,106,0|2,0:0|0:0,0:0:0:0:
464,246,106679,1,8,0:0:0:0:
465,140,107021,2,0,L|470:88,2,53,0|0|0,0:0|0:0|0:0,0:0:0:0:
413,153,107536,2,0,L|361:148,1,53,4|2,0:0|0:0,0:0:0:0:
267,97,108050,6,0,L|272:45,2,53,0|0|2,0:0|0:0|0:0,0:0:0:0:
161,109,108736,2,0,L|166:57,2,53,0|0|2,0:0|0:0|0:0,0:0:0:0:
56,120,109421,1,0,0:0:0:0:
31,223,109764,1,0,0:0:0:0:
107,297,110107,2,0,B|148:302|148:302|167:288|167:288|209:293,1,106,0|2,0:0|0:0,0:0:0:0:
260,304,110621,1,2,0:0:0:0:
312,316,110793,6,0,P|341:332|487:266,1,212,8|0,0:0|0:0,0:0:0:0:
454,165,111821,1,2,0:0:0:0:
447,59,112164,2,0,L|503:57,2,53,8|0|0,0:0|0:0|0:0,0:0:0:0:
394,54,112679,1,0,0:0:0:0:
341,53,112850,2,0,L|288:54,1,53,0|4,0:0|0:0,0:0:0:0:
236,44,113193,1,2,0:0:0:0:
131,56,113536,5,0,0:0:0:0:
2,224,114221,1,0,0:0:0:0:
213,250,114907,2,0,P|253:252|316:276,2,106,8|0|8,0:0|0:0|0:0,0:0:0:0:
113,285,115936,1,8,0:0:0:0:
11,315,116279,6,0,B|-1:268|24:217|24:217|49:167|23:108,1,212,2|0,0:0|0:0,0:0:0:0:
91,28,117307,1,0,0:0:0:0:
191,62,117650,2,0,B|243:92|286:45|286:45|338:70|386:29,1,212,0|0,0:0|0:0,0:0:0:0:
489,52,118679,1,0,0:0:0:0:
507,156,119021,6,0,P|499:197|503:260,1,106,2|0,0:0|0:0,0:0:0:0:
421,329,119707,2,0,P|380:321|317:325,1,106,0|0,0:0|0:0,0:0:0:0:
211,341,120393,2,0,P|192:349|160:350,2,53,8|8|8,0:0|0:0|0:0,0:0:0:0:
223,289,120907,1,8,0:0:0:0:
220,236,121079,2,0,B|214:181|214:181|242:135,1,106,8|8,0:0|0:0,0:0:0:0:
278,100,121593,1,8,0:0:0:0:
331,100,121764,6,0,P|357:103|384:102,2,53,2|0|0,0:0|0:0|0:0,0:0:0:0:
268,14,122450,2,0,P|235:15|166:38,1,106,0|8,0:0|0:0,0:0:0:0:
124,70,122964,1,0,0:0:0:0:
103,119,123136,2,0,B|68:175|68:175|126:223|126:223|86:288,1,212,0|2,0:0|0:0,0:0:0:0:
175,345,124164,1,4,0:2:0:0:
227,334,124336,1,4,0:2:0:0:
279,325,124507,6,0,B|339:303|400:337|400:337|433:307|422:257,1,212,8|0,0:0|0:0,0:0:0:0:
465,50,125879,2,0,P|445:24|377:30,1,106,0|0,0:0|0:0,0:0:0:0:
333,58,126393,1,0,0:0:0:0:
289,87,126564,2,0,P|239:100|201:66,1,106,0|0,0:0|0:0,0:0:0:0:
95,67,127250,5,8,0:0:0:0:
25,146,127593,2,0,P|28:167|21:198,1,53,0|0,0:0|0:0,0:0:0:0:
4,248,127936,2,0,B|80:250|80:250|101:271,1,106,0|0,0:0|0:0,0:0:0:0:
197,316,128621,5,8,0:0:0:0:
267,237,128964,2,0,P|264:216|271:185,1,53,0|0,0:0|0:0,0:0:0:0:
288,135,129307,2,0,B|212:133|212:133|191:112,1,106,0|0,0:0|0:0,0:0:0:0:
257,28,129993,6,0,L|362:32,1,106,0|8,0:0|0:0,0:0:0:0:
445,99,130679,2,0,L|441:204,1,106,0|8,0:0|0:0,0:0:0:0:
389,297,131364,2,0,B|340:275|332:213|332:213|296:259|242:265|242:265|200:244|185:178,1,318,0|8,0:0|0:0,0:0:0:0:
187,75,132736,6,0,B|132:58|112:75|91:96|20:64|20:64|112:153|18:234,1,371,8|0,0:0|0:0,0:0:0:0:
38,283,134107,2,0,B|49:351|49:351|86:368,2,106,0|0|0,0:0|0:0|0:0,0:0:0:0:
141,255,135136,1,0,0:0:0:0:
232,310,135479,6,0,P|259:322|335:320,1,106,4|8,0:0|0:0,0:0:0:0:
380,293,135993,1,0,0:0:0:0:
422,261,136164,2,0,P|441:239|463:166,1,106,0|8,0:0|0:0,0:0:0:0:
406,77,136850,2,0,P|456:61|507:70,2,106,0|8|0,0:0|0:0|0:0,0:0:0:0:
304,106,137879,2,0,L|251:108,1,53,8|8,0:0|0:0,0:0:0:0:
198,111,138221,6,0,P|166:106|118:53,1,106,0|8,0:0|0:0,0:0:0:0:
68,36,138736,1,0,0:0:0:0:
16,46,138907,2,0,L|7:151,1,106,0|8,0:0|0:0,0:0:0:0:
24,202,139421,1,0,0:0:0:0:
49,249,139593,2,0,L|58:354,1,106,0|8,0:0|0:0,0:0:0:0:
164,342,140279,2,0,B|205:347|205:347|226:338|226:338|276:344,1,106,0|8,0:0|0:0,0:0:0:0:
319,330,140793,1,0,0:0:0:0:
371,321,140964,6,0,P|380:337|387:371,2,53,4|0|8,0:0|0:0|0:0,0:0:0:0:
419,226,141650,2,0,L|425:119,1,106,0|8,0:0|0:0,0:0:0:0:
370,29,142336,2,0,P|386:20|420:13,2,53,4|0|8,0:0|0:0|0:0,0:0:0:0:
292,101,143021,2,0,P|245:108|194:81,1,106,0|8,0:0|0:0,0:0:0:0:
146,60,143536,1,0,0:0:0:0:
97,40,143707,6,0,P|50:33|-1:60,1,106,4|8,0:0|0:0,0:0:0:0:
5,112,144221,1,0,0:0:0:0:
15,164,144393,2,0,B|10:217|10:217|19:241,2,79.5,0|0|0,0:0|0:0|0:0,0:0:0:0:
116,197,145250,2,0,L|119:142,2,53,2|2|2,0:0|0:0|0:0,0:0:0:0:
128,249,145764,2,0,B|175:285|227:258|227:258|246:277|279:279,1,159,0|0,0:0|0:0,0:0:0:0:
326,264,146450,6,0,P|338:294|326:368,2,106,4|8|0,0:0|0:0|0:0,0:0:0:0:
275,171,147479,1,8,0:0:0:0:
233,74,147821,2,0,B|308:50|336:77|363:110|440:79,1,212
509,160,148850,2,0,P|504:180|500:212,1,53,8|8,0:0|0:0,0:0:0:0:
507,265,149193,6,0,B|455:280|455:280|401:270,1,106,0|8,0:0|0:0,0:0:0:0:
352,259,149707,1,0,0:0:0:0:
300,247,149879,2,0,B|248:237|248:237|196:252,1,106,0|8,0:0|0:0,0:0:0:0:
127,331,150564,1,0,0:0:0:0:
35,279,150907,1,8,0:0:0:0:
0,179,151250,1,0,0:0:0:0:
30,77,151593,2,0,P|44:63|72:46,1,53,8|0,0:0|0:0,0:0:0:0:
113,12,151936,6,0,P|130:20|155:42,1,53,0|0,0:0|0:0,0:0:0:0:
197,76,152279,2,0,P|193:95|181:125,1,53,8|0,0:0|0:0,0:0:0:0:
167,177,152621,2,0,P|147:180|114:177,2,53,0|0|8,0:0|0:0|0:0,0:0:0:0:
272,195,153307,2,0,L|377:192,1,106,0|8,0:0|0:0,0:0:0:0:
430,181,153821,1,0,0:0:0:0:
463,139,153993,2,0,P|468:111|462:86,1,53,0|0,0:0|0:0,0:0:0:0:
428,47,154336,2,0,P|402:33|377:31,1,53,8|0,0:0|0:0,0:0:0:0:
327,43,154679,5,4,0:0:0:0:
231,87,155021,2,0,B|184:89|184:89|166:78|166:78|124:79,1,106,8|0,0:0|0:0,0:0:0:0:
40,138,155707,1,8,0:0:0:0:
104,223,156050,2,0,B|151:225|151:225|169:214|169:214|206:215,1,106,4|8,0:0|0:0,0:0:0:0:
313,205,156736,2,0,B|360:203|360:203|378:214|378:214|415:213,2,106,0|8|4,0:0|0:0|0:0,0:0:0:0:
268,301,157764,5,2,0:0:0:0:
181,361,158107,2,0,L|73:367,1,106,0|2,0:0|0:0,0:0:0:0:
37,268,158793,2,0,L|142:262,1,106,0|2,0:0|0:0,0:0:0:0:
164,158,159479,2,0,L|58:163,1,106,0|2,0:0|0:0,0:0:0:0:
18,128,159993,1,0,0:0:0:0:
5,77,160164,6,0,P|32:58|103:56,1,106,4|0,0:0|0:0,0:0:0:0:
209,64,160850,2,0,L|265:58,2,53,2|2|2,0:0|0:0|0:0,0:0:0:0:
254,160,161536,6,0,L|310:154,2,53,0|0|0,0:0|0:0|0:0,0:0:0:0:
229,207,162050,1,0,0:0:0:0:
314,271,162393,2,0,L|370:265,1,53,2|6,0:0|0:0,0:0:0:0:
472,251,162907,5,8,0:0:0:0:
363,69,167707,5,8,0:0:0:0:
221,43,168393,6,0,B|159:51|159:51|109:33|109:33|50:55,1,169.6,0|8,0:0|0:0,0:0:0:0:
5,212,169764,2,0,B|51:216|77:252|77:252|110:233|165:238,1,169.6,0|8,0:0|0:0,0:0:0:0:
246,291,170793,1,0,0:0:0:0:
432,210,171479,6,0,L|430:258,2,42.4,2|2|8,0:0|0:0|0:0,0:0:0:0:
461,168,171993,1,2,0:0:0:0:
482,122,172164,2,0,P|488:92|473:38,1,84.8,2|0,0:0|0:0,0:0:0:0:
372,37,172850,1,0,0:0:0:0:
272,58,173193,2,0,L|230:59,1,42.4,8|2,0:0|0:0,0:0:0:0:
179,51,173536,2,0,L|137:50,1,42.4,2|2,0:0|0:0,0:0:0:0:
87,62,173879,6,0,P|44:88|62:193,1,169.6,4|8,0:0|0:0,0:0:0:0:
160,212,174907,1,4,0:0:0:0:
260,192,175250,2,0,L|344:197,2,84.8,0|4|8,0:0|0:0|0:0,0:0:0:0:
314,352,176621,6,0,L|398:347,1,84.8,4|2,0:0|0:0,0:0:0:0:
488,297,177307,2,0,P|510:270|513:222,1,84.8,8|4,0:0|0:0,0:0:0:0:
449,142,177993,2,0,B|458:38|458:38|433:59|390:54,1,169.6,0|8,0:0|0:0,0:0:0:0:
297,34,179021,2,0,P|279:30|253:32,1,42.4,2|2,0:0|0:0,0:0:0:0:
209,53,179364,6,0,B|167:69|129:40|129:40|86:59|47:36,1,169.6,4|8,0:0|0:0,0:0:0:0:
2,128,180393,1,4,0:0:0:0:
3,230,180736,2,0,P|4:265|24:309,1,84.8,0|0,0:0|0:0,0:0:0:0:
98,380,181421,1,8,0:0:0:0:
190,337,181764,1,0,0:0:0:0:
290,354,182107,6,0,P|350:369|441:320,1,169.6,4|8,0:0|0:0,0:0:0:0:
468,222,183136,1,4,0:0:0:0:
401,145,183479,2,0,L|359:150,2,42.4,0|0|4,0:0|0:0|0:0,0:0:0:0:
442,52,184164,1,8,0:0:0:0:
283,34,184850,6,0,L|178:29,1,106,4|0,0:0|0:0,0:0:0:0:
97,96,185536,2,0,L|92:201,1,106,4|0,0:0|0:0,0:0:0:0:
168,275,186221,2,0,L|273:280,1,106,4|0,0:0|0:0,0:0:0:0:
354,213,186907,2,0,L|357:160,2,53,4|0|0,0:0|0:0|0:0,0:0:0:0:
455,247,187593,5,0,0:0:0:0:
491,147,187936,1,0,0:0:0:0:
449,50,188279,1,0,0:0:0:0:
349,16,188621,1,0,0:0:0:0:
258,69,188964,6,0,L|131:73,1,127.199996118164,2|0,0:0|0:0,0:0:0:0:
76,233,190336,2,0,L|203:237,1,127.199996118164,0|0,0:0|0:0,0:0:0:0:
359,205,191707,6,0,B|408:194|455:203|489:237|490:292|490:292|452:282|417:281|388:296|356:322|356:322|321:348|286:359|241:353|197:329|197:329|128:361|58:327,1,636.000024261476,2|0,2:0|2:0,0:0:0:0:
69,136,195821,5,0,0:0:0:0:
69,136,197193,6,0,L|85:29,1,106,0|8,0:0|0:0,0:0:0:0:
138,29,197707,1,0,0:0:0:0:
191,30,197879,2,0,P|190:56|193:85,2,53,0|0|8,0:0|0:0|0:0,0:0:0:0:
244,24,198393,1,0,0:0:0:0:
297,27,198564,6,0,B|341:63|396:52|396:52|410:101|474:127,1,212,4|0,0:0|0:0,0:0:0:0:
494,228,199593,1,4,0:0:0:0:
448,323,199936,6,0,P|411:306|345:314,1,106,4|8,0:0|0:0,0:0:0:0:
297,330,200450,1,0,0:0:0:0:
249,353,200621,2,0,P|197:361|148:342,1,106,0|8,0:0|0:0,0:0:0:0:
159,236,201307,2,0,P|210:227|259:246,2,106,0|8|0,0:0|0:0|0:0,0:0:0:0:
63,282,202336,2,0,L|53:229,1,53,8|8,0:0|0:0,0:0:0:0:
33,181,202679,6,0,B|49:141|20:122|41:75,1,106,0|8,0:0|0:0,0:0:0:0:
82,44,203193,1,0,0:0:0:0:
131,24,203364,2,0,B|171:40|190:11|237:32,1,106,0|8,0:0|0:0,0:0:0:0:
280,60,203879,1,0,0:0:0:0:
333,60,204050,2,0,L|440:55,1,106,0|8,0:0|0:0,0:0:0:0:
480,153,204736,2,0,L|374:157,1,106,0|8,0:0|0:0,0:0:0:0:
343,200,205250,1,0,0:0:0:0:
333,252,205421,6,0,L|338:305,2,53,4|0|8,0:0|0:0|0:0,0:0:0:0:
229,276,206107,2,0,P|187:264|127:281,1,106,0|8,0:0|0:0,0:0:0:0:
22,276,206793,2,0,L|16:328,2,53,4|0|8,0:0|0:0|0:0,0:0:0:0:
75,184,207479,2,0,P|88:148|78:81,1,106,0|8,0:0|0:0,0:0:0:0:
88,30,207993,1,0,0:0:0:0:
141,27,208164,6,0,B|185:39|185:39|245:35,1,106,4|8,0:0|0:0,0:0:0:0:
298,27,208679,1,0,0:0:0:0:
348,44,208850,2,0,L|427:37,2,79.5,0|0|0,0:0|0:0|0:0,0:0:0:0:
326,148,209707,2,0,L|324:201,2,53,2|2|2,0:0|0:0|0:0,0:0:0:0:
274,137,210221,2,0,B|215:138|182:183|182:183|163:170|125:172,1,159,0|0,0:0|0:0,0:0:0:0:
80,184,210907,6,0,L|68:78,2,106,4|8|0,0:0|0:0|0:0,0:0:0:0:
74,290,211936,1,8,0:0:0:0:
148,366,212279,2,0,B|215:324|215:324|266:319|266:319|340:354,1,212,0|0,0:0|0:0,0:0:0:0:
445,338,213307,2,0,L|455:284,1,53,8|8,0:0|0:0,0:0:0:0:
476,237,213650,6,0,B|473:193|473:193|483:174|483:174|480:130,1,106,0|8,0:0|0:0,0:0:0:0:
446,93,214164,1,0,0:0:0:0:
408,56,214336,2,0,B|364:59|364:59|345:49|345:49|301:52,1,106,0|8,0:0|0:0,0:0:0:0:
202,77,215021,1,0,0:0:0:0:
99,51,215364,1,8,0:0:0:0:
12,112,215707,1,0,0:0:0:0:
5,218,216050,2,0,P|9:237|10:271,1,53,8|0,0:0|0:0,0:0:0:0:
27,321,216393,6,0,P|46:323|78:332,1,53,0|0,0:0|0:0,0:0:0:0:
131,324,216736,2,0,P|138:306|158:278,1,53,8|0,0:0|0:0,0:0:0:0:
169,227,217079,2,0,P|154:213|133:187,2,53,0|0|8,0:0|0:0|0:0,0:0:0:0:
258,285,217764,2,0,P|304:298|363:292,1,106,0|8,0:0|0:0,0:0:0:0:
404,260,218279,1,0,0:0:0:0:
433,216,218450,2,0,L|437:163,1,53,0|0,0:0|0:0,0:0:0:0:
420,113,218793,2,0,L|416:60,1,53,8|0,0:0|0:0,0:0:0:0:
411,7,219136,5,4,0:0:0:0:
311,41,219479,2,0,B|268:45|268:45|237:27|204:31,1,106,8|0,0:0|0:0,0:0:0:0:
103,17,220164,2,0,P|103:53|139:115,1,106,8|4,0:0|0:0,0:0:0:0:
238,145,220850,1,8,0:0:0:0:
308,224,221193,2,0,P|337:267|341:319,2,106,0|8|4,0:0|0:0|0:0,0:0:0:0:
236,302,222221,5,2,0:0:0:0:
137,340,222564,2,0,L|27:352,1,106,0|2,0:0|0:0,0:0:0:0:
54,248,223250,2,0,L|159:236,1,106,0|2,0:0|0:0,0:0:0:0:
140,131,223936,2,0,L|30:143,1,106,0|2,0:0|0:0,0:0:0:0:
18,92,224450,1,0,0:0:0:0:
20,39,224621,6,0,L|125:27,1,106,4|0,0:0|0:0,0:0:0:0:
230,48,225307,2,0,P|246:60|261:94,2,53,2|2|2,0:0|0:0|0:0,0:0:0:0:
155,123,225993,6,0,P|165:147|185:164,2,53,0|0|0,0:0|0:0|0:0,0:0:0:0:
102,129,226507,1,0,0:0:0:0:
19,195,226850,2,0,P|13:220|19:246,1,53,2|6,0:0|0:0,0:0:0:0:
89,326,227364,6,0,B|136:305|136:305|191:316,1,106,4|8,0:0|0:0,0:0:0:0:
293,340,228050,2,0,B|346:350|346:350|393:329,1,106,0|8,0:0|0:0,0:0:0:0:
450,239,228736,2,0,P|459:221|464:189,1,53,0|0,0:0|0:0,0:0:0:0:
441,141,229079,2,0,P|444:114|454:90,1,53,8|0,0:0|0:0,0:0:0:0:
479,44,229421,2,0,L|374:39,1,106,0|8,0:0|0:0,0:0:0:0:
267,39,230107,6,0,B|256:58|266:89|266:89|253:112|253:144,1,106,0|8,0:0|0:0,0:0:0:0:
265,193,230621,1,0,0:0:0:0:
293,238,230793,2,0,L|351:240,2,53,0|0|8,0:0|0:0|0:0,0:0:0:0:
268,285,231307,1,0,0:0:0:0:
245,333,231479,2,0,P|194:343|144:328,1,106,2|2,0:0|0:0,0:0:0:0:
72,249,232164,2,0,P|61:197|76:147,1,106,0|0,0:0|0:0,0:0:0:0:
111,107,232679,1,0,0:0:0:0:
162,93,232850,6,0,B|195:96|195:96|214:86|214:86|235:93|235:93|268:90,1,106,4|8,0:0|0:0,0:0:0:0:
316,79,233364,1,0,0:0:0:0:
369,81,233536,2,0,L|377:29,2,53,0|0|8,0:0|0:0|0:0,0:0:0:0:
461,133,234221,1,0,0:0:0:0:
445,238,234564,1,8,0:0:0:0:
401,334,234907,2,0,P|425:342|456:343,2,53,0|0|8,0:0|0:0|0:0,0:0:0:0:
352,317,235421,1,8,0:0:0:0:
301,322,235593,6,0,B|258:332|227:293|227:293|189:322|145:302,1,169.6,0|0,0:0|0:0,0:0:0:0:
52,265,236621,2,0,L|46:222,1,42.4,2|2,0:0|0:0,0:0:0:0:
90,133,237136,1,2,0:0:0:0:
90,133,237307,2,0,L|96:90,1,42.4,2|2,0:0|0:0,0:0:0:0:
132,55,237650,2,0,L|174:47,1,42.4,2|2,0:0|0:0,0:0:0:0:
224,40,237993,5,10,0:0:0:0:
