osu file format v14

[General]
AudioFilename: audio13421.mp3
AudioLeadIn: 0
PreviewTime: 132803
Countdown: 0
SampleSet: Drum
StackLeniency: 0.6
Mode: 0
LetterboxInBreaks: 0
WidescreenStoryboard: 1

[Editor]
Bookmarks: 1232,241232
DistanceSpacing: 1.1
BeatDivisor: 2
GridSize: 4
TimelineZoom: 1.2

[Metadata]
Title:Onegai! Kon kon Oinarisama
TitleUnicode:お願い!コンコンお稲荷さま
Artist:ARM x Komso feat. Nanahira
ArtistUnicode:ARM×狐夢想 feat. ななひら
Creator:ColdTooth
Version:Basic
Source:Muse Dash
Tags:electronic japanese video game Q-15a Confetto COOL&CREATE IOSYS Denpa Makemon Trip×Frolic Torippu × furorikku 喵斯快跑 トリップ×フロリック ばやちゃお 魔けモン! 春M3
BeatmapID:2606086
BeatmapSetID:1254015

[Difficulty]
HPDrainRate:2.4
CircleSize:2.5
OverallDifficulty:3.3
ApproachRate:3.8
SliderMultiplier:0.9
SliderTickRate:1

[Events]
//Background and Video events
Video,-185,"KON KON silent.mp4"
0,0,"background.jpg",0,0
//Break Periods
2,83564,87506
2,163107,167049
//Storyboard Layer 0 (Background)
//Storyboard Layer 1 (Fail)
//Storyboard Layer 2 (Pass)
//Storyboard Layer 3 (Foreground)
//Storyboard Layer 4 (Overlay)
//Storyboard Sound Samples

[TimingPoints]
1079,342.857142857143,4,2,3,50,1,0
1164,-100,4,2,3,25,0,0
1764,-100,4,3,3,100,0,0
2450,-100,4,2,3,100,0,0
3307,-100,4,3,3,100,0,0
3821,-100,4,2,3,60,0,1
3907,-100,4,2,3,100,0,0
4164,-100,4,1,3,100,0,0
4250,-100,4,2,3,100,0,0
4507,-100,4,1,3,100,0,0
4593,-100,4,2,3,100,0,0
4850,-100,4,1,3,100,0,0
4936,-100,4,2,3,100,0,0
5193,-100,4,1,3,100,0,0
5279,-100,4,2,3,100,0,0
5536,-100,4,1,3,100,0,0
5621,-100,4,2,3,100,0,0
5879,-100,4,1,3,100,0,0
5964,-100,4,2,3,100,0,0
6221,-100,4,1,3,100,0,0
6564,-100,4,1,3,100,0,0
6650,-100,4,2,3,100,0,0
6907,-100,4,1,3,100,0,0
6993,-100,4,2,3,100,0,0
7250,-100,4,1,3,100,0,0
7336,-100,4,2,3,100,0,0
7593,-100,4,1,3,100,0,0
7679,-100,4,2,3,100,0,0
8621,-100,4,1,3,100,0,0
9050,-100,4,2,3,100,0,0
9136,-100,4,1,3,100,0,0
9221,-100,4,2,3,100,0,0
9307,-100,4,1,3,100,0,0
9393,-100,4,2,3,100,0,0
9650,-100,4,1,3,100,0,0
9736,-100,4,2,3,100,0,0
9993,-100,4,1,3,100,0,0
10079,-100,4,2,3,100,0,0
10336,-100,4,1,3,100,0,0
10421,-100,4,2,3,100,0,0
10679,-100,4,1,3,100,0,0
10764,-100,4,2,3,100,0,0
11021,-100,4,1,3,100,0,0
11107,-100,4,2,3,100,0,0
11364,-100,4,1,3,100,0,0
11707,-100,4,1,3,100,0,0
12050,-100,4,3,3,100,0,0
13079,-100,4,3,3,100,0,0
13250,-100,4,2,3,100,0,0
13593,-100,4,2,0,100,0,0
14107,-100,4,1,3,100,0,0
14193,-100,4,2,3,100,0,0
14279,-100,4,1,3,100,0,0
14364,-100,4,2,3,100,0,0
14450,-100,4,1,3,100,0,0
14536,-100,4,2,3,100,0,0
14793,-100,4,2,3,80,0,0
14879,-100,4,2,3,100,0,0
15136,-100,4,1,3,100,0,0
15221,-100,4,2,3,100,0,0
15479,-100,4,1,3,100,0,0
15564,-100,4,2,3,100,0,0
16164,-100,4,1,3,100,0,0
16250,-100,4,2,3,100,0,0
16507,-100,4,1,3,100,0,0
16593,-100,4,2,3,100,0,0
16850,-100,4,1,3,100,0,0
16936,-100,4,2,3,100,0,0
17536,-100,4,1,3,100,0,0
17621,-100,4,2,3,100,0,0
17879,-100,4,1,3,100,0,0
17964,-100,4,2,3,100,0,0
18221,-100,4,1,3,100,0,0
18307,-100,4,2,3,100,0,0
18564,-100,4,1,3,100,0,0
18650,-100,4,2,3,100,0,0
18907,-100,4,3,3,100,0,0
18993,-100,4,2,3,100,0,0
19079,-100,4,3,3,100,0,0
19164,-100,4,2,3,100,0,0
19250,-100,4,3,3,100,0,0
19336,-100,4,2,3,100,0,0
19421,-100,4,3,3,100,0,0
19507,-100,4,2,3,100,0,0
19593,-100,4,1,3,100,0,0
20107,-100,4,2,3,100,0,0
20279,-100,4,1,3,100,0,0
20364,-100,4,2,3,100,0,0
20621,-100,4,1,3,100,0,0
20707,-100,4,2,3,100,0,0
20964,-100,4,1,3,100,0,0
21050,-100,4,2,3,100,0,0
21650,-100,4,1,3,100,0,0
21736,-100,4,2,3,100,0,0
21993,-100,4,1,3,100,0,0
22079,-100,4,2,3,100,0,0
22336,-100,4,1,3,100,0,0
22421,-100,4,2,3,100,0,0
22850,-100,4,1,3,100,0,0
23193,-100,4,2,3,100,0,0
23536,-100,4,1,3,100,0,0
23879,-100,4,2,3,100,0,0
24221,-100,4,1,3,100,0,0
24393,-100,4,1,3,100,0,0
24479,-100,4,2,3,100,0,0
25079,-100,4,1,3,100,0,0
25336,-100,4,2,3,100,0,0
25421,-100,4,1,3,50,0,0
25507,-100,4,2,3,100,0,0
25593,-100,4,1,3,50,0,0
25679,-100,4,2,3,100,0,0
25764,-100,4,2,3,100,0,0
26107,-100,4,1,3,100,0,0
26193,-100,4,2,3,100,0,0
26450,-100,4,1,3,100,0,0
26536,-100,4,2,3,100,0,0
27136,-100,4,1,3,100,0,0
27221,-100,4,2,3,100,0,0
27479,-100,4,1,3,100,0,0
27564,-100,4,2,3,100,0,0
27821,-100,4,1,3,100,0,0
27907,-100,4,2,3,100,0,0
28507,-100,4,1,3,100,0,0
28593,-100,4,2,3,100,0,0
28850,-100,4,1,3,100,0,0
28936,-100,4,2,3,100,0,0
29193,-100,4,1,3,100,0,0
29279,-100,4,2,3,100,0,0
29536,-100,4,1,3,100,0,0
29621,-100,4,2,3,100,0,0
29879,-100,4,3,3,100,0,0
29964,-100,4,2,3,100,0,0
30050,-100,4,3,3,100,0,0
30136,-100,4,2,3,100,0,0
30221,-100,4,3,3,100,0,0
30307,-100,4,2,3,100,0,0
30393,-100,4,3,3,100,0,0
30479,-100,4,2,3,100,0,0
30564,-100,4,1,3,100,0,0
30993,-100,4,2,3,100,0,0
31250,-100,4,1,3,100,0,0
31336,-100,4,2,3,100,0,0
31593,-100,4,1,3,100,0,0
31679,-100,4,2,3,100,0,0
31936,-100,4,1,3,100,0,0
32021,-100,4,2,3,100,0,0
32621,-100,4,1,3,100,0,0
32707,-100,4,2,3,100,0,0
32964,-100,4,1,3,100,0,0
33050,-100,4,2,3,100,0,0
33307,-100,4,1,3,100,0,0
33393,-100,4,2,3,100,0,0
33993,-100,4,1,3,70,0,0
35364,-100,4,3,3,70,0,0
35536,-100,4,1,3,70,0,0
35879,-100,4,3,3,70,0,0
36564,-100,4,1,3,70,0,0
36736,-100,4,2,3,100,0,0
36907,-100,4,2,3,100,0,0
37764,-100,4,3,3,60,0,0
37850,-100,4,2,3,60,0,0
39136,-100,4,3,3,60,0,0
39221,-100,4,2,3,60,0,0
40507,-100,4,3,3,60,0,0
40593,-100,4,2,3,60,0,0
41707,-100,4,3,3,60,0,0
42221,-100,4,2,3,60,0,0
43250,-100,4,3,3,60,0,0
43336,-100,4,2,3,100,0,0
43593,-100,4,1,3,100,0,0
43764,-100,4,3,3,70,0,0
43850,-100,4,2,3,70,0,0
43936,-100,4,3,3,70,0,0
44021,-100,4,2,3,70,0,0
44107,-100,4,3,3,70,0,0
44193,-100,4,2,3,70,0,0
44279,-100,4,3,3,70,0,0
44364,-100,4,2,3,70,0,0
44450,-100,4,3,3,70,0,0
44536,-100,4,2,3,70,0,0
44621,-100,4,3,3,80,0,0
44964,-100,4,3,3,100,0,0
45050,-100,4,2,3,60,0,0
47707,-100,4,3,3,90,0,0
47793,-100,4,1,3,70,0,0
49079,-100,4,3,3,90,0,0
49164,-100,4,1,3,70,0,0
50450,-100,4,1,3,80,0,0
51136,-100,4,1,3,85,0,0
51821,-100,4,1,3,90,0,0
52507,-100,4,1,3,95,0,0
53193,-100,4,3,3,100,0,0
53279,-100,4,2,3,60,0,0
54564,-100,4,1,3,100,0,0
54650,-100,4,2,3,50,0,0
54736,-100,4,1,3,100,0,0
54821,-100,4,2,3,50,0,0
54907,-100,4,1,3,100,0,0
54993,-100,4,2,3,50,0,0
55079,-100,4,1,3,100,0,0
55164,-100,4,2,3,50,0,0
55250,-100,4,1,3,100,0,0
55336,-100,4,2,3,50,0,0
55421,-100,4,1,3,100,0,0
55850,-100,4,2,3,100,0,0
55936,-100,4,2,3,80,0,1
56021,-100,4,2,3,100,0,1
56279,-100,4,1,3,100,0,1
56364,-100,4,2,3,100,0,1
56621,-100,4,1,3,100,0,1
56707,-100,4,2,3,100,0,1
56964,-100,4,1,3,100,0,1
57050,-100,4,2,3,100,0,1
57307,-100,4,1,3,100,0,1
57393,-100,4,2,3,100,0,1
57650,-100,4,1,3,100,0,1
57736,-100,4,2,3,100,0,1
57993,-100,4,1,3,100,0,1
58079,-100,4,2,3,100,0,1
58336,-100,4,1,3,100,0,1
58679,-100,4,1,3,100,0,1
58764,-100,4,2,3,100,0,1
59021,-100,4,1,3,100,0,1
59107,-100,4,2,3,100,0,1
59364,-100,4,1,3,100,0,1
59450,-100,4,2,3,100,0,1
59707,-100,4,1,3,100,0,1
59793,-100,4,2,3,100,0,1
60050,-100,4,1,3,100,0,1
60136,-100,4,2,3,100,0,1
60393,-100,4,1,3,100,0,1
60479,-100,4,2,3,100,0,1
60736,-100,4,1,3,100,0,1
60821,-100,4,2,3,100,0,1
61079,-100,4,1,3,100,0,1
61164,-100,4,2,3,100,0,1
61421,-100,4,2,3,80,0,1
61593,-100,4,3,3,100,0,1
61764,-100,4,1,3,100,0,1
61850,-100,4,3,3,100,0,1
62107,-100,4,1,3,100,0,1
62193,-100,4,2,3,100,0,1
62450,-100,4,1,3,100,0,1
62536,-100,4,2,3,100,0,1
62793,-100,4,2,3,80,0,1
62964,-100,4,3,3,100,0,1
63136,-100,4,1,3,100,0,1
63221,-100,4,3,3,100,0,1
63479,-100,4,1,3,100,0,1
63564,-100,4,2,3,100,0,1
63821,-100,4,1,3,100,0,1
63907,-100,4,2,3,100,0,1
64164,-100,4,2,3,80,0,1
64250,-100,4,2,3,100,0,1
64507,-100,4,1,3,100,0,1
64593,-100,4,2,3,100,0,1
64850,-100,4,1,3,100,0,1
64936,-100,4,2,3,100,0,1
65107,-100,4,1,3,100,0,1
65279,-100,4,2,3,100,0,1
65364,-100,4,1,3,100,0,1
65450,-100,4,2,3,100,0,1
65536,-100,4,3,3,100,0,0
66221,-100,4,1,3,100,0,0
66907,-100,4,2,3,80,0,1
66993,-100,4,2,3,100,0,1
67250,-100,4,1,3,100,0,1
67336,-100,4,2,3,100,0,1
67593,-100,4,1,3,100,0,1
67679,-100,4,2,3,100,0,1
67936,-100,4,1,3,100,0,1
68021,-100,4,2,3,100,0,1
68279,-100,4,1,3,100,0,1
68364,-100,4,2,3,100,0,1
68621,-100,4,1,3,100,0,1
68707,-100,4,2,3,100,0,1
68964,-100,4,1,3,100,0,1
69050,-100,4,2,3,100,0,1
69307,-100,4,1,3,100,0,1
69650,-100,4,1,3,100,0,1
69736,-100,4,2,3,100,0,1
69993,-100,4,1,3,100,0,1
70079,-100,4,2,3,100,0,1
70336,-100,4,1,3,100,0,1
70421,-100,4,2,3,100,0,1
70679,-100,4,1,3,100,0,1
70764,-100,4,2,3,100,0,1
71021,-100,4,1,3,100,0,1
71107,-100,4,2,3,100,0,1
71364,-100,4,1,3,100,0,1
71450,-100,4,2,3,100,0,1
71707,-100,4,1,3,100,0,1
71793,-100,4,2,3,100,0,1
72050,-100,4,1,3,100,0,1
72136,-100,4,2,3,100,0,1
72393,-100,4,1,3,100,0,1
72479,-100,4,2,3,100,0,1
72736,-100,4,1,3,100,0,1
72821,-100,4,2,3,100,0,1
73079,-100,4,1,3,100,0,1
73164,-100,4,2,3,100,0,1
73421,-100,4,1,3,100,0,1
73507,-100,4,2,3,100,0,1
73764,-100,4,1,3,100,0,1
73850,-100,4,2,3,100,0,1
74107,-100,4,1,3,100,0,1
74193,-100,4,2,3,100,0,1
74450,-100,4,1,3,100,0,1
74536,-100,4,2,3,100,0,1
74793,-100,4,1,3,100,0,1
74879,-100,4,2,3,100,0,1
75136,-100,4,2,3,80,0,1
75221,-100,4,2,3,100,0,1
75479,-100,4,1,3,100,0,1
75564,-100,4,2,3,100,0,1
75821,-100,4,1,3,100,0,1
75907,-100,4,2,3,100,0,1
76164,-100,4,1,3,100,0,1
76250,-100,4,2,3,100,0,1
76507,-100,4,2,3,80,0,1
76593,-100,4,2,3,100,0,1
76850,-100,4,1,3,100,0,1
76936,-100,4,2,3,100,0,1
77193,-100,4,1,3,100,0,1
77279,-100,4,2,3,100,0,1
77536,-100,4,1,3,100,0,1
77621,-100,4,2,3,100,0,1
77879,-100,4,2,3,80,0,1
78050,-100,4,3,3,100,0,1
78393,-100,4,1,3,100,0,1
78736,-100,4,3,3,100,0,1
79079,-100,4,1,3,100,0,1
79421,-100,4,3,3,100,0,1
79764,-100,4,1,3,100,0,1
80107,-100,4,3,3,100,0,1
80450,-100,4,1,3,100,0,1
80621,-100,4,3,3,80,0,0
80707,-100,4,2,3,50,0,0
81307,-100,4,3,3,100,0,0
83364,-100,4,2,3,60,0,1
83450,-100,4,2,3,100,0,0
83707,-100,4,1,3,100,0,0
83793,-100,4,2,3,100,0,0
84050,-100,4,1,3,100,0,0
84136,-100,4,2,3,100,0,0
84393,-100,4,1,3,100,0,0
84479,-100,4,2,3,100,0,0
84736,-100,4,1,3,100,0,0
84821,-100,4,2,3,100,0,0
85079,-100,4,1,3,100,0,0
85164,-100,4,2,3,100,0,0
85421,-100,4,1,3,100,0,0
85507,-100,4,2,3,100,0,0
85764,-100,4,1,3,100,0,0
86107,-100,4,1,3,100,0,0
86193,-100,4,2,3,100,0,0
86450,-100,4,1,3,100,0,0
86536,-100,4,2,3,100,0,0
86793,-100,4,1,3,100,0,0
86879,-100,4,2,3,100,0,0
87136,-100,4,1,3,100,0,0
87221,-100,4,2,3,100,0,0
87479,-100,4,2,3,100,0,0
88164,-100,4,1,3,100,0,0
88593,-100,4,2,3,100,0,0
88679,-100,4,1,3,100,0,0
88764,-100,4,2,3,100,0,0
88850,-100,4,1,3,100,0,0
88936,-100,4,2,3,100,0,0
89193,-100,4,1,3,100,0,0
89279,-100,4,2,3,100,0,0
89536,-100,4,1,3,100,0,0
89621,-100,4,2,3,100,0,0
89879,-100,4,1,3,100,0,0
89964,-100,4,2,3,100,0,0
90221,-100,4,1,3,100,0,0
90564,-100,4,1,3,100,0,0
90650,-100,4,1,3,100,0,0
90907,-100,4,1,3,100,0,0
91421,-100,4,3,3,100,0,0
91593,-100,4,3,3,80,0,0
91679,-100,4,2,3,80,0,0
91936,-100,4,2,3,40,0,0
92964,-100,4,3,3,50,0,0
93650,-100,4,3,3,70,0,0
93993,-100,4,1,3,80,0,0
94336,-100,4,2,3,80,0,0
95193,-100,4,2,3,60,0,0
95364,-100,4,1,3,30,0,0
95707,-100,4,2,3,80,0,0
96564,-100,4,2,3,60,0,0
96736,-100,4,1,3,30,0,0
97079,-100,4,2,3,80,0,0
97421,-100,4,3,3,80,0,0
97507,-100,4,2,3,80,0,0
98107,-100,4,3,3,80,0,0
98193,-100,4,2,3,80,0,0
98450,-100,4,3,3,80,0,0
99821,-100,4,2,3,80,0,0
100679,-100,4,2,3,60,0,0
100850,-100,4,1,3,30,0,0
101193,-100,4,2,3,80,0,0
102393,-100,4,1,3,80,0,0
102736,-100,4,2,3,80,0,0
103079,-100,4,1,3,80,0,0
103421,-100,4,2,3,80,0,0
103764,-100,4,1,3,80,0,0
103936,-100,4,1,3,80,0,0
104021,-100,4,2,3,80,0,0
104621,-100,4,1,3,80,0,0
104879,-100,4,2,3,80,0,0
104964,-100,4,1,3,40,0,0
105050,-100,4,2,3,80,0,0
105136,-100,4,1,3,40,0,0
105221,-100,4,2,3,80,0,0
105307,-100,4,2,3,100,0,0
106164,-100,4,2,3,60,0,0
106336,-100,4,1,3,30,0,0
106679,-100,4,2,3,100,0,0
107536,-100,4,2,3,60,0,0
107707,-100,4,1,3,30,0,0
108050,-100,4,2,3,100,0,0
108393,-100,4,3,3,100,0,0
108479,-100,4,2,3,100,0,0
109079,-100,4,3,3,100,0,0
109164,-100,4,2,3,100,0,0
109421,-100,4,3,3,80,0,0
110793,-100,4,2,3,100,0,0
111650,-100,4,2,3,60,0,0
111821,-100,4,1,3,30,0,0
112164,-100,4,2,3,100,0,0
113021,-100,4,2,3,60,0,0
113193,-100,4,1,3,30,0,0
113536,-100,4,1,3,70,0,0
114907,-100,4,3,3,70,0,0
115079,-100,4,1,3,70,0,0
115421,-100,4,3,3,70,0,0
116107,-100,4,1,3,70,0,0
116279,-100,4,2,3,60,0,0
120393,-100,4,2,3,70,0,0
121764,-100,4,2,3,70,0,0
122793,-100,4,3,3,70,0,0
122879,-100,4,2,3,70,0,0
123136,-100,4,1,3,70,0,0
123307,-100,4,3,3,70,0,0
123393,-100,4,2,3,70,0,0
123479,-100,4,3,3,70,0,0
123564,-100,4,2,3,70,0,0
123650,-100,4,3,3,70,0,0
123736,-100,4,2,3,70,0,0
123821,-100,4,3,3,70,0,0
123907,-100,4,2,3,70,0,0
123993,-100,4,3,3,70,0,0
124079,-100,4,2,3,70,0,0
124164,-100,4,3,3,80,0,0
124336,-100,4,2,3,80,0,0
124507,-100,4,3,3,100,0,0
124593,-100,4,2,3,60,0,0
127250,-100,4,3,3,90,0,0
127336,-100,4,1,3,70,0,0
128621,-100,4,3,3,90,0,0
128707,-100,4,1,3,70,0,0
129993,-100,4,1,3,80,0,0
130679,-100,4,1,3,85,0,0
131364,-100,4,1,3,90,0,0
132050,-100,4,1,3,95,0,0
132736,-100,4,3,3,100,0,0
132821,-100,4,2,3,60,0,0
134107,-100,4,1,3,100,0,0
134193,-100,4,2,3,50,0,0
134279,-100,4,1,3,100,0,0
134364,-100,4,2,3,50,0,0
134450,-100,4,1,3,100,0,0
134536,-100,4,2,3,50,0,0
134621,-100,4,1,3,100,0,0
134707,-100,4,2,3,50,0,0
134793,-100,4,1,3,100,0,0
134879,-100,4,2,3,50,0,0
134964,-100,4,1,3,100,0,0
135479,-100,4,2,3,80,0,1
135564,-100,4,2,3,100,0,1
135821,-100,4,1,3,100,0,1
135907,-100,4,2,3,100,0,1
136164,-100,4,1,3,100,0,1
136250,-100,4,2,3,100,0,1
136507,-100,4,1,3,100,0,1
136593,-100,4,2,3,100,0,1
136850,-100,4,1,3,100,0,1
136936,-100,4,2,3,100,0,1
137193,-100,4,1,3,100,0,1
137279,-100,4,2,3,100,0,1
137536,-100,4,1,3,100,0,1
137621,-100,4,2,3,100,0,1
137879,-100,4,1,3,100,0,1
138221,-100,4,1,3,100,0,1
138307,-100,4,2,3,100,0,1
138564,-100,4,1,3,100,0,1
138650,-100,4,2,3,100,0,1
138907,-100,4,1,3,100,0,1
138993,-100,4,2,3,100,0,1
139250,-100,4,1,3,100,0,1
139336,-100,4,2,3,100,0,1
139593,-100,4,1,3,100,0,1
139679,-100,4,2,3,100,0,1
139936,-100,4,1,3,100,0,1
140021,-100,4,2,3,100,0,1
140279,-100,4,2,3,80,0,1
140364,-100,4,2,3,100,0,1
140621,-100,4,1,3,100,0,1
140707,-100,4,2,3,100,0,1
140964,-100,4,2,3,80,0,1
141136,-100,4,3,3,100,0,1
141307,-100,4,1,3,100,0,1
141393,-100,4,3,3,100,0,1
141650,-100,4,2,3,80,0,1
141736,-100,4,2,3,100,0,1
141993,-100,4,1,3,100,0,1
142079,-100,4,2,3,100,0,1
142336,-100,4,2,3,80,0,1
142507,-100,4,3,3,100,0,1
142679,-100,4,1,3,100,0,1
142764,-100,4,3,3,100,0,1
143021,-100,4,2,3,80,0,1
143107,-100,4,2,3,100,0,1
143364,-100,4,1,3,100,0,1
143450,-100,4,2,3,100,0,1
143707,-100,4,2,3,80,0,1
143793,-100,4,2,3,100,0,1
144050,-100,4,1,3,100,0,1
144136,-100,4,2,3,100,0,1
144393,-100,4,1,3,100,0,1
144479,-100,4,2,3,100,0,1
144650,-100,4,1,3,100,0,1
144821,-100,4,2,3,100,0,1
144907,-100,4,1,3,100,0,1
144993,-100,4,2,3,100,0,1
145079,-100,4,3,3,100,0,0
145764,-100,4,1,3,100,0,0
146450,-100,4,2,3,80,0,1
146536,-100,4,2,3,100,0,1
146793,-100,4,1,3,100,0,1
146879,-100,4,2,3,100,0,1
147136,-100,4,1,3,99,0,1
147221,-100,4,2,3,100,0,1
147479,-100,4,1,3,100,0,1
147564,-100,4,2,3,100,0,1
147821,-100,4,1,3,99,0,1
147907,-100,4,2,3,100,0,1
148164,-100,4,1,3,100,0,1
148250,-100,4,2,3,100,0,1
148507,-100,4,1,3,99,0,1
148593,-100,4,2,3,100,0,1
148850,-100,4,1,3,100,0,1
149193,-100,4,1,3,99,0,1
149279,-100,4,2,3,100,0,1
149536,-100,4,1,3,100,0,1
149621,-100,4,2,3,100,0,1
149879,-100,4,1,3,99,0,1
149964,-100,4,2,3,100,0,1
150221,-100,4,1,3,100,0,1
150307,-100,4,2,3,100,0,1
150564,-100,4,1,3,99,0,1
150650,-100,4,2,3,100,0,1
150907,-100,4,1,3,100,0,1
150993,-100,4,2,3,100,0,1
151250,-100,4,1,3,99,0,1
151336,-100,4,2,3,100,0,1
151593,-100,4,1,3,100,0,1
151679,-100,4,2,3,100,0,1
151936,-100,4,1,3,99,0,1
152021,-100,4,2,3,100,0,1
152279,-100,4,1,3,100,0,1
152364,-100,4,2,3,100,0,1
152621,-100,4,1,3,99,0,1
152707,-100,4,2,3,100,0,1
152964,-100,4,1,3,100,0,1
153050,-100,4,2,3,100,0,1
153307,-100,4,1,3,99,0,1
153393,-100,4,2,3,100,0,1
153650,-100,4,1,3,100,0,1
153736,-100,4,2,3,100,0,1
153993,-100,4,1,3,99,0,1
154079,-100,4,2,3,100,0,1
154336,-100,4,1,3,100,0,1
154421,-100,4,2,3,100,0,1
154679,-100,4,2,3,80,0,1
154764,-100,4,2,3,100,0,1
155021,-100,4,1,3,100,0,1
155107,-100,4,2,3,100,0,1
155364,-100,4,1,3,99,0,1
155450,-100,4,2,3,100,0,1
155707,-100,4,1,3,100,0,1
155793,-100,4,2,3,100,0,1
156050,-100,4,2,3,80,0,1
156136,-100,4,2,3,100,0,1
156393,-100,4,1,3,100,0,1
156479,-100,4,2,3,100,0,1
156736,-100,4,1,3,99,0,1
156821,-100,4,2,3,100,0,1
157079,-100,4,1,3,100,0,1
157164,-100,4,2,3,100,0,1
157421,-100,4,2,3,80,0,1
157593,-100,4,3,3,100,0,1
157936,-100,4,1,3,100,0,1
158279,-100,4,3,3,100,0,1
158621,-100,4,1,3,100,0,1
158964,-100,4,3,3,100,0,1
159307,-100,4,1,3,100,0,1
159650,-100,4,3,3,100,0,1
159993,-100,4,1,3,100,0,1
160164,-100,4,3,3,100,0,0
160250,-100,4,2,3,50,0,0
160850,-100,4,3,3,100,0,0
162907,-100,4,3,3,100,0,0
167707,-100,4,2,3,100,0,0
168393,-100,4,3,3,60,0,0
169079,-100,4,2,3,100,0,0
169164,-100,4,3,3,60,0,0
170450,-100,4,2,3,100,0,0
170536,-100,4,3,3,60,0,0
171821,-100,4,2,3,100,0,0
171907,-100,4,3,3,60,0,0
172507,-100,4,2,3,100,0,0
173193,-100,4,2,3,60,0,0
173364,-100,4,3,3,50,0,0
173536,-100,4,3,3,60,0,0
173707,-100,4,3,3,70,0,0
173879,-100,4,2,3,60,0,0
174564,-100,4,2,3,80,0,0
174907,-100,4,2,3,40,0,0
175250,-100,4,2,3,60,0,0
175593,-100,4,2,3,40,0,0
175936,-100,4,2,3,60,0,0
176279,-100,4,3,3,60,0,0
176621,-100,4,2,3,40,0,0
176707,-100,4,2,3,60,0,0
177650,-100,4,2,3,40,0,0
177821,-100,4,2,3,60,0,0
178336,-100,4,2,3,40,0,0
178507,-100,4,2,3,60,0,0
178679,-100,4,2,3,60,0,0
178764,-100,4,2,3,60,0,0
179364,-100,4,2,3,40,0,0
179707,-100,4,2,3,60,0,0
180393,-100,4,2,3,40,0,0
180564,-100,4,2,3,60,0,0
181079,-100,4,2,3,40,0,0
181250,-100,4,2,3,60,0,0
182107,-100,4,2,3,40,0,0
182450,-100,4,2,3,60,0,0
183136,-100,4,2,3,40,0,0
183307,-100,4,2,3,60,0,0
183821,-100,4,2,3,40,0,0
183993,-100,4,2,3,60,0,0
184850,-100,4,2,3,50,0,0
184936,-100,4,2,3,80,0,0
185193,-100,4,1,3,80,0,0
185279,-100,4,2,3,80,0,0
185536,-100,4,2,3,50,0,0
185621,-100,4,2,3,80,0,0
185879,-100,4,1,3,80,0,0
185964,-100,4,2,3,80,0,0
186221,-100,4,2,3,50,0,0
186307,-100,4,2,3,80,0,0
186564,-100,4,1,3,80,0,0
186650,-100,4,2,3,80,0,0
186907,-100,4,2,3,50,0,0
186993,-100,4,2,3,80,0,0
187079,-100,4,1,3,60,0,0
187593,-100,4,1,3,80,0,0
188964,-100,4,2,3,100,0,0
189050,-100,4,2,3,50,0,0
191707,-100,4,2,3,100,0,0
191793,-100,4,2,3,50,0,0
194450,-100,4,1,3,70,0,0
195821,-100,4,1,3,80,0,0
197193,-100,4,1,3,90,0,0
198564,-100,4,2,3,100,0,0
198650,-100,4,2,3,50,0,0
198736,-100,4,1,3,100,0,0
198821,-100,4,2,3,50,0,0
198907,-100,4,1,3,100,0,0
198993,-100,4,2,3,50,0,0
199079,-100,4,1,3,100,0,0
199164,-100,4,2,3,50,0,0
199250,-100,4,1,3,100,0,0
199336,-100,4,2,3,50,0,0
199421,-100,4,1,3,100,0,0
199507,-100,4,2,3,100,0,0
199936,-100,4,2,3,80,0,1
200021,-100,4,2,3,100,0,1
200279,-100,4,1,3,100,0,1
200364,-100,4,2,3,100,0,1
200621,-100,4,1,3,100,0,1
200707,-100,4,2,3,100,0,1
200964,-100,4,1,3,100,0,1
201050,-100,4,2,3,100,0,1
201307,-100,4,1,3,100,0,1
201393,-100,4,2,3,100,0,1
201650,-100,4,1,3,100,0,1
201736,-100,4,2,3,100,0,1
201993,-100,4,1,3,100,0,1
202079,-100,4,2,3,100,0,1
202336,-100,4,1,3,100,0,1
202679,-100,4,1,3,100,0,1
202764,-100,4,2,3,100,0,1
203021,-100,4,1,3,100,0,1
203107,-100,4,2,3,100,0,1
203364,-100,4,1,3,100,0,1
203450,-100,4,2,3,100,0,1
203707,-100,4,1,3,100,0,1
203793,-100,4,2,3,100,0,1
204050,-100,4,1,3,100,0,1
204136,-100,4,2,3,100,0,1
204393,-100,4,1,3,100,0,1
204479,-100,4,2,3,100,0,1
204736,-100,4,1,3,100,0,1
204821,-100,4,2,3,100,0,1
205079,-100,4,1,3,100,0,1
205164,-100,4,2,3,100,0,1
205421,-100,4,2,3,80,0,1
205593,-100,4,3,3,100,0,1
205764,-100,4,1,3,100,0,1
205850,-100,4,3,3,100,0,1
206107,-100,4,1,3,100,0,1
206193,-100,4,2,3,100,0,1
206450,-100,4,1,3,100,0,1
206536,-100,4,2,3,100,0,1
206793,-100,4,2,3,80,0,1
206964,-100,4,3,3,100,0,1
207136,-100,4,1,3,100,0,1
207221,-100,4,3,3,100,0,1
207479,-100,4,1,3,100,0,1
207564,-100,4,2,3,100,0,1
207821,-100,4,1,3,100,0,1
207907,-100,4,2,3,100,0,1
208164,-100,4,2,3,80,0,1
208250,-100,4,2,3,100,0,1
208507,-100,4,1,3,100,0,1
208593,-100,4,2,3,100,0,1
208850,-100,4,1,3,100,0,1
208936,-100,4,2,3,100,0,1
209107,-100,4,1,3,100,0,1
209279,-100,4,2,3,100,0,1
209364,-100,4,1,3,100,0,1
209450,-100,4,2,3,100,0,1
209536,-100,4,3,3,100,0,0
210221,-100,4,1,3,100,0,0
210907,-100,4,2,3,80,0,1
210993,-100,4,2,3,100,0,1
211250,-100,4,1,3,100,0,1
211336,-100,4,2,3,100,0,1
211593,-100,4,1,3,100,0,1
211679,-100,4,2,3,100,0,1
211936,-100,4,1,3,100,0,1
212021,-100,4,2,3,100,0,1
212279,-100,4,1,3,100,0,1
212364,-100,4,2,3,100,0,1
212621,-100,4,1,3,100,0,1
212707,-100,4,2,3,100,0,1
212964,-100,4,1,3,100,0,1
213050,-100,4,2,3,100,0,1
213307,-100,4,1,3,100,0,1
213650,-100,4,1,3,100,0,1
213736,-100,4,2,3,100,0,1
213993,-100,4,1,3,100,0,1
214079,-100,4,2,3,100,0,1
214336,-100,4,1,3,100,0,1
214421,-100,4,2,3,100,0,1
214679,-100,4,1,3,100,0,1
214764,-100,4,2,3,100,0,1
215021,-100,4,1,3,100,0,1
215107,-100,4,2,3,100,0,1
215364,-100,4,1,3,100,0,1
215450,-100,4,2,3,100,0,1
215707,-100,4,1,3,100,0,1
215793,-100,4,2,3,100,0,1
216050,-100,4,1,3,100,0,1
216136,-100,4,2,3,100,0,1
216393,-100,4,1,3,100,0,1
216479,-100,4,2,3,100,0,1
216736,-100,4,1,3,100,0,1
216821,-100,4,2,3,100,0,1
217079,-100,4,1,3,100,0,1
217164,-100,4,2,3,100,0,1
217421,-100,4,1,3,100,0,1
217507,-100,4,2,3,100,0,1
217764,-100,4,1,3,100,0,1
217850,-100,4,2,3,100,0,1
218107,-100,4,1,3,100,0,1
218193,-100,4,2,3,100,0,1
218450,-100,4,1,3,100,0,1
218536,-100,4,2,3,100,0,1
218793,-100,4,1,3,100,0,1
218879,-100,4,2,3,100,0,1
219136,-100,4,2,3,80,0,1
219221,-100,4,2,3,100,0,1
219479,-100,4,1,3,100,0,1
219564,-100,4,2,3,100,0,1
219821,-100,4,1,3,100,0,1
219907,-100,4,2,3,100,0,1
220164,-100,4,1,3,100,0,1
220250,-100,4,2,3,100,0,1
220507,-100,4,2,3,80,0,1
220593,-100,4,2,3,100,0,1
220850,-100,4,1,3,100,0,1
220936,-100,4,2,3,100,0,1
221193,-100,4,2,3,80,0,1
221279,-100,4,2,3,100,0,1
221536,-100,4,1,3,100,0,1
221621,-100,4,2,3,100,0,1
221879,-100,4,2,3,80,0,1
222050,-100,4,3,3,100,0,1
222393,-100,4,1,3,100,0,1
222736,-100,4,3,3,100,0,1
223079,-100,4,1,3,100,0,1
223421,-100,4,3,3,100,0,1
223764,-100,4,1,3,100,0,1
224107,-100,4,3,3,100,0,1
224450,-100,4,1,3,100,0,1
224621,-100,4,3,3,100,0,0
224707,-100,4,2,3,50,0,0
225307,-100,4,3,3,100,0,0
227364,-100,4,2,3,70,0,1
227450,-100,4,2,3,100,0,0
227707,-100,4,1,3,100,0,0
227793,-100,4,2,3,100,0,0
228050,-100,4,1,3,100,0,0
228136,-100,4,2,3,100,0,0
228393,-100,4,1,3,100,0,0
228479,-100,4,2,3,100,0,0
228736,-100,4,1,3,100,0,0
228821,-100,4,2,3,100,0,0
229079,-100,4,1,3,100,0,0
229164,-100,4,2,3,100,0,0
229421,-100,4,1,3,100,0,0
229507,-100,4,2,3,100,0,0
229764,-100,4,1,3,100,0,0
230107,-100,4,1,3,100,0,0
230193,-100,4,2,3,100,0,0
230450,-100,4,1,3,100,0,0
230536,-100,4,2,3,100,0,0
230793,-100,4,1,3,100,0,0
230879,-100,4,2,3,100,0,0
231136,-100,4,1,3,100,0,0
231221,-100,4,2,3,100,0,0
232164,-100,4,1,3,100,0,0
232593,-100,4,2,3,100,0,0
232679,-100,4,1,3,100,0,0
232764,-100,4,2,3,100,0,0
232850,-100,4,2,3,70,0,0
232936,-100,4,2,3,100,0,0
233193,-100,4,1,3,100,0,0
233279,-100,4,2,3,100,0,0
233536,-100,4,1,3,100,0,0
233621,-100,4,2,3,100,0,0
233879,-100,4,1,3,100,0,0
233964,-100,4,2,3,100,0,0
234221,-100,4,1,3,100,0,0
234307,-100,4,2,3,100,0,0
234564,-100,4,1,3,100,0,0
234650,-100,4,2,3,100,0,0
234907,-100,4,1,3,100,0,0
234993,-100,4,2,3,100,0,0
235250,-100,4,1,3,100,0,0
235507,-100,4,2,3,100,0,0
235593,-100,4,3,3,70,0,0
237136,-100,4,3,3,80,0,0
237993,-100,4,3,3,100,0,0
238079,-100,4,2,3,20,0,0

[Colours]
Combo1 : 201,201,201
Combo2 : 182,35,90
Combo3 : 221,213,108
Combo4 : 95,65,184

[HitObjects]
59,285,1079,6,0,B|155:271|155:271|228:311,1,180,0|2,0:0|0:0,0:0:0:0:
311,345,2107,1,2,0:0:0:0:
399,325,2450,2,0,B|404:282|404:282|386:243|386:243|391:194,1,135,0|0,0:0|0:0,0:0:0:0:
381,60,3479,1,6,0:0:0:0:
298,26,3821,6,0,L|206:22,1,90,4|8,0:0|0:0,0:0:0:0:
119,37,4507,2,0,P|126:64|113:124,1,90,0|8,0:0|0:0,0:0:0:0:
44,181,5193,2,0,B|31:226|63:266|63:266|48:314|79:353,1,180,0|0,0:0|0:0,0:0:0:0:
165,369,6221,1,8,0:0:0:0:
251,342,6564,6,0,B|305:318|355:348|355:348|427:332,1,180,0|0,0:0|0:0,0:0:0:0:
481,262,7593,1,8,0:0:0:0:
422,194,7936,2,0,P|456:176|510:176,2,90,2|2|0,0:0|0:0|0:0,0:0:0:0:
336,222,8964,1,0,0:0:0:0:
251,252,9307,6,0,B|208:269|166:240|166:240|128:216|78:236,1,180,0|0,0:0|0:0,0:0:0:0:
1,191,10336,1,8,0:0:0:0:
18,103,10679,2,0,B|18:68|18:68|34:13,2,90,0|8|0,0:0|0:0|0:0,0:0:0:0:
108,98,11707,1,8,0:0:0:0:
198,90,12050,6,0,B|274:89|274:89|302:46|302:46|390:45|390:45|428:83,1,270,0|0,0:0|0:0,0:0:0:0:
482,208,13593,2,0,B|460:247|476:296|476:296|401:268|329:300,1,225,2|0,0:0|0:0,0:0:0:0:
266,338,14793,6,0,P|193:359|101:315,1,180,4|0,0:0|0:0,0:0:0:0:
49,244,15821,1,2,0:0:0:0:
78,159,16164,2,0,P|118:168|169:172,2,90,0|0|0,0:0|0:0|0:0,0:0:0:0:
29,83,17193,1,2,0:0:0:0:
101,29,17536,6,0,B|151:57|192:36|192:36|235:14|276:36,1,180,0|0,0:0|0:0,0:0:0:0:
344,91,18564,1,0,0:0:0:0:
434,86,18907,2,0,B|471:114|471:114|476:157,1,90,2|2,0:0|0:0,0:0:0:0:
458,246,19593,2,0,B|442:289|442:289|403:307,1,90,0|0,0:0|0:0,0:0:0:0:
314,297,20279,6,0,B|257:294|232:325|232:325|200:300|140:313,1,180,0|0,0:0|0:0,0:0:0:0:
60,339,21307,1,2,0:0:0:0:
12,263,21650,2,0,B|25:195|25:195|3:172|3:172|21:92,1,180,0|0,0:0|0:0,0:0:0:0:
97,47,22679,1,2,0:0:0:0:
186,38,23021,6,0,B|232:51|274:32|274:32|290:69|341:98,2,180
136,211,25079,2,0,L|133:300,1,90,0|4,0:0|0:0,0:0:0:0:
198,363,25764,6,0,B|281:340|281:340|377:353,1,180,4|0,0:0|0:0,0:0:0:0:
461,327,26793,1,2,0:0:0:0:
503,248,27136,2,0,B|519:203|508:157,2,90,0|0|0,0:0|0:0|0:0,0:0:0:0:
413,250,28164,1,2,0:0:0:0:
334,207,28507,6,0,B|281:193|246:212|246:212|217:179|219:124,1,180,0|0,0:0|0:0,0:0:0:0:
198,41,29536,1,0,0:0:0:0:
108,35,29879,2,0,P|94:62|82:119,1,90,2|2,0:0|0:0,0:0:0:0:
134,193,30564,2,0,P|126:237|107:277,1,90,0|0,0:0|0:0,0:0:0:0:
38,336,31250,6,0,B|86:379|151:357|151:357|212:362,1,180,0|0,0:0|0:0,0:0:0:0:
294,330,32279,1,2,0:0:0:0:
383,338,32621,2,0,L|389:247,1,90,0|0,0:0|0:0,0:0:0:0:
415,162,33307,2,0,L|409:71,1,90,0|2,0:0|0:0,0:0:0:0:
333,23,33993,6,0,B|311:44|317:83|317:83|258:78|258:78|217:99|217:99|133:42|34:91,1,360,0|8,0:0|0:0,0:0:0:0:
120,248,36050,1,8,0:0:0:0:
285,320,36736,6,0,P|373:338|456:308,1,180,2|0,0:0|0:0,0:0:0:0:
491,225,37764,1,0,0:0:0:0:
445,148,38107,2,0,P|357:130|274:160,1,180,0|0,0:0|0:0,0:0:0:0:
236,242,39136,1,0,0:0:0:0:
176,309,39479,6,0,L|84:306,1,90,2|0,0:0|0:0,0:0:0:0:
20,245,40164,2,0,L|23:153,1,90,0|8,0:0|0:0,0:0:0:0:
28,65,40850,2,0,B|70:67|104:107|104:107|139:61|180:55,1,180,0|0,0:0|0:0,0:0:0:0:
266,62,41879,1,8,0:0:0:0:
354,79,42221,6,0,B|411:86|458:50|458:50|485:131,1,180,2|0,0:0|0:0,0:0:0:0:
499,204,43250,1,8,0:0:0:0:
486,293,43593,2,0,B|410:273|357:323|357:323|293:291|231:319|231:319|201:285|201:285|154:292,1,360,0|8,0:0|0:0,0:0:0:0:
4,196,45650,5,0,0:0:0:0:
100,44,46336,2,0,P|181:31|267:72,2,180,0|0|8,0:0|0:0|0:0,0:0:0:0:
179,205,48393,6,0,L|173:295,1,90,0|0,0:0|0:0,0:0:0:0:
230,365,49079,1,8,0:0:0:0:
401,309,49764,2,0,L|407:219,1,90,0|0,0:0|0:0,0:0:0:0:
462,148,50450,6,0,P|399:132|318:202,1,180,0|0,0:0|0:0,0:0:0:0:
197,334,51821,2,0,B|107:339|107:339|58:264,1,180,0|0,0:0|0:0,0:0:0:0:
37,176,52850,1,8,0:0:0:0:
40,86,53193,6,0,B|95:87|125:146|125:146|185:105|151:27|151:27|212:31|260:64,1,360,8|0,0:0|0:0,0:0:0:0:
432,117,55250,2,0,P|445:155|440:205,1,90,0|0,0:0|0:0,0:0:0:0:
415,291,55936,6,0,L|325:293,1,90,4|8,0:0|0:0,0:0:0:0:
246,337,56621,2,0,L|156:335,1,90,0|8,0:0|0:0,0:0:0:0:
66,341,57307,2,0,B|23:275|80:232|42:162,1,180,0|0,0:0|0:0,0:0:0:0:
27,78,58336,1,8,0:0:0:0:
106,35,58679,6,0,B|151:41|151:41|196:35,1,90,0|8,0:0|0:0,0:0:0:0:
283,16,59364,2,0,B|328:10|328:10|373:16,1,90,0|8,0:0|0:0,0:0:0:0:
457,45,60050,2,0,B|446:100|446:100|461:114|461:114|451:171|451:171|479:198|480:232|470:273|429:280,1,270,0|8,0:0|0:0,0:0:0:0:
341,290,61421,6,0,P|302:256|341:149,2,180,4|0|4,0:0|0:0|0:0,0:0:0:0:
176,363,63479,2,0,P|128:362|85:353,1,90,0|8,0:0|0:0,0:0:0:0:
19,295,64164,6,0,B|34:250|34:250|25:208,1,90,4|8,0:0|0:0,0:0:0:0:
8,120,64850,2,0,P|44:75|118:64,1,135,0|0,0:0|0:0,0:0:0:0:
205,82,65707,2,0,B|257:88|257:88|284:66|284:66|334:72,1,135,2|0,0:0|0:0,0:0:0:0:
409,117,66564,1,0,0:0:0:0:
495,91,66907,6,0,B|505:143|477:177|477:177|443:217|456:263,1,180,4|0,0:0|0:0,0:0:0:0:
422,344,67936,1,8,0:0:0:0:
335,366,68279,2,0,P|296:368|250:345,2,90,0|8|0,0:0|0:0|0:0,0:0:0:0:
359,279,69307,1,8,0:0:0:0:
330,194,69650,6,0,P|290:172|159:196,1,180,0|0,0:0|0:0,0:0:0:0:
127,276,70679,1,8,0:0:0:0:
47,316,71021,2,0,P|69:343|121:367,2,90,0|8|0,0:0|0:0|0:0,0:0:0:0:
13,232,72050,1,8,0:0:0:0:
8,142,72393,6,0,B|28:107|21:54|21:54|64:73|110:52,1,180,0|0,0:0|0:0,0:0:0:0:
196,35,73421,1,8,0:0:0:0:
284,53,73764,2,0,B|327:72|370:53|370:53|363:106|383:141,1,180,0|0,0:0|0:0,0:0:0:0:
445,207,74793,1,8,0:0:0:0:
454,297,75136,6,0,B|364:278|364:278|281:306,1,180,6|0,0:0|0:0,0:0:0:0:
103,338,76507,2,0,B|57:258|57:258|58:170,1,180,4|0,0:0|0:0,0:0:0:0:
84,84,77536,1,8,0:0:0:0:
162,39,77879,6,0,B|208:37|243:71|243:71|280:47|329:54,1,180,4|0,0:0|0:0,0:0:0:0:
472,165,79250,2,0,B|426:167|391:133|391:133|354:157|305:150,1,180,0|0,0:0|0:0,0:0:0:0:
127,124,80621,6,0,P|80:149|103:257,1,180,4|2,0:0|0:0,0:0:0:0:
186,289,81650,1,2,0:0:0:0:
275,275,81993,2,0,B|329:270|366:299|366:299|405:296,1,135,0|0,0:0|0:0,0:0:0:0:
505,207,83021,1,6,0:0:0:0:
498,117,83364,5,4,0:0:0:0:
498,117,88850,6,0,B|492:71|492:71|461:39|461:39|416:35|416:35|376:55,1,180
287,61,89879,1,8,0:0:0:0:
212,110,90221,2,0,P|199:79|206:25,2,90,0|8|0,0:0|0:0|0:0,0:0:0:0:
287,160,91250,1,0,0:0:0:0:
286,250,91593,6,0,B|332:253|362:211|362:211|393:245|444:237|444:237|426:289|444:326|444:326|400:342|370:376,1,360,4|0,0:0|0:0,0:0:0:0:
195,340,93650,2,0,L|104:337,1,90
18,360,94336,6,0,B|9:312|39:276|39:276|20:230|35:184,1,180,8|0,0:0|0:0,0:0:0:0:
88,116,95364,1,2,0:0:0:0:
103,27,95707,2,0,B|164:59|211:18|211:18|277:26,1,180,8|0,0:0|0:0,0:0:0:0:
362,47,96736,1,2,0:0:0:0:
447,17,97079,6,0,B|468:57|468:57|472:103,1,90,0|2,0:0|0:0,0:0:0:0:
432,182,97764,2,0,B|417:223|417:223|420:269,1,90,0|2,0:0|0:0,0:0:0:0:
448,355,98450,2,0,B|356:363|356:363|299:322|299:322|190:343,1,270,0|2,0:0|0:0,0:0:0:0:
105,358,99821,6,0,P|62:356|21:241,1,180,8|0,0:0|0:0,0:0:0:0:
62,165,100850,1,2,0:0:0:0:
9,92,101193,2,0,B|52:66|97:83|97:83|145:99|186:77,1,180
264,39,102221,1,2,0:0:0:0:
354,40,102564,6,0,B|444:49|444:49|485:129,2,180,0|0|0,0:0|0:0|0:0,0:0:0:0:
399,214,104621,2,0,P|394:250|408:302,1,90,0|4,0:0|0:0,0:0:0:0:
346,367,105307,6,0,P|282:337|176:353,1,180,8|0,0:0|0:0,0:0:0:0:
87,364,106336,1,2,0:0:0:0:
7,323,106679,2,0,B|-1:247|-1:247|19:223|19:223|12:151,1,180,8|0,0:0|0:0,0:0:0:0:
40,65,107707,1,2,0:0:0:0:
125,34,108050,6,0,P|162:23|211:40,1,90,0|2,0:0|0:0,0:0:0:0:
278,98,108736,2,0,P|319:113|362:102,1,90,0|2,0:0|0:0,0:0:0:0:
450,83,109421,2,0,B|456:12|456:12|471:2,2,90,0|0|0,0:0|0:0|0:0,0:0:0:0:
472,171,110450,1,2,0:0:0:0:
487,260,110793,6,0,B|446:271|405:234|405:234|368:268|321:253,1,180,8|0,0:0|0:0,0:0:0:0:
238,221,111821,1,2,0:0:0:0:
149,237,112164,2,0,B|142:263|101:312|101:312|51:285|32:252,1,180,8|0,0:0|0:0,0:0:0:0:
21,164,113193,1,2,0:0:0:0:
43,77,113536,6,0,B|56:32|95:15|145:7|187:58|187:58|229:109|279:101|318:84|331:39,1,360,0|8,0:0|0:0,0:0:0:0:
473,150,115593,1,8,0:0:0:0:
399,315,116279,6,0,P|364:294|241:333,1,180,2|0,0:0|0:0,0:0:0:0:
65,352,117650,2,0,B|-1:292|-1:292|33:262|24:208|24:208|63:169|40:121,1,270,0|0,0:0|0:0,0:0:0:0:
50,37,119021,6,0,B|92:41|123:84|123:84|163:65|211:78,1,180,2|0,0:0|0:0,0:0:0:0:
308,230,120393,2,0,B|350:226|381:183|381:183|421:202|469:189,1,180,8|8,0:0|0:0,0:0:0:0:
496,103,121421,1,8,0:0:0:0:
442,31,121764,6,0,P|359:10|275:47,1,180,2|0,0:0|0:0,0:0:0:0:
205,103,122793,1,8,0:0:0:0:
117,82,123136,2,0,B|26:95|26:95|10:182|10:182|89:172|89:172|104:218|67:268,1,360,0|8,0:0|0:0,0:0:0:0:
220,366,125193,5,0,0:0:0:0:
399,350,125879,2,0,P|419:308|382:184,2,180,0|0|8,0:0|0:0|0:0,0:0:0:0:
241,263,127936,6,0,L|237:174,1,90,0|0,0:0|0:0,0:0:0:0:
203,90,128621,1,8,0:0:0:0:
25,64,129307,2,0,L|29:153,1,90,0|0,0:0|0:0,0:0:0:0:
63,237,129993,6,0,B|117:241|129:299|129:299|169:321|208:309,1,180,0|0,0:0|0:0,0:0:0:0:
381,259,131364,2,0,B|388:209|420:180|420:180|384:152|379:103,1,180,0|0,0:0|0:0,0:0:0:0:
321,33,132393,1,8,0:0:0:0:
225,25,132736,6,0,B|163:27|116:79|116:79|62:40|-7:45|-7:45|27:76|31:145,1,360,8|0,0:0|0:0,0:0:0:0:
51,319,134793,2,0,P|77:335|135:338,1,90,0|0,0:0|0:0,0:0:0:0:
215,296,135479,6,0,B|260:288|260:288|305:300,1,90,4|8,0:0|0:0,0:0:0:0:
386,333,136164,2,0,B|428:344|428:344|473:336,1,90,0|8,0:0|0:0,0:0:0:0:
505,252,136850,2,0,P|490:210|372:170,1,180,0|0,0:0|0:0,0:0:0:0:
284,193,137879,1,8,0:0:0:0:
194,188,138221,6,0,L|192:98,1,90,0|8,0:0|0:0,0:0:0:0:
142,23,138907,2,0,L|52:25,1,90,0|8,0:0|0:0,0:0:0:0:
11,105,139593,2,0,B|-4:152|13:192|13:192|31:233|16:286,1,180
81,345,140621,1,8,0:0:0:0:
171,348,140964,6,0,B|217:347|217:347|233:365|233:365|281:363|281:363|296:343|296:343|334:341,2,180,4|0|4,0:0|0:0|0:0,0:0:0:0:
198,171,143021,2,0,L|289:165,1,90,0|8,0:0|0:0,0:0:0:0:
367,209,143707,6,0,P|381:176|368:122,1,90,4|8,0:0|0:0,0:0:0:0:
318,51,144393,2,0,L|182:59,1,135,0|0,0:0|0:0,0:0:0:0:
94,73,145250,2,0,B|51:87|23:73|23:73|16:103|22:137,1,135,2|0,0:0|0:0,0:0:0:0:
55,218,146107,1,0,0:0:0:0:
29,304,146450,6,0,B|71:323|114:292|114:292|162:310|198:272,1,180,4|0,0:0|0:0,0:0:0:0:
270,222,147479,1,8,0:0:0:0:
326,152,147821,2,0,L|323:59,2,90,0|8|0,0:0|0:0|0:0,0:0:0:0:
359,236,148850,1,8,0:0:0:0:
396,318,149193,6,0,B|480:294|480:294|492:203,1,180,0|0,0:0|0:0,0:0:0:0:
482,113,150221,1,8,0:0:0:0:
426,42,150564,2,0,P|449:30|515:29,2,90,0|8|0,0:0|0:0|0:0,0:0:0:0:
341,72,151593,1,8,0:0:0:0:
251,63,151936,6,0,B|172:53|172:53|130:20|130:20|88:40,1,180,0|0,0:0|0:0,0:0:0:0:
34,113,152964,1,8,0:0:0:0:
19,202,153307,2,0,B|98:212|98:212|140:245|140:245|182:225,1,180,0|0,0:0|0:0,0:0:0:0:
267,193,154336,1,8,0:0:0:0:
355,213,154679,6,0,B|378:255|376:321|376:321|413:316|445:294,1,180,4|0,0:0|0:0,0:0:0:0:
500,130,156050,2,0,B|477:88|479:22|479:22|442:27|410:49,1,180,4|0,0:0|0:0,0:0:0:0:
325,56,157079,1,8,0:0:0:0:
240,29,157421,6,0,B|163:27|163:27|131:52|131:52|69:51,1,180,4|0,0:0|0:0,0:0:0:0:
30,227,158793,2,0,B|106:228|106:228|139:203|139:203|201:205,1,180,0|0,0:0|0:0,0:0:0:0:
344,316,160164,6,0,P|397:321|479:233,1,180,4|2,0:0|0:0,0:0:0:0:
459,148,161193,1,2,0:0:0:0:
468,58,161536,2,0,B|401:40|401:40|336:52,1,135,0|0,0:0|0:0,0:0:0:0:
211,103,162564,1,6,0:0:0:0:
123,86,162907,5,8,0:0:0:0:
256,351,168393,6,0,P|345:361|423:318,1,180,0|8,0:0|0:0,0:0:0:0:
478,147,169764,2,0,P|389:137|311:180,2,180,0|8|0,0:0|0:0|0:0,0:0:0:0:
356,17,171821,2,0,L|266:14,1,90,8|2,0:0|0:0,0:0:0:0:
182,46,172507,2,0,B|122:60|70:29|70:29|39:86,1,180,0|8,0:0|0:0,0:0:0:0:
27,253,173879,6,0,B|75:238|109:275|109:275|151:247|194:271,1,180,4|8,0:0|0:0,0:0:0:0:
274,311,174907,1,4,0:0:0:0:
362,331,175250,2,0,L|452:333,2,90,0|4|8,0:0|0:0|0:0,0:0:0:0:
315,158,176621,6,0,L|317:68,1,90,4|2,0:0|0:0,0:0:0:0:
384,8,177307,2,0,P|415:4|462:35,1,90,8|4,0:0|0:0,0:0:0:0:
465,125,177993,2,0,B|463:217|463:217|383:260,1,180,0|8,0:0|0:0,0:0:0:0:
208,293,179364,6,0,B|151:271|122:302|92:332|33:298,1,180,4|8,0:0|0:0,0:0:0:0:
20,210,180393,1,4,0:0:0:0:
54,127,180736,2,0,P|89:141|140:140,2,90,0|0|8,0:0|0:0|0:0,0:0:0:0:
206,32,182107,6,0,B|268:40|268:40|310:24|310:24|383:34,1,180,4|8,0:0|0:0,0:0:0:0:
459,81,183136,1,4,0:0:0:0:
498,162,183479,2,0,P|506:188|492:249,2,90,0|4|8,0:0|0:0|0:0,0:0:0:0:
373,230,184850,6,0,B|323:232|323:232|295:262,1,90,4|0,0:0|0:0,0:0:0:0:
209,286,185536,2,0,B|207:236|207:236|177:208,1,90,4|0,0:0|0:0,0:0:0:0:
150,123,186221,2,0,B|200:121|200:121|228:91,2,90,4|0|4,0:0|0:0|0:0,0:0:0:0:
60,130,187250,1,0,0:0:0:0:
12,206,187593,6,0,P|6:288|68:363,1,180,0|0,0:0|0:0,0:0:0:0:
153,346,188621,1,0,0:0:0:0:
241,329,188964,6,0,B|292:313|328:335|328:335|361:306|418:316,1,180,2|0,0:0|0:0,0:0:0:0:
482,148,190336,2,0,B|431:164|395:142|395:142|362:171|305:161,1,180,0|0,0:0|0:0,0:0:0:0:
141,98,191707,6,0,B|82:94|60:41|60:41|4:70|-9:114|8:155|46:187|46:187|76:217|93:259|79:297|47:331|47:331|110:290|167:336|167:336|225:287|296:338,1,720,2|0,2:0|2:0,0:0:0:0:
417,225,195821,5,0,0:0:0:0:
417,225,197193,6,0,L|420:130,1,90,0|8,0:0|0:0,0:0:0:0:
386,51,197879,2,0,P|420:46|474:60,2,90,0|8|4,0:0|0:0|0:0,0:0:0:0:
299,74,198907,1,0,0:0:0:0:
213,100,199250,2,0,P|179:105|125:91,1,90,0|4,0:0|0:0,0:0:0:0:
36,80,199936,6,0,L|28:172,1,90,4|8,0:0|0:0,0:0:0:0:
75,246,200621,2,0,L|83:338,1,90,0|8,0:0|0:0,0:0:0:0:
167,365,201307,2,0,B|198:334|252:350|252:350|295:318|344:338,1,180,0|0,0:0|0:0,0:0:0:0:
425,348,202336,1,8,0:0:0:0:
487,283,202679,6,0,B|477:237|477:237|478:192,1,90,0|8,0:0|0:0,0:0:0:0:
485,104,203364,2,0,B|485:61|485:61|475:15,1,90,0|8,0:0|0:0,0:0:0:0:
386,10,204050,2,0,B|325:57|267:23|267:23|185:27|185:27|134:64,1,270,0|8,0:0|0:0,0:0:0:0:
88,138,205421,6,0,B|134:164|179:142|179:142|216:115|216:115|262:111,2,180,4|0|4,0:0|0:0|0:0,0:0:0:0:
8,300,207479,2,0,P|11:321|64:364,1,90,0|8,0:0|0:0,0:0:0:0:
149,345,208164,6,0,L|238:347,1,90,4|8,0:0|0:0,0:0:0:0:
320,308,208850,2,0,B|357:312|384:335|384:335|416:326|432:294,1,135,0|0,0:0|0:0,0:0:0:0:
472,214,209707,2,0,B|479:166|479:166|466:137|466:137|474:82,1,135,2|0,0:0|0:0,0:0:0:0:
419,12,210564,1,0,0:0:0:0:
330,27,210907,6,0,B|286:52|243:37|243:37|196:22|154:43,1,180,4|0,0:0|0:0,0:0:0:0:
88,101,211936,1,8,0:0:0:0:
64,188,212279,2,0,P|32:171|3:128,2,90,0|8|0,0:0|0:0|0:0,0:0:0:0:
149,217,213307,1,8,0:0:0:0:
236,193,213650,6,0,B|248:230|224:281|224:281|259:275|314:293,1,180,0|0,0:0|0:0,0:0:0:0:
398,318,214679,1,8,0:0:0:0:
473,268,215021,2,0,P|484:290|483:356,2,90,0|8|0,0:0|0:0|0:0,0:0:0:0:
433,187,216050,1,8,0:0:0:0:
460,101,216393,6,0,B|409:90|389:51|389:51|350:76|303:63,1,180,0|0,0:0|0:0,0:0:0:0:
218,32,217421,1,8,0:0:0:0:
147,87,217764,2,0,B|109:117|63:111|63:111|61:155|19:185,1,180,0|0,0:0|0:0,0:0:0:0:
7,275,218793,1,8,0:0:0:0:
19,364,219136,6,0,B|86:365|86:365|105:340|105:340|186:343,1,180,4|0,0:0|0:0,0:0:0:0:
353,275,220507,2,0,B|354:208|354:208|329:189|329:189|332:108,1,180,4|0,0:0|0:0,0:0:0:0:
278,35,221536,1,8,0:0:0:0:
188,27,221879,6,0,P|114:24|50:101,1,180,4|0,0:0|0:0,0:0:0:0:
61,279,223250,2,0,P|147:276|198:205,1,180,0|0,0:0|0:0,0:0:0:0:
300,57,224621,6,0,B|355:64|389:52|389:52|410:84|459:112,1,180,4|2,0:0|0:0,0:0:0:0:
498,191,225650,1,2,0:0:0:0:
477,279,225993,2,0,B|408:272|408:272|352:307,1,135,0|0,0:0|0:0,0:0:0:0:
232,367,227021,1,6,0:0:0:0:
143,351,227364,6,0,P|99:344|57:322,1,90,4|8,0:0|0:0,0:0:0:0:
10,247,228050,2,0,P|3:202|11:156,1,90,0|8,0:0|0:0,0:0:0:0:
62,84,228736,2,0,B|101:66|150:78|150:78|181:43|233:39,1,180,0|0,0:0|0:0,0:0:0:0:
317,58,229764,1,8,0:0:0:0:
397,16,230107,6,0,B|423:60|396:107|396:107|374:147|396:188,1,180,0|0,0:0|0:0,0:0:0:0:
416,276,231136,1,8,0:0:0:0:
378,358,231479,2,0,P|411:365|467:351,2,90,2|2|0,0:0|0:0|0:0,0:0:0:0:
290,338,232507,1,0,0:0:0:0:
200,332,232850,6,0,B|68:335|68:335|31:300,1,180,4|0,0:0|0:0,0:0:0:0:
14,214,233879,1,8,0:0:0:0:
19,124,234221,2,0,P|13:88|27:36,2,90,0|8|0,0:0|0:0|0:0,0:0:0:0:
95,173,235250,1,8,0:0:0:0:
183,153,235593,6,0,B|222:142|271:162|271:162|303:132|354:133,1,180,0|0,0:0|0:0,0:0:0:0:
481,178,236793,1,2,0:0:0:0:
500,266,237136,2,0,P|491:308|411:337,1,135,2|2,0:0|0:0,0:0:0:0:
338,286,237993,5,10,0:0:0:0:
