osu file format v14

[General]
AudioFilename: Onegai! Kon Kon Oinarisama.mp3
AudioLeadIn: 0
PreviewTime: 55250
Countdown: 0
SampleSet: Soft
StackLeniency: 0.7
Mode: 3
LetterboxInBreaks: 0
SpecialStyle: 0
WidescreenStoryboard: 1

[Editor]
DistanceSpacing: 1.5
BeatDivisor: 4
GridSize: 4
TimelineZoom: 0.9999999

[Metadata]
Title:Onegai! Kon kon Oinarisama
TitleUnicode:お願い!コンコンお稲荷さま
Artist:ARM x Komso feat. Nanahira
ArtistUnicode:ARM×狐夢想 feat. ななひら
Creator:FLeVI
Version:Normal
Source:Muse Dash
Tags:video game oriental japanese Pop JPop J-Pop electronic Denpa COOL&CREATE IOSYS TripxFrolic トリップ×フロリック Confetto CFCD-0020 M3-2019春 喵斯快跑 Makemon 魔けモン!festival ばやちゃお BAYACHAO
BeatmapID:2608351
BeatmapSetID:1255066

[Difficulty]
HPDrainRate:7.5
CircleSize:4
OverallDifficulty:7.5
ApproachRate:5
SliderMultiplier:1.4
SliderTickRate:1

[Events]
//Background and Video events
Video,-185,"video.mp4"
0,0,"BG-.jpg",0,0
//Break Periods
//Storyboard Layer 0 (Background)
//Storyboard Layer 1 (Fail)
//Storyboard Layer 2 (Pass)
//Storyboard Layer 3 (Foreground)
//Storyboard Layer 4 (Overlay)
//Storyboard Sound Samples
Sample,4164,0,"kickdrum.wav",90
Sample,4850,0,"kickdrum.wav",90
Sample,5536,0,"kickdrum.wav",90
Sample,6221,0,"kickdrum.wav",90
Sample,6393,0,"Hat.wav",70
Sample,6907,0,"kickdrum.wav",90
Sample,7593,0,"kickdrum.wav",90
Sample,8107,0,"Hat.wav",70
Sample,8450,0,"Hat.wav",70
Sample,8793,0,"Hat.wav",70
Sample,8964,0,"kickdrum.wav",90
Sample,9136,0,"Hat.wav",70
Sample,9479,0,"Hat.wav",70
Sample,9650,0,"kickdrum.wav",90
Sample,9821,0,"Hat.wav",70
Sample,10164,0,"Hat.wav",70
Sample,10336,0,"kickdrum.wav",90
Sample,10507,0,"Hat.wav",70
Sample,10593,0,"Muted Snare.wav",30
Sample,10679,0,"Muted Snare.wav",30
Sample,10850,0,"Hat.wav",70
Sample,11021,0,"Muted Snare.wav",30
Sample,11021,0,"kickdrum.wav",90
Sample,11193,0,"Hat.wav",70
Sample,11236,0,"Muted Snare.wav",30
Sample,11279,0,"Muted Snare.wav",30
Sample,11321,0,"Muted Snare.wav",30
Sample,11364,0,"Muted Snare.wav",30
Sample,11450,0,"Muted Snare.wav",30
Sample,11536,0,"Hat.wav",70
Sample,11579,0,"Muted Snare.wav",30
Sample,11621,0,"Muted Snare.wav",30
Sample,11664,0,"Muted Snare.wav",30
Sample,11707,0,"Muted Snare.wav",30
Sample,11707,0,"kickdrum.wav",90
Sample,11879,0,"Hat.wav",70
Sample,11879,0,"Muted Snare.wav",30
Sample,11964,0,"Muted Snare.wav",30
Sample,14793,0,"Hat.wav",70
Sample,15050,0,"Hat.wav",70
Sample,15136,0,"Hat.wav",70
Sample,15393,0,"Hat.wav",70
Sample,15479,0,"Hat.wav",70
Sample,15650,0,"Hat.wav",70
Sample,15736,0,"Hat.wav",70
Sample,15993,0,"Hat.wav",70
Sample,16079,0,"Hat.wav",70
Sample,16421,0,"Hat.wav",70
Sample,16507,0,"Hat.wav",70
Sample,16764,0,"Hat.wav",70
Sample,16850,0,"Hat.wav",70
Sample,17107,0,"Hat.wav",70
Sample,17364,0,"Hat.wav",70
Sample,17450,0,"Hat.wav",70
Sample,17793,0,"Hat.wav",70
Sample,17879,0,"Hat.wav",70
Sample,18050,0,"Hat.wav",70
Sample,18136,0,"Hat.wav",70
Sample,18479,0,"Hat.wav",70
Sample,18564,0,"Hat.wav",70
Sample,18736,0,"Hat.wav",70
Sample,18821,0,"Hat.wav",70
Sample,19164,0,"Hat.wav",70
Sample,19250,0,"Hat.wav",70
Sample,19507,0,"Hat.wav",70
Sample,19593,0,"Hat.wav",70
Sample,19764,0,"Hat.wav",70
Sample,19850,0,"Hat.wav",70
Sample,19936,0,"Hat.wav",70
Sample,20107,0,"Hat.wav",70
Sample,20193,0,"Hat.wav",70
Sample,20279,0,"Hat.wav",70
Sample,20536,0,"Hat.wav",70
Sample,20621,0,"Hat.wav",70
Sample,20879,0,"Hat.wav",70
Sample,20964,0,"Hat.wav",70
Sample,21136,0,"Hat.wav",70
Sample,21221,0,"Hat.wav",70
Sample,21307,0,"Hat.wav",70
Sample,21479,0,"Hat.wav",70
Sample,21564,0,"Hat.wav",70
Sample,21650,0,"Hat.wav",70
Sample,21907,0,"Hat.wav",70
Sample,21993,0,"Hat.wav",70
Sample,22250,0,"Hat.wav",70
Sample,22336,0,"Hat.wav",70
Sample,22593,0,"Hat.wav",70
Sample,22679,0,"Hat.wav",70
Sample,22850,0,"Hat.wav",70
Sample,22936,0,"Hat.wav",70
Sample,23021,0,"Hat.wav",70
Sample,23964,0,"LR_Snare Drum .wav",50
Sample,25936,0,"Hat.wav",70
Sample,26021,0,"LR_Snare Drum .wav",70
Sample,26279,0,"Hat.wav",70
Sample,26621,0,"Hat.wav",70
Sample,26707,0,"LR_Snare Drum .wav",70
Sample,26964,0,"Hat.wav",70
Sample,26964,0,"RD_Snare_9.wav",70
Sample,27307,0,"Hat.wav",70
Sample,27393,0,"LR_Snare Drum .wav",70
Sample,27650,0,"Hat.wav",70
Sample,27993,0,"Hat.wav",70
Sample,28079,0,"LR_Snare Drum .wav",70
Sample,28336,0,"RD_Snare_9.wav",70
Sample,28336,0,"Hat.wav",70
Sample,28679,0,"Hat.wav",70
Sample,28764,0,"LR_Snare Drum .wav",70
Sample,29021,0,"Hat.wav",70
Sample,29364,0,"Hat.wav",70
Sample,29450,0,"LR_Snare Drum .wav",70
Sample,29707,0,"Hat.wav",70
Sample,30050,0,"Hat.wav",70
Sample,30136,0,"LR_Snare Drum .wav",70
Sample,30393,0,"Hat.wav",70
Sample,30736,0,"Hat.wav",70
Sample,30736,0,"RD_Snare_9.wav",70
Sample,30821,0,"LR_Snare Drum .wav",70
Sample,31079,0,"RD_Snare_9.wav",70
Sample,31079,0,"Hat.wav",70
Sample,31421,0,"Hat.wav",70
Sample,31507,0,"LR_Snare Drum .wav",70
Sample,31764,0,"Hat.wav",70
Sample,32107,0,"Hat.wav",70
Sample,32193,0,"LR_Snare Drum .wav",70
Sample,32450,0,"Hat.wav",70
Sample,32450,0,"RD_Snare_9.wav",70
Sample,32793,0,"Hat.wav",70
Sample,32879,0,"LR_Snare Drum .wav",70
Sample,33136,0,"Hat.wav",70
Sample,33479,0,"Hat.wav",70
Sample,33564,0,"LR_Snare Drum .wav",70
Sample,33821,0,"RD_Snare_9.wav",70
Sample,33821,0,"Hat.wav",70
Sample,36736,0,"Hat.wav",70
Sample,37250,0,"kickdrum.wav",90
Sample,37421,0,"Hat.wav",70
Sample,37764,0,"Hat.wav",70
Sample,38107,0,"Hat.wav",70
Sample,38793,0,"Hat.wav",70
Sample,39136,0,"Hat.wav",70
Sample,39479,0,"Hat.wav",70
Sample,40164,0,"Hat.wav",70
Sample,40507,0,"Hat.wav",70
Sample,40850,0,"Hat.wav",70
Sample,41364,0,"kickdrum.wav",90
Sample,41536,0,"Hat.wav",70
Sample,41707,0,"japan_perc_10.wav",50
Sample,41793,0,"japan_perc_10.wav",50
Sample,41879,0,"Hat.wav",70
Sample,41879,0,"LR4_SnareKKF.wav",40
Sample,42050,0,"LR4_SnareKKF.wav",40
Sample,42221,0,"Hat.wav",70
Sample,42736,0,"kickdrum.wav",90
Sample,42907,0,"Hat.wav",70
Sample,43250,0,"Hat.wav",70
Sample,43593,0,"Hat.wav",70
Sample,43936,0,"Hat.wav",70
Sample,44107,0,"kickdrum.wav",90
Sample,44279,0,"Hat.wav",70
Sample,44279,0,"snare2.wav",15
Sample,44621,0,"Hat.wav",70
Sample,48136,0,"Hat.wav",70
Sample,48307,0,"Hat.wav",70
Sample,49507,0,"Hat.wav",70
Sample,49679,0,"Hat.wav",70
Sample,51907,0,"kickdrum.wav",90
Sample,51993,0,"kickdrum.wav",90
Sample,52079,0,"kickdrum.wav",90
Sample,52250,0,"kickdrum.wav",90
Sample,52336,0,"kickdrum.wav",90
Sample,52421,0,"kickdrum.wav",90
Sample,52593,0,"kickdrum.wav",90
Sample,52679,0,"kickdrum.wav",90
Sample,52764,0,"kickdrum.wav",90
Sample,52936,0,"kickdrum.wav",90
Sample,53021,0,"kickdrum.wav",90
Sample,53107,0,"kickdrum.wav",90
Sample,55421,0,"LR_Kick Beat 2.wav",40
Sample,56107,0,"Hat.wav",70
Sample,56793,0,"Hat.wav",70
Sample,57479,0,"Hat.wav",70
Sample,58164,0,"Hat.wav",70
Sample,58507,0,"Hat.wav",70
Sample,58850,0,"Hat.wav",70
Sample,59536,0,"Hat.wav",70
Sample,60221,0,"Hat.wav",70
Sample,60393,0,"kickdrum.wav",90
Sample,60564,0,"Hat.wav",70
Sample,60736,0,"kickdrum.wav",90
Sample,60907,0,"RD_Snare_9.wav",70
Sample,60907,0,"Hat.wav",70
Sample,61079,0,"clap.wav",70
Sample,61079,0,"kickdrum.wav",90
Sample,61250,0,"RD_Snare_9.wav",70
Sample,61250,0,"Hat.wav",70
Sample,61764,0,"kickdrum.wav",90
Sample,62450,0,"kickdrum.wav",90
Sample,63136,0,"kickdrum.wav",90
Sample,63650,0,"Hat.wav",70
Sample,63736,0,"kickdrum.wav",90
Sample,63821,0,"kickdrum.wav",90
Sample,63993,0,"Hat.wav",70
Sample,64336,0,"Hat.wav",70
Sample,64421,0,"kickdrum.wav",90
Sample,64421,0,"RD_Snare_9.wav",70
Sample,64507,0,"kickdrum.wav",90
Sample,64679,0,"Hat.wav",70
Sample,65021,0,"Hat.wav",70
Sample,65193,0,"kickdrum.wav",90
Sample,65364,0,"Hat.wav",70
Sample,65707,0,"kickdrum.wav",90
Sample,65879,0,"kickdrum.wav",90
Sample,66050,0,"kickdrum.wav",90
Sample,66221,0,"kickdrum.wav",90
Sample,67079,0,"Hat.wav",70
Sample,67764,0,"Hat.wav",70
Sample,68450,0,"Hat.wav",70
Sample,69136,0,"Hat.wav",70
Sample,69479,0,"Hat.wav",70
Sample,69821,0,"Hat.wav",70
Sample,70507,0,"Hat.wav",70
Sample,70593,0,"GMMidTom1_01.wav",70
Sample,71193,0,"Hat.wav",70
Sample,71536,0,"Hat.wav",70
Sample,71707,0,"kickdrum.wav",90
Sample,71879,0,"Hat.wav",70
Sample,72050,0,"kickdrum.wav",90
Sample,72221,0,"RD_Snare_9.wav",70
Sample,72221,0,"Hat.wav",70
Sample,73250,0,"Hat.wav",70
Sample,74964,0,"Hat.wav",70
Sample,75307,0,"Hat.wav",70
Sample,76679,0,"Hat.wav",70
Sample,76679,0,"RD_Snare_9.wav",70
Sample,77021,0,"Hat.wav",70
Sample,77364,0,"RD_Snare_9.wav",70
Sample,77364,0,"Hat.wav",70
Sample,77707,0,"RD_Snare_9.wav",70
Sample,77707,0,"Hat.wav",70
Sample,78050,0,"Hat.wav",70
Sample,78221,0,"kickdrum.wav",90
Sample,78221,0,"clap.wav",70
Sample,78736,0,"Hat.wav",70
Sample,78907,0,"clap.wav",70
Sample,78907,0,"kickdrum.wav",90
Sample,79421,0,"Hat.wav",70
Sample,79593,0,"kickdrum.wav",90
Sample,79593,0,"clap.wav",70
Sample,80107,0,"Hat.wav",70
Sample,80279,0,"clap.wav",70
Sample,80279,0,"kickdrum.wav",90
Sample,80450,0,"Hat.wav",70
Sample,81307,0,"kickdrum.wav",90
Sample,81479,0,"kickdrum.wav",90
Sample,81650,0,"kickdrum.wav",90
Sample,82850,0,"kickdrum.wav",90
Sample,83021,0,"kickdrum.wav",90
Sample,83707,0,"kickdrum.wav",90
Sample,84393,0,"kickdrum.wav",90
Sample,85079,0,"kickdrum.wav",90
Sample,85764,0,"kickdrum.wav",90
Sample,85936,0,"Hat.wav",70
Sample,86450,0,"kickdrum.wav",90
Sample,87136,0,"kickdrum.wav",90
Sample,87650,0,"Hat.wav",70
Sample,87993,0,"Hat.wav",70
Sample,88336,0,"Hat.wav",70
Sample,88507,0,"kickdrum.wav",90
Sample,88679,0,"Hat.wav",70
Sample,89021,0,"Hat.wav",70
Sample,89193,0,"kickdrum.wav",90
Sample,89364,0,"Hat.wav",70
Sample,89450,0,"kickdrum.wav",90
Sample,89707,0,"Hat.wav",70
Sample,89879,0,"kickdrum.wav",90
Sample,90050,0,"Hat.wav",70
Sample,90136,0,"Muted Snare.wav",30
Sample,90221,0,"Muted Snare.wav",30
Sample,90307,0,"Muted Snare.wav",30
Sample,90393,0,"Hat.wav",70
Sample,90479,0,"Muted Snare.wav",30
Sample,90564,0,"kickdrum.wav",90
Sample,90564,0,"Muted Snare.wav",30
Sample,90650,0,"Muted Snare.wav",30
Sample,90736,0,"Hat.wav",70
Sample,90779,0,"Muted Snare.wav",30
Sample,90821,0,"Muted Snare.wav",30
Sample,90864,0,"Muted Snare.wav",30
Sample,90907,0,"Muted Snare.wav",30
Sample,90950,0,"Muted Snare.wav",30
Sample,90993,0,"Muted Snare.wav",30
Sample,91036,0,"Muted Snare.wav",30
Sample,91079,0,"Hat.wav",70
Sample,91121,0,"Muted Snare.wav",30
Sample,91164,0,"Muted Snare.wav",30
Sample,91207,0,"Muted Snare.wav",30
Sample,91250,0,"Muted Snare.wav",30
Sample,91250,0,"kickdrum.wav",90
Sample,91421,0,"Hat.wav",70
Sample,91421,0,"Muted Snare.wav",30
Sample,91507,0,"Muted Snare.wav",30
Sample,93650,0,"Hat.wav",70
Sample,94593,0,"Hat.wav",70
Sample,94679,0,"Hat.wav",70
Sample,94936,0,"Hat.wav",70
Sample,95193,0,"Hat.wav",70
Sample,95279,0,"Hat.wav",70
Sample,95536,0,"Hat.wav",70
Sample,95621,0,"Hat.wav",70
Sample,95964,0,"Hat.wav",70
Sample,96050,0,"Hat.wav",70
Sample,96307,0,"Hat.wav",70
Sample,96564,0,"Hat.wav",70
Sample,96650,0,"Hat.wav",70
Sample,96907,0,"Hat.wav",70
Sample,96993,0,"Hat.wav",70
Sample,97336,0,"Hat.wav",70
Sample,97421,0,"Hat.wav",70
Sample,97593,0,"Hat.wav",70
Sample,97679,0,"Hat.wav",70
Sample,97936,0,"Hat.wav",70
Sample,98021,0,"Hat.wav",70
Sample,98107,0,"Hat.wav",70
Sample,98279,0,"Hat.wav",70
Sample,98364,0,"Hat.wav",70
Sample,98364,0,"RD_Snare_9.wav",70
Sample,98707,0,"Hat.wav",70
Sample,98793,0,"Hat.wav",70
Sample,99050,0,"Hat.wav",70
Sample,99136,0,"Hat.wav",70
Sample,99221,0,"RD_Snare_9.wav",70
Sample,99307,0,"Hat.wav",70
Sample,99393,0,"Hat.wav",70
Sample,99564,0,"RD_Snare_9.wav",70
Sample,99736,0,"Hat.wav",70
Sample,99736,0,"RD_Snare_9.wav",70
Sample,100079,0,"Hat.wav",70
Sample,100164,0,"Hat.wav",70
Sample,100421,0,"Hat.wav",70
Sample,100679,0,"Hat.wav",70
Sample,100764,0,"Hat.wav",70
Sample,100850,0,"Hat.wav",70
Sample,101021,0,"Hat.wav",70
Sample,101107,0,"Hat.wav",70
Sample,101193,0,"Hat.wav",70
Sample,101450,0,"Hat.wav",70
Sample,101536,0,"Hat.wav",70
Sample,101793,0,"Hat.wav",70
Sample,102050,0,"Hat.wav",70
Sample,102136,0,"Hat.wav",70
Sample,102221,0,"Hat.wav",70
Sample,102479,0,"Hat.wav",70
Sample,103507,0,"LR_Snare Drum .wav",50
Sample,103850,0,"RD_Snare_9.wav",70
Sample,104579,0,"RD_Snare_9.wav",40
Sample,104664,0,"RD_Snare_9.wav",40
Sample,104750,0,"RD_Snare_9.wav",40
Sample,105221,0,"RD_Snare_9.wav",70
Sample,105907,0,"LR_Drum Low Long.wav",40
Sample,105907,0,"RD_Snare_9.wav",70
Sample,106164,0,"Hat.wav",70
Sample,106164,0,"LR_Drum Low Long.wav",40
Sample,106507,0,"Hat.wav",70
Sample,107279,0,"RD_Snare_9.wav",70
Sample,107279,0,"LR_Drum Low Long.wav",40
Sample,107536,0,"LR_Drum Low Long.wav",40
Sample,107536,0,"Hat.wav",70
Sample,107879,0,"kickdrum.wav",90
Sample,107879,0,"Hat.wav",70
Sample,108564,0,"Hat.wav",70
Sample,108650,0,"LR_Drum Low Long.wav",40
Sample,108650,0,"RD_Snare_9.wav",70
Sample,108907,0,"Hat.wav",70
Sample,108907,0,"LR_Drum Low Long.wav",40
Sample,109079,0,"LR_Drum Low Long.wav",40
Sample,109250,0,"Hat.wav",70
Sample,110021,0,"LR_Drum Low Long.wav",40
Sample,110021,0,"RD_Snare_9.wav",70
Sample,110193,0,"kickdrum.wav",90
Sample,110279,0,"LR_Drum Low Long.wav",40
Sample,110279,0,"Hat.wav",70
Sample,110450,0,"LR_Drum Low Long.wav",40
Sample,110621,0,"Hat.wav",70
Sample,111393,0,"RD_Snare_9.wav",70
Sample,111393,0,"LR_Drum Low Long.wav",40
Sample,111650,0,"LR_Drum Low Long.wav",40
Sample,111650,0,"Hat.wav",70
Sample,111821,0,"LR_Drum Low Long.wav",40
Sample,111993,0,"Hat.wav",70
Sample,112164,0,"kickdrum.wav",90
Sample,112764,0,"LR_Drum Low Long.wav",40
Sample,112764,0,"RD_Snare_9.wav",70
Sample,113021,0,"Hat.wav",70
Sample,113021,0,"LR_Drum Low Long.wav",40
Sample,113193,0,"LR_Drum Low Long.wav",40
Sample,113364,0,"Hat.wav",70
Sample,116964,0,"Hat.wav",70
Sample,118336,0,"Hat.wav",70
Sample,119707,0,"Hat.wav",70
Sample,120393,0,"Hat.wav",70
Sample,120993,0,"Sacco kick bounce.ogg",70
Sample,121079,0,"Thick Kick.wav",70
Sample,121079,0,"Hat.wav",70
Sample,121336,0,"kickdrum.wav",90
Sample,121764,0,"Hat.wav",70
Sample,122279,0,"kickdrum.wav",90
Sample,122450,0,"Hat.wav",70
Sample,122793,0,"Hat.wav",70
Sample,123136,0,"Hat.wav",70
Sample,123479,0,"Hat.wav",70
Sample,123650,0,"kickdrum.wav",90
Sample,123821,0,"snare2.wav",15
Sample,123821,0,"Hat.wav",70
Sample,124164,0,"Hat.wav",70
Sample,127679,0,"Hat.wav",70
Sample,127850,0,"Hat.wav",70
Sample,129050,0,"Hat.wav",70
Sample,129221,0,"Hat.wav",70
Sample,131450,0,"kickdrum.wav",70
Sample,131536,0,"kickdrum.wav",70
Sample,131621,0,"kickdrum.wav",70
Sample,131793,0,"kickdrum.wav",70
Sample,131879,0,"kickdrum.wav",70
Sample,131964,0,"kickdrum.wav",70
Sample,132136,0,"kickdrum.wav",70
Sample,132221,0,"kickdrum.wav",70
Sample,132307,0,"kickdrum.wav",70
Sample,132479,0,"kickdrum.wav",70
Sample,132564,0,"kickdrum.wav",70
Sample,132650,0,"kickdrum.wav",70
Sample,134964,0,"LR_Kick Beat 2.wav",40
Sample,135650,0,"Hat.wav",70
Sample,136336,0,"Hat.wav",70
Sample,137021,0,"Hat.wav",70
Sample,137707,0,"Hat.wav",70
Sample,138050,0,"Hat.wav",70
Sample,138393,0,"Hat.wav",70
Sample,139764,0,"Hat.wav",70
Sample,139936,0,"kickdrum.wav",90
Sample,140107,0,"Hat.wav",70
Sample,140279,0,"kickdrum.wav",90
Sample,140450,0,"RD_Snare_9.wav",70
Sample,140450,0,"Hat.wav",70
Sample,140621,0,"clap.wav",70
Sample,140621,0,"kickdrum.wav",90
Sample,140793,0,"RD_Snare_9.wav",70
Sample,140793,0,"Hat.wav",70
Sample,141307,0,"kickdrum.wav",90
Sample,141993,0,"kickdrum.wav",90
Sample,142679,0,"kickdrum.wav",90
Sample,143193,0,"Hat.wav",70
Sample,143279,0,"kickdrum.wav",90
Sample,143364,0,"kickdrum.wav",90
Sample,143536,0,"Hat.wav",70
Sample,143879,0,"Hat.wav",70
Sample,143964,0,"kickdrum.wav",90
Sample,143964,0,"RD_Snare_9.wav",70
Sample,144050,0,"kickdrum.wav",90
Sample,144221,0,"Hat.wav",70
Sample,144564,0,"Hat.wav",70
Sample,144736,0,"kickdrum.wav",90
Sample,144907,0,"Hat.wav",70
Sample,145250,0,"kickdrum.wav",90
Sample,145421,0,"kickdrum.wav",90
Sample,145593,0,"kickdrum.wav",90
Sample,145764,0,"kickdrum.wav",90
Sample,146621,0,"Hat.wav",70
Sample,147307,0,"Hat.wav",70
Sample,147993,0,"Hat.wav",70
Sample,148679,0,"Hat.wav",70
Sample,149021,0,"Hat.wav",70
Sample,149364,0,"Hat.wav",70
Sample,150736,0,"Hat.wav",70
Sample,151079,0,"Hat.wav",70
Sample,151250,0,"kickdrum.wav",90
Sample,151421,0,"Hat.wav",70
Sample,151593,0,"kickdrum.wav",90
Sample,151764,0,"RD_Snare_9.wav",70
Sample,151764,0,"Hat.wav",70
Sample,152793,0,"Hat.wav",70
Sample,154507,0,"Hat.wav",70
Sample,154850,0,"Hat.wav",70
Sample,156221,0,"Hat.wav",70
Sample,156221,0,"RD_Snare_9.wav",70
Sample,156564,0,"Hat.wav",70
Sample,156907,0,"RD_Snare_9.wav",70
Sample,156907,0,"Hat.wav",70
Sample,157250,0,"RD_Snare_9.wav",70
Sample,157250,0,"Hat.wav",70
Sample,157593,0,"Hat.wav",70
Sample,157764,0,"kickdrum.wav",90
Sample,157764,0,"clap.wav",70
Sample,158279,0,"Hat.wav",70
Sample,158450,0,"clap.wav",70
Sample,158450,0,"kickdrum.wav",90
Sample,158964,0,"Hat.wav",70
Sample,159136,0,"kickdrum.wav",90
Sample,159136,0,"clap.wav",70
Sample,159650,0,"Hat.wav",70
Sample,159821,0,"clap.wav",70
Sample,159821,0,"kickdrum.wav",90
Sample,159993,0,"Hat.wav",70
Sample,160850,0,"kickdrum.wav",90
Sample,161021,0,"kickdrum.wav",90
Sample,161193,0,"kickdrum.wav",90
Sample,162393,0,"kickdrum.wav",90
Sample,162564,0,"kickdrum.wav",90
Sample,167364,0,"Hat.wav",70
Sample,167536,0,"Hat.wav",70
Sample,186736,0,"japan_perc_3.wav",50
Sample,187079,0,"japan_perc_3.wav",50
Sample,187164,0,"japan_perc_don.wav",45
Sample,187421,0,"japan_perc_3.wav",50
Sample,187764,0,"japan_perc_3.wav",50
Sample,188107,0,"japan_perc_3.wav",50
Sample,188450,0,"japan_perc_3.wav",50
Sample,188793,0,"japan_perc_3.wav",50
Sample,197964,0,"kickdrum.wav",90
Sample,198136,0,"kickdrum.wav",90
Sample,198307,0,"kickdrum.wav",90
Sample,198479,0,"kickdrum.wav",90
Sample,199421,0,"LR_Kick Beat 2.wav",40
Sample,200107,0,"Hat.wav",70
Sample,200793,0,"Hat.wav",70
Sample,201479,0,"Hat.wav",70
Sample,202164,0,"Hat.wav",70
Sample,202507,0,"Hat.wav",70
Sample,202850,0,"Hat.wav",70
Sample,203536,0,"Hat.wav",70
Sample,204221,0,"Hat.wav",70
Sample,204393,0,"kickdrum.wav",90
Sample,204564,0,"Hat.wav",70
Sample,204736,0,"kickdrum.wav",90
Sample,204907,0,"RD_Snare_9.wav",70
Sample,204907,0,"Hat.wav",70
Sample,205079,0,"clap.wav",70
Sample,205079,0,"kickdrum.wav",90
Sample,205250,0,"RD_Snare_9.wav",70
Sample,205250,0,"Hat.wav",70
Sample,205764,0,"kickdrum.wav",90
Sample,206450,0,"kickdrum.wav",90
Sample,207136,0,"kickdrum.wav",90
Sample,207650,0,"Hat.wav",70
Sample,207736,0,"kickdrum.wav",90
Sample,207821,0,"kickdrum.wav",90
Sample,207993,0,"Hat.wav",70
Sample,208336,0,"Hat.wav",70
Sample,208421,0,"kickdrum.wav",90
Sample,208421,0,"RD_Snare_9.wav",70
Sample,208507,0,"kickdrum.wav",90
Sample,208679,0,"Hat.wav",70
Sample,209021,0,"Hat.wav",70
Sample,209193,0,"kickdrum.wav",90
Sample,209364,0,"Hat.wav",70
Sample,209707,0,"kickdrum.wav",90
Sample,209879,0,"kickdrum.wav",90
Sample,210050,0,"kickdrum.wav",90
Sample,210221,0,"kickdrum.wav",90
Sample,211079,0,"Hat.wav",70
Sample,211764,0,"Hat.wav",70
Sample,212450,0,"Hat.wav",70
Sample,213136,0,"Hat.wav",70
Sample,213479,0,"Hat.wav",70
Sample,213821,0,"Hat.wav",70
Sample,214507,0,"Hat.wav",70
Sample,215193,0,"Hat.wav",70
Sample,215536,0,"Hat.wav",70
Sample,215707,0,"kickdrum.wav",90
Sample,215879,0,"Hat.wav",70
Sample,216050,0,"kickdrum.wav",90
Sample,216221,0,"Hat.wav",70
Sample,216221,0,"RD_Snare_9.wav",70
Sample,217250,0,"Hat.wav",70
Sample,218964,0,"Hat.wav",70
Sample,219307,0,"Hat.wav",70
Sample,220679,0,"RD_Snare_9.wav",70
Sample,220679,0,"Hat.wav",70
Sample,221021,0,"Hat.wav",70
Sample,221364,0,"Hat.wav",70
Sample,221364,0,"RD_Snare_9.wav",70
Sample,221707,0,"Hat.wav",70
Sample,221707,0,"RD_Snare_9.wav",70
Sample,222050,0,"Hat.wav",70
Sample,222221,0,"clap.wav",70
Sample,222221,0,"kickdrum.wav",90
Sample,222736,0,"Hat.wav",70
Sample,222907,0,"kickdrum.wav",90
Sample,222907,0,"clap.wav",70
Sample,223421,0,"Hat.wav",70
Sample,223593,0,"clap.wav",70
Sample,223593,0,"kickdrum.wav",90
Sample,224107,0,"Hat.wav",70
Sample,224279,0,"kickdrum.wav",90
Sample,224279,0,"clap.wav",70
Sample,224450,0,"Hat.wav",70
Sample,225307,0,"kickdrum.wav",90
Sample,225479,0,"kickdrum.wav",90
Sample,225650,0,"kickdrum.wav",90
Sample,226850,0,"kickdrum.wav",90
Sample,227021,0,"kickdrum.wav",90
Sample,227707,0,"kickdrum.wav",90
Sample,228393,0,"kickdrum.wav",90
Sample,229079,0,"kickdrum.wav",90
Sample,229764,0,"kickdrum.wav",90
Sample,229936,0,"Hat.wav",70
Sample,230450,0,"kickdrum.wav",90
Sample,231136,0,"kickdrum.wav",90
Sample,231650,0,"Hat.wav",70
Sample,231993,0,"Hat.wav",70
Sample,232336,0,"Hat.wav",70
Sample,232507,0,"kickdrum.wav",90
Sample,232679,0,"Hat.wav",70
Sample,233021,0,"Hat.wav",70
Sample,233193,0,"kickdrum.wav",90
Sample,233364,0,"Hat.wav",70
Sample,233707,0,"Hat.wav",70
Sample,233879,0,"kickdrum.wav",90
Sample,234050,0,"Hat.wav",70
Sample,234136,0,"Muted Snare.wav",30
Sample,234221,0,"Muted Snare.wav",30
Sample,234393,0,"Hat.wav",70
Sample,234564,0,"kickdrum.wav",90
Sample,234564,0,"Muted Snare.wav",30
Sample,234736,0,"Hat.wav",70
Sample,234779,0,"Muted Snare.wav",30
Sample,234821,0,"Muted Snare.wav",30
Sample,234864,0,"Muted Snare.wav",30
Sample,234907,0,"Muted Snare.wav",30
Sample,234993,0,"Muted Snare.wav",30
Sample,235079,0,"Hat.wav",70
Sample,235121,0,"Muted Snare.wav",30
Sample,235164,0,"Muted Snare.wav",30
Sample,235207,0,"Muted Snare.wav",30
Sample,235250,0,"kickdrum.wav",90
Sample,235250,0,"Muted Snare.wav",30
Sample,235421,0,"Muted Snare.wav",30
Sample,235421,0,"Hat.wav",70
Sample,235507,0,"Muted Snare.wav",30

[TimingPoints]
1079,342.857142857143,4,2,1,100,1,0
55936,-100,4,2,1,100,0,1
80621,-100,4,2,1,100,0,0
135479,-100,4,2,1,100,0,1
160164,-100,4,2,1,100,0,0
199936,-100,4,2,1,100,0,1
224621,-100,4,2,1,100,0,0

[HitObjects]
192,192,1079,128,0,1764:0:0:0:0:
320,192,1764,1,0,0:0:0:70:japan_perc_4.wav
448,192,1764,1,0,0:0:0:0:
64,192,1936,1,0,0:0:0:70:japan_perc_4.wav
192,192,1936,1,0,0:0:0:0:
320,192,2107,1,0,0:0:0:70:japan_perc_4.wav
448,192,2107,1,0,0:0:0:0:
64,192,2450,1,0,0:0:0:0:
320,192,2621,1,0,0:0:0:0:
192,192,2793,1,0,0:0:0:0:
448,192,2964,1,0,0:0:0:0:
320,192,3307,1,0,0:0:0:70:japan_perc_4.wav
448,192,3307,1,0,0:0:0:0:
64,192,3479,1,0,0:0:0:70:japan_perc_4.wav
192,192,3479,1,0,0:0:0:0:
320,192,3821,1,0,0:0:0:70:Finish.wav
448,192,3821,1,0,0:0:0:90:kickdrum.wav
64,192,3993,1,0,0:0:0:70:Hat.wav
192,192,4164,1,0,0:0:0:70:clap.wav
448,192,4336,1,0,0:0:0:70:Hat.wav
64,192,4507,1,0,0:0:0:90:kickdrum.wav
320,192,4679,1,0,0:0:0:70:Hat.wav
448,192,4850,1,0,0:0:0:70:clap.wav
192,192,5021,1,0,0:0:0:70:Hat.wav
64,192,5193,1,0,0:0:0:90:kickdrum.wav
448,192,5364,1,0,0:0:0:70:Hat.wav
192,192,5536,1,0,0:0:0:70:clap.wav
320,192,5707,1,0,0:0:0:70:Hat.wav
64,192,5879,1,0,0:0:0:90:kickdrum.wav
192,192,6050,1,0,0:0:0:70:Hat.wav
448,192,6221,1,0,0:0:0:70:clap.wav
320,192,6393,1,0,0:0:0:90:kickdrum.wav
64,192,6564,1,0,0:0:0:90:kickdrum.wav
320,192,6736,1,0,0:0:0:70:Hat.wav
192,192,6907,1,0,0:0:0:70:clap.wav
448,192,7079,1,0,0:0:0:70:Hat.wav
192,192,7250,1,0,0:0:0:90:kickdrum.wav
64,192,7421,1,0,0:0:0:70:Hat.wav
448,192,7593,1,0,0:0:0:70:clap.wav
320,192,7764,1,0,0:0:0:70:Hat.wav
64,192,7936,1,0,0:0:0:90:kickdrum.wav
192,192,7936,128,0,8279:0:0:0:0:
320,192,8279,128,0,8621:0:0:0:70:clap.wav
448,192,8279,1,0,0:0:0:90:kickdrum.wav
64,192,8621,1,0,0:0:0:90:kickdrum.wav
192,192,8707,1,0,0:0:0:90:kickdrum.wav
448,192,8879,1,0,0:0:0:90:kickdrum.wav
320,192,8964,1,0,0:0:0:70:clap.wav
64,192,9136,1,0,0:0:0:90:kickdrum.wav
192,192,9221,1,0,0:0:0:90:kickdrum.wav
320,192,9307,1,0,0:0:0:70:Finish.wav
448,192,9307,1,0,0:0:0:90:kickdrum.wav
64,192,9479,1,0,0:0:0:30:Muted Snare.wav
192,192,9650,1,0,0:0:0:70:clap.wav
320,192,9821,1,0,0:0:0:30:Muted Snare.wav
448,192,9993,1,0,0:0:0:90:kickdrum.wav
192,192,10164,1,0,0:0:0:30:Muted Snare.wav
64,192,10336,1,0,0:0:0:70:clap.wav
320,192,10507,1,0,0:0:0:30:Muted Snare.wav
192,192,10679,1,0,0:0:0:90:kickdrum.wav
448,192,10850,1,0,0:0:0:30:Muted Snare.wav
64,192,11021,1,0,0:0:0:70:clap.wav
320,192,11193,128,0,11364:0:0:0:30:Muted Snare.wav
192,192,11364,1,0,0:0:0:90:kickdrum.wav
448,192,11536,128,0,11707:0:0:0:30:Muted Snare.wav
64,192,11707,1,0,0:0:0:70:clap.wav
320,192,11879,1,0,0:0:0:90:kickdrum.wav
64,192,12050,1,0,0:0:0:90:kickdrum.wav
192,192,12221,1,0,0:0:0:0:
320,192,12307,1,0,0:0:0:0:
448,192,12393,1,0,0:0:0:0:
192,192,12564,1,0,0:0:0:0:
320,192,12736,1,0,0:0:0:0:
448,192,12993,1,0,0:0:0:0:
192,192,13079,1,0,0:0:0:0:
64,192,13250,1,0,0:0:0:0:
448,192,13593,1,0,0:0:0:0:
320,192,13679,1,0,0:0:0:0:
192,192,13764,1,0,0:0:0:0:
448,192,13936,1,0,0:0:0:0:
64,192,14107,128,0,14793:0:0:0:70:RD_Snare_9.wav
192,192,14279,1,0,0:0:0:70:RD_Snare_9.wav
320,192,14450,1,0,0:0:0:40:LR4_SnareKKF.wav
192,192,14793,1,0,0:0:0:70:Finish.wav
448,192,14793,1,0,0:0:0:90:kickdrum.wav
320,192,14964,1,0,0:0:0:70:Hat.wav
64,192,15136,1,0,0:0:0:90:kickdrum.wav
192,192,15307,1,0,0:0:0:70:Hat.wav
320,192,15479,128,0,15821:0:0:0:90:kickdrum.wav
192,192,15821,1,0,0:0:0:90:kickdrum.wav
448,192,15821,128,0,16164:0:0:0:70:Hat.wav
64,192,16164,1,0,0:0:0:90:kickdrum.wav
320,192,16164,1,0,0:0:0:70:Hat.wav
192,192,16336,1,0,0:0:0:70:Hat.wav
448,192,16507,1,0,0:0:0:90:kickdrum.wav
320,192,16679,1,0,0:0:0:70:Hat.wav
192,192,16850,128,0,17021:0:0:0:90:kickdrum.wav
320,192,17021,128,0,17193:0:0:0:70:Hat.wav
64,192,17193,128,0,17536:0:0:0:90:kickdrum.wav
448,192,17193,1,0,0:0:0:70:Hat.wav
320,192,17364,1,0,0:0:0:90:kickdrum.wav
192,192,17536,1,0,0:0:0:90:kickdrum.wav
448,192,17536,1,0,0:0:0:70:Hat.wav
320,192,17707,1,0,0:0:0:70:Hat.wav
192,192,17879,128,0,18050:0:0:0:90:kickdrum.wav
64,192,18221,1,0,0:0:0:90:kickdrum.wav
448,192,18221,1,0,0:0:0:70:Hat.wav
192,192,18393,1,0,0:0:0:70:Hat.wav
320,192,18564,128,0,18736:0:0:0:90:kickdrum.wav
64,192,18907,1,0,0:0:0:90:kickdrum.wav
192,192,18907,1,0,0:0:0:70:Hat.wav
448,192,19079,1,0,0:0:0:70:Hat.wav
192,192,19250,1,0,0:0:0:90:kickdrum.wav
320,192,19421,1,0,0:0:0:70:Hat.wav
64,192,19593,1,0,0:0:0:90:kickdrum.wav
192,192,19679,1,0,0:0:0:90:kickdrum.wav
448,192,19850,1,0,0:0:0:90:kickdrum.wav
320,192,19936,1,0,0:0:0:90:kickdrum.wav
64,192,20107,1,0,0:0:0:90:kickdrum.wav
192,192,20193,1,0,0:0:0:90:kickdrum.wav
320,192,20279,1,0,0:0:0:70:Finish.wav
448,192,20279,1,0,0:0:0:90:kickdrum.wav
64,192,20450,1,0,0:0:0:70:Hat.wav
320,192,20621,1,0,0:0:0:90:kickdrum.wav
448,192,20793,1,0,0:0:0:70:Hat.wav
192,192,20964,128,0,21307:0:0:0:90:kickdrum.wav
64,192,21307,128,0,21650:0:0:0:70:Finish.wav
320,192,21307,1,0,0:0:0:90:kickdrum.wav
320,192,21650,1,0,0:0:0:70:Finish.wav
448,192,21650,1,0,0:0:0:90:kickdrum.wav
192,192,21821,1,0,0:0:0:70:Hat.wav
448,192,21993,1,0,0:0:0:90:kickdrum.wav
64,192,22164,1,0,0:0:0:70:Hat.wav
320,192,22336,128,0,22507:0:0:0:90:kickdrum.wav
192,192,22507,128,0,22679:0:0:0:70:Hat.wav
320,192,22679,1,0,0:0:0:70:Finish.wav
448,192,22679,128,0,23021:0:0:0:90:kickdrum.wav
64,192,22850,1,0,0:0:0:90:kickdrum.wav
64,192,23021,1,0,0:0:0:90:kickdrum.wav
320,192,23193,128,0,23364:0:0:0:40:LR4_SnareKKF.wav
192,192,23364,128,0,23536:0:0:0:40:LR4_SnareKKF.wav
448,192,23536,1,0,0:0:0:90:kickdrum.wav
448,192,23707,1,0,0:0:0:90:kickdrum.wav
192,192,23879,128,0,24050:0:0:0:40:LR4_SnareKKF.wav
320,192,24050,128,0,24221:0:0:0:40:LR4_SnareKKF.wav
64,192,24221,1,0,0:0:0:90:kickdrum.wav
64,192,24393,128,0,25079:0:0:0:90:kickdrum.wav
192,192,24564,1,0,0:0:0:0:
448,192,24736,1,0,0:0:0:0:
320,192,24907,1,0,0:0:0:0:
192,192,25079,1,0,0:0:0:0:
448,192,25250,1,0,0:0:0:0:
320,192,25336,1,0,0:0:0:0:
64,192,25421,1,0,0:0:0:0:
192,192,25507,1,0,0:0:0:0:
320,192,25593,1,0,0:0:0:0:
64,192,25764,1,0,0:0:0:70:Finish.wav
192,192,25764,1,0,0:0:0:90:kickdrum.wav
448,192,25936,1,0,0:0:0:70:RD_Snare_9.wav
320,192,26107,1,0,0:0:0:90:kickdrum.wav
64,192,26279,1,0,0:0:0:70:RD_Snare_9.wav
192,192,26450,128,0,26793:0:0:0:90:kickdrum.wav
320,192,26621,1,0,0:0:0:70:RD_Snare_9.wav
64,192,26793,1,0,0:0:0:90:kickdrum.wav
448,192,26793,128,0,27136:0:0:0:0:
64,192,27136,1,0,0:0:0:90:kickdrum.wav
192,192,27136,1,0,0:0:0:0:
320,192,27307,1,0,0:0:0:70:RD_Snare_9.wav
64,192,27479,1,0,0:0:0:90:kickdrum.wav
192,192,27650,1,0,0:0:0:70:RD_Snare_9.wav
448,192,27821,128,0,27993:0:0:0:90:kickdrum.wav
320,192,27993,128,0,28164:0:0:0:70:RD_Snare_9.wav
64,192,28164,128,0,28507:0:0:0:90:kickdrum.wav
192,192,28164,1,0,0:0:0:0:
320,192,28336,1,0,0:0:0:90:kickdrum.wav
192,192,28507,1,0,0:0:0:90:kickdrum.wav
448,192,28507,1,0,0:0:0:0:
320,192,28679,1,0,0:0:0:70:RD_Snare_9.wav
192,192,28850,128,0,29021:0:0:0:90:kickdrum.wav
448,192,29021,1,0,0:0:0:70:RD_Snare_9.wav
64,192,29193,1,0,0:0:0:90:kickdrum.wav
320,192,29193,1,0,0:0:0:0:
192,192,29364,1,0,0:0:0:70:RD_Snare_9.wav
448,192,29536,128,0,29707:0:0:0:90:kickdrum.wav
320,192,29707,1,0,0:0:0:70:RD_Snare_9.wav
64,192,29879,1,0,0:0:0:90:kickdrum.wav
192,192,29879,1,0,0:0:0:0:
320,192,30050,1,0,0:0:0:70:RD_Snare_9.wav
64,192,30221,1,0,0:0:0:90:kickdrum.wav
448,192,30393,1,0,0:0:0:70:RD_Snare_9.wav
64,192,30564,1,0,0:0:0:90:kickdrum.wav
192,192,30650,1,0,0:0:0:90:kickdrum.wav
448,192,30821,1,0,0:0:0:90:kickdrum.wav
320,192,30907,1,0,0:0:0:90:kickdrum.wav
64,192,31079,1,0,0:0:0:90:kickdrum.wav
192,192,31164,1,0,0:0:0:90:kickdrum.wav
320,192,31250,1,0,0:0:0:70:Finish.wav
448,192,31250,1,0,0:0:0:90:kickdrum.wav
192,192,31421,1,0,0:0:0:70:RD_Snare_9.wav
320,192,31593,1,0,0:0:0:90:kickdrum.wav
64,192,31764,1,0,0:0:0:70:RD_Snare_9.wav
192,192,31936,128,0,32279:0:0:0:90:kickdrum.wav
448,192,32107,1,0,0:0:0:70:RD_Snare_9.wav
64,192,32279,128,0,32621:0:0:0:70:Finish.wav
320,192,32279,1,0,0:0:0:90:kickdrum.wav
192,192,32621,1,0,0:0:0:70:Finish.wav
320,192,32621,1,0,0:0:0:90:kickdrum.wav
448,192,32793,1,0,0:0:0:70:RD_Snare_9.wav
320,192,32964,1,0,0:0:0:90:kickdrum.wav
64,192,33136,1,0,0:0:0:70:RD_Snare_9.wav
448,192,33307,128,0,33479:0:0:0:90:kickdrum.wav
320,192,33479,128,0,33650:0:0:0:70:RD_Snare_9.wav
64,192,33650,1,0,0:0:0:70:Finish.wav
192,192,33650,128,0,33993:0:0:0:90:kickdrum.wav
448,192,33821,1,0,0:0:0:90:kickdrum.wav
320,192,33993,1,0,0:0:0:90:kickdrum.wav
64,192,34164,1,0,0:0:0:0:
192,192,34250,1,0,0:0:0:0:
320,192,34336,1,0,0:0:0:0:
64,192,34507,1,0,0:0:0:0:
192,192,34679,1,0,0:0:0:0:
448,192,34850,1,0,0:0:0:0:
320,192,34936,1,0,0:0:0:0:
192,192,35021,1,0,0:0:0:0:
448,192,35193,1,0,0:0:0:0:
64,192,35364,1,0,0:0:0:40:LR4_SnareKKF.wav
192,192,35364,1,0,0:0:0:0:
320,192,35536,1,0,0:0:0:0:
448,192,35621,1,0,0:0:0:0:
192,192,35707,1,0,0:0:0:0:
320,192,35879,1,0,0:0:0:40:LR4_SnareKKF.wav
448,192,35879,1,0,0:0:0:0:
64,192,36050,1,0,0:0:0:40:LR4_SnareKKF.wav
192,192,36050,1,0,0:0:0:0:
320,192,36221,1,0,0:0:0:50:japan_perc_10.wav
448,192,36307,1,0,0:0:0:50:japan_perc_10.wav
192,192,36393,128,0,36564:0:0:0:50:japan_perc_10.wav
320,192,36564,128,0,36736:0:0:0:50:japan_perc_10.wav
192,192,36736,128,0,36907:0:0:0:50:japan_perc_9.wav
448,192,36736,1,0,0:0:0:90:kickdrum.wav
64,192,36907,128,0,37079:0:0:0:0:
320,192,37079,128,0,37250:0:0:0:70:Hat.wav
192,192,37421,128,0,37593:0:0:0:15:snare2.wav
320,192,37593,128,0,37764:0:0:0:0:
448,192,37764,128,0,37936:0:0:0:30:LR4_SnareKKF.wav
192,192,37936,128,0,38107:0:0:0:0:
64,192,38107,128,0,38621:0:0:0:90:kickdrum.wav
448,192,38450,1,0,0:0:0:70:Hat.wav
192,192,38621,1,0,0:0:0:90:kickdrum.wav
320,192,38793,1,0,0:0:0:15:snare2.wav
64,192,38964,1,0,0:0:0:0:
192,192,39136,1,0,0:0:0:30:LR4_SnareKKF.wav
320,192,39307,1,0,0:0:0:0:
64,192,39479,1,0,0:0:0:50:japan_perc_9.wav
448,192,39479,1,0,0:0:0:90:kickdrum.wav
192,192,39736,1,0,0:0:0:0:
320,192,39821,1,0,0:0:0:70:Hat.wav
64,192,39993,1,0,0:0:0:90:kickdrum.wav
192,192,40164,1,0,0:0:0:15:snare2.wav
448,192,40421,1,0,0:0:0:0:
320,192,40507,1,0,0:0:0:30:LR4_SnareKKF.wav
64,192,40679,1,0,0:0:0:0:
192,192,40850,1,0,0:0:0:90:kickdrum.wav
320,192,41021,1,0,0:0:0:50:japan_perc_10.wav
448,192,41107,1,0,0:0:0:0:
64,192,41193,1,0,0:0:0:70:Hat.wav
192,192,41364,1,0,0:0:0:50:japan_perc_10.wav
320,192,41536,128,0,41879:0:0:0:15:snare2.wav
192,192,41879,128,0,42050:0:0:0:50:japan_perc_10.wav
448,192,42050,128,0,42221:0:0:0:50:japan_perc_10.wav
192,192,42221,128,0,42393:0:0:0:50:japan_perc_9.wav
320,192,42221,1,0,0:0:0:90:kickdrum.wav
64,192,42393,128,0,42564:0:0:0:0:
448,192,42564,128,0,42736:0:0:0:70:Hat.wav
64,192,42907,128,0,43079:0:0:0:15:snare2.wav
320,192,43079,128,0,43250:0:0:0:0:
192,192,43250,128,0,43421:0:0:0:30:LR4_SnareKKF.wav
448,192,43421,128,0,43593:0:0:0:0:
320,192,43593,128,0,44107:0:0:0:90:kickdrum.wav
64,192,43764,1,0,0:0:0:50:japan_perc_10.wav
192,192,43936,1,0,0:0:0:50:japan_perc_10.wav
448,192,44107,1,0,0:0:0:50:japan_perc_10.wav
64,192,44279,1,0,0:0:0:50:japan_perc_10.wav
192,192,44450,1,0,0:0:0:50:japan_perc_10.wav
448,192,44621,1,0,0:0:0:100:japan_perc_10.wav
448,192,44793,1,0,0:0:0:100:japan_perc_10.wav
64,192,44964,1,0,0:0:0:70:Hat.wav
320,192,44964,128,0,45650:0:0:0:0:
192,192,45650,128,0,45993:0:0:0:70:Hat.wav
64,192,46336,128,0,46679:0:0:0:70:Hat.wav
448,192,46679,128,0,46850:0:0:0:70:Hat.wav
320,192,46850,128,0,47021:0:0:0:70:Hat.wav
192,192,47021,128,0,47364:0:0:0:70:Hat.wav
64,192,47364,128,0,47707:0:0:0:70:Hat.wav
192,192,47707,1,0,0:0:0:90:kickdrum.wav
448,192,47707,128,0,48393:0:0:0:0:
64,192,48050,1,0,0:0:0:70:Hat.wav
192,192,48221,1,0,0:0:0:70:Hat.wav
64,192,48393,1,0,0:0:0:50:LR4_SnareKKF.wav
320,192,48393,1,0,0:0:0:70:Hat.wav
192,192,48736,1,0,0:0:0:70:LR_Drum Low Long.wav
64,192,49079,128,0,49764:0:0:0:90:kickdrum.wav
320,192,49079,1,0,0:0:0:0:
448,192,49421,1,0,0:0:0:70:Hat.wav
320,192,49593,1,0,0:0:0:70:Hat.wav
192,192,49764,1,0,0:0:0:50:LR4_SnareKKF.wav
448,192,49764,1,0,0:0:0:70:Hat.wav
320,192,50107,1,0,0:0:0:70:LR_Drum Low Long.wav
64,192,50450,1,0,0:0:0:90:kickdrum.wav
448,192,50450,1,0,0:0:0:0:
192,192,50621,1,0,0:0:0:90:kickdrum.wav
320,192,50793,1,0,0:0:0:90:kickdrum.wav
64,192,50964,1,0,0:0:0:90:kickdrum.wav
192,192,51136,1,0,0:0:0:90:kickdrum.wav
448,192,51136,1,0,0:0:0:0:
320,192,51307,1,0,0:0:0:90:kickdrum.wav
192,192,51479,1,0,0:0:0:90:kickdrum.wav
448,192,51650,1,0,0:0:0:90:kickdrum.wav
64,192,51821,128,0,52507:0:0:0:90:kickdrum.wav
192,192,51821,128,0,52164:0:0:0:0:
320,192,52164,128,0,52507:0:0:0:90:kickdrum.wav
192,192,52507,128,0,52850:0:0:0:90:kickdrum.wav
448,192,52507,128,0,53193:0:0:0:0:
320,192,52850,128,0,53193:0:0:0:90:kickdrum.wav
64,192,53193,1,0,0:0:0:70:japan_perc_8.wav
192,192,53193,1,0,0:0:0:0:
192,192,55250,128,0,55593:0:0:0:0:
320,192,55593,128,0,55936:0:0:0:0:
64,192,55936,1,0,0:0:0:70:Finish.wav
448,192,55936,128,0,56279:0:0:0:90:kickdrum.wav
64,192,56279,1,0,0:0:0:70:clap.wav
192,192,56279,1,0,0:0:0:90:kickdrum.wav
320,192,56450,1,0,0:0:0:70:Hat.wav
64,192,56621,128,0,56964:0:0:0:90:kickdrum.wav
192,192,56964,1,0,0:0:0:70:clap.wav
448,192,56964,1,0,0:0:0:90:kickdrum.wav
320,192,57136,1,0,0:0:0:70:Hat.wav
192,192,57307,128,0,57479:0:0:0:90:kickdrum.wav
448,192,57564,1,0,0:0:0:0:
64,192,57650,1,0,0:0:0:70:clap.wav
192,192,57650,1,0,0:0:0:90:kickdrum.wav
320,192,57821,1,0,0:0:0:70:Hat.wav
64,192,57993,128,0,58164:0:0:0:90:kickdrum.wav
320,192,58336,1,0,0:0:0:70:clap.wav
448,192,58336,1,0,0:0:0:90:kickdrum.wav
192,192,58507,1,0,0:0:0:90:kickdrum.wav
448,192,58679,128,0,59021:0:0:0:90:kickdrum.wav
64,192,59021,1,0,0:0:0:70:clap.wav
192,192,59021,1,0,0:0:0:90:kickdrum.wav
320,192,59193,1,0,0:0:0:70:Hat.wav
64,192,59364,1,0,0:0:0:90:kickdrum.wav
192,192,59450,1,0,0:0:0:0:
448,192,59621,1,0,0:0:0:0:
64,192,59707,1,0,0:0:0:70:clap.wav
320,192,59707,1,0,0:0:0:90:kickdrum.wav
192,192,59879,1,0,0:0:0:70:Hat.wav
64,192,60050,1,0,0:0:0:70:Finish.wav
448,192,60050,1,0,0:0:0:90:kickdrum.wav
320,192,60221,1,0,0:0:0:70:RD_Snare_9.wav
192,192,60393,1,0,0:0:0:70:Finish.wav
448,192,60393,1,0,0:0:0:70:clap.wav
64,192,60564,1,0,0:0:0:70:RD_Snare_9.wav
448,192,60736,1,0,0:0:0:70:Finish.wav
320,192,60821,1,0,0:0:0:90:kickdrum.wav
64,192,60993,1,0,0:0:0:90:kickdrum.wav
192,192,61079,1,0,0:0:0:70:Finish.wav
448,192,61250,1,0,0:0:0:90:kickdrum.wav
320,192,61336,1,0,0:0:0:90:kickdrum.wav
64,192,61421,1,0,0:0:0:70:Finish.wav
192,192,61421,1,0,0:0:0:90:kickdrum.wav
448,192,61593,1,0,0:0:0:70:Hat.wav
320,192,61764,1,0,0:0:0:70:clap.wav
192,192,61936,1,0,0:0:0:70:Hat.wav
64,192,62107,1,0,0:0:0:70:Finish.wav
448,192,62107,1,0,0:0:0:90:kickdrum.wav
320,192,62279,1,0,0:0:0:70:Hat.wav
192,192,62450,1,0,0:0:0:70:clap.wav
448,192,62621,1,0,0:0:0:70:Hat.wav
64,192,62793,1,0,0:0:0:70:Finish.wav
192,192,62793,1,0,0:0:0:90:kickdrum.wav
320,192,62964,1,0,0:0:0:70:Hat.wav
64,192,63136,1,0,0:0:0:70:clap.wav
192,192,63307,1,0,0:0:0:70:Hat.wav
320,192,63479,1,0,0:0:0:70:Finish.wav
448,192,63479,1,0,0:0:0:90:kickdrum.wav
64,192,63821,1,0,0:0:0:70:clap.wav
320,192,63993,1,0,0:0:0:90:kickdrum.wav
64,192,64164,1,0,0:0:0:70:Finish.wav
192,192,64164,1,0,0:0:0:90:kickdrum.wav
192,192,64507,1,0,0:0:0:70:clap.wav
448,192,64679,1,0,0:0:0:90:kickdrum.wav
64,192,64850,1,0,0:0:0:70:Finish.wav
320,192,64850,1,0,0:0:0:90:kickdrum.wav
192,192,65021,1,0,0:0:0:90:kickdrum.wav
448,192,65107,1,0,0:0:0:70:RD_Snare_9.wav
320,192,65193,1,0,0:0:0:70:clap.wav
64,192,65364,1,0,0:0:0:90:kickdrum.wav
192,192,65707,1,0,0:0:0:70:japan_perc_4.wav
192,192,65879,1,0,0:0:0:70:japan_perc_4.wav
320,192,66050,1,0,0:0:0:70:japan_perc_4.wav
64,192,66221,1,0,0:0:0:70:japan_perc_4.wav
192,192,66307,1,0,0:0:0:90:kickdrum.wav
448,192,66479,1,0,0:0:0:90:kickdrum.wav
320,192,66564,1,0,0:0:0:90:kickdrum.wav
64,192,66736,1,0,0:0:0:90:kickdrum.wav
320,192,66907,128,0,67250:0:0:0:70:Finish.wav
448,192,66907,1,0,0:0:0:90:kickdrum.wav
64,192,67250,1,0,0:0:0:70:clap.wav
192,192,67250,1,0,0:0:0:90:kickdrum.wav
448,192,67421,1,0,0:0:0:70:Hat.wav
64,192,67593,128,0,67936:0:0:0:90:kickdrum.wav
192,192,67936,1,0,0:0:0:70:clap.wav
448,192,67936,1,0,0:0:0:90:kickdrum.wav
320,192,68107,1,0,0:0:0:70:Hat.wav
192,192,68279,128,0,68450:0:0:0:90:kickdrum.wav
448,192,68536,1,0,0:0:0:0:
64,192,68621,1,0,0:0:0:70:clap.wav
320,192,68621,1,0,0:0:0:90:kickdrum.wav
192,192,68793,1,0,0:0:0:70:Hat.wav
448,192,68964,128,0,69136:0:0:0:90:kickdrum.wav
64,192,69307,1,0,0:0:0:70:clap.wav
192,192,69307,1,0,0:0:0:90:kickdrum.wav
448,192,69479,1,0,0:0:0:90:kickdrum.wav
320,192,69650,128,0,69821:0:0:0:90:kickdrum.wav
64,192,69907,1,0,0:0:0:70:GMHiTom1_01.wav
192,192,69993,1,0,0:0:0:70:clap.wav
448,192,69993,1,0,0:0:0:90:kickdrum.wav
320,192,70164,1,0,0:0:0:70:Hat.wav
64,192,70336,1,0,0:0:0:90:kickdrum.wav
192,192,70450,1,0,0:0:0:0:
320,192,70679,1,0,0:0:0:70:clap.wav
448,192,70679,1,0,0:0:0:90:kickdrum.wav
64,192,70850,1,0,0:0:0:70:Hat.wav
192,192,71021,1,0,0:0:0:70:Finish.wav
448,192,71021,1,0,0:0:0:90:kickdrum.wav
320,192,71193,1,0,0:0:0:70:RD_Snare_9.wav
64,192,71364,1,0,0:0:0:70:clap.wav
448,192,71364,1,0,0:0:0:90:kickdrum.wav
192,192,71536,1,0,0:0:0:70:RD_Snare_9.wav
448,192,71707,1,0,0:0:0:70:Finish.wav
320,192,71793,1,0,0:0:0:90:kickdrum.wav
64,192,71879,1,0,0:0:0:70:RD_Snare_9.wav
192,192,71964,1,0,0:0:0:90:kickdrum.wav
320,192,72050,1,0,0:0:0:70:clap.wav
448,192,72221,1,0,0:0:0:90:kickdrum.wav
320,192,72307,1,0,0:0:0:90:kickdrum.wav
64,192,72393,1,0,0:0:0:70:Finish.wav
192,192,72393,1,0,0:0:0:90:kickdrum.wav
448,192,72564,1,0,0:0:0:70:Hat.wav
64,192,72736,1,0,0:0:0:70:clap.wav
320,192,72736,1,0,0:0:0:90:kickdrum.wav
192,192,72907,1,0,0:0:0:70:Hat.wav
448,192,73079,128,0,73250:0:0:0:90:kickdrum.wav
64,192,73421,1,0,0:0:0:70:clap.wav
320,192,73421,1,0,0:0:0:90:kickdrum.wav
448,192,73593,1,0,0:0:0:70:Hat.wav
192,192,73764,1,0,0:0:0:90:kickdrum.wav
320,192,73936,1,0,0:0:0:70:Hat.wav
64,192,74107,1,0,0:0:0:70:clap.wav
192,192,74107,1,0,0:0:0:90:kickdrum.wav
448,192,74279,1,0,0:0:0:70:Hat.wav
320,192,74450,1,0,0:0:0:90:kickdrum.wav
64,192,74621,1,0,0:0:0:70:Hat.wav
192,192,74793,1,0,0:0:0:70:clap.wav
448,192,74793,1,0,0:0:0:90:kickdrum.wav
320,192,74964,1,0,0:0:0:90:kickdrum.wav
64,192,75136,1,0,0:0:0:70:Finish.wav
448,192,75136,1,0,0:0:0:90:kickdrum.wav
192,192,75479,1,0,0:0:0:70:clap.wav
320,192,75479,1,0,0:0:0:90:kickdrum.wav
64,192,75650,1,0,0:0:0:70:Hat.wav
448,192,75821,1,0,0:0:0:90:kickdrum.wav
320,192,75993,1,0,0:0:0:70:Hat.wav
64,192,76164,1,0,0:0:0:70:clap.wav
192,192,76164,1,0,0:0:0:90:kickdrum.wav
320,192,76336,1,0,0:0:0:70:Hat.wav
64,192,76507,1,0,0:0:0:70:Finish.wav
448,192,76507,1,0,0:0:0:90:kickdrum.wav
192,192,76850,1,0,0:0:0:70:clap.wav
320,192,76850,1,0,0:0:0:90:kickdrum.wav
64,192,77021,1,0,0:0:0:70:RD_Snare_9.wav
448,192,77193,1,0,0:0:0:90:kickdrum.wav
320,192,77279,1,0,0:0:0:90:kickdrum.wav
64,192,77450,1,0,0:0:0:90:kickdrum.wav
192,192,77536,1,0,0:0:0:90:kickdrum.wav
448,192,77707,1,0,0:0:0:90:kickdrum.wav
320,192,77793,1,0,0:0:0:90:kickdrum.wav
64,192,77879,1,0,0:0:0:70:Finish.wav
192,192,77879,1,0,0:0:0:90:kickdrum.wav
448,192,78050,1,0,0:0:0:35:japan_perc_4.wav
320,192,78136,1,0,0:0:0:35:japan_perc_4.wav
192,192,78221,1,0,0:0:0:35:japan_perc_4.wav
448,192,78393,1,0,0:0:0:70:Hat.wav
192,192,78564,1,0,0:0:0:90:kickdrum.wav
320,192,78564,1,0,0:0:0:0:
64,192,78736,1,0,0:0:0:35:japan_perc_4.wav
192,192,78821,1,0,0:0:0:35:japan_perc_4.wav
320,192,78907,1,0,0:0:0:35:japan_perc_4.wav
64,192,79079,1,0,0:0:0:70:Hat.wav
192,192,79250,1,0,0:0:0:90:kickdrum.wav
320,192,79250,1,0,0:0:0:0:
448,192,79421,1,0,0:0:0:35:japan_perc_4.wav
320,192,79507,1,0,0:0:0:35:japan_perc_4.wav
192,192,79593,1,0,0:0:0:35:japan_perc_4.wav
448,192,79764,1,0,0:0:0:70:Hat.wav
192,192,79936,1,0,0:0:0:90:kickdrum.wav
320,192,79936,1,0,0:0:0:0:
64,192,80107,1,0,0:0:0:35:japan_perc_4.wav
192,192,80193,1,0,0:0:0:35:japan_perc_4.wav
320,192,80279,1,0,0:0:0:35:japan_perc_4.wav
64,192,80450,1,0,0:0:0:90:kickdrum.wav
192,192,80621,128,0,81307:0:0:0:70:japan_perc_8.wav
448,192,80621,1,0,0:0:0:0:
320,192,81307,1,0,0:0:0:70:japan_perc_4.wav
448,192,81307,1,0,0:0:0:30:snare2.wav
64,192,81479,1,0,0:0:0:70:japan_perc_4.wav
192,192,81479,1,0,0:0:0:30:snare2.wav
320,192,81650,1,0,0:0:0:70:japan_perc_4.wav
448,192,81650,1,0,0:0:0:30:snare2.wav
64,192,81993,1,0,0:0:0:90:kickdrum.wav
192,192,81993,1,0,0:0:0:0:
320,192,82164,1,0,0:0:0:90:kickdrum.wav
448,192,82250,1,0,0:0:0:90:kickdrum.wav
64,192,82336,1,0,0:0:0:90:kickdrum.wav
192,192,82336,1,0,0:0:0:0:
320,192,82507,1,0,0:0:0:90:kickdrum.wav
64,192,82850,1,0,0:0:0:70:japan_perc_4.wav
192,192,82850,1,0,0:0:0:30:snare2.wav
320,192,83021,1,0,0:0:0:70:japan_perc_4.wav
448,192,83021,1,0,0:0:0:30:snare2.wav
64,192,83364,1,0,0:0:0:70:Finish.wav
192,192,83364,1,0,0:0:0:90:kickdrum.wav
320,192,83536,1,0,0:0:0:70:Hat.wav
448,192,83707,1,0,0:0:0:70:clap.wav
192,192,83879,1,0,0:0:0:70:Hat.wav
320,192,84050,1,0,0:0:0:90:kickdrum.wav
64,192,84221,1,0,0:0:0:70:Hat.wav
192,192,84393,1,0,0:0:0:70:clap.wav
320,192,84564,1,0,0:0:0:70:Hat.wav
448,192,84736,1,0,0:0:0:90:kickdrum.wav
320,192,84907,1,0,0:0:0:70:Hat.wav
192,192,85079,1,0,0:0:0:70:clap.wav
320,192,85250,1,0,0:0:0:70:Hat.wav
64,192,85421,1,0,0:0:0:90:kickdrum.wav
448,192,85593,1,0,0:0:0:70:Hat.wav
192,192,85764,1,0,0:0:0:70:clap.wav
320,192,85936,1,0,0:0:0:90:kickdrum.wav
64,192,86107,1,0,0:0:0:90:kickdrum.wav
448,192,86279,1,0,0:0:0:70:Hat.wav
320,192,86450,1,0,0:0:0:70:clap.wav
64,192,86621,1,0,0:0:0:70:Hat.wav
192,192,86793,1,0,0:0:0:90:kickdrum.wav
448,192,86964,1,0,0:0:0:70:Hat.wav
320,192,87136,1,0,0:0:0:70:clap.wav
192,192,87307,1,0,0:0:0:70:Hat.wav
320,192,87479,128,0,87821:0:0:0:90:kickdrum.wav
448,192,87479,1,0,0:0:0:0:
64,192,87821,1,0,0:0:0:70:clap.wav
192,192,87821,128,0,88164:0:0:0:90:kickdrum.wav
448,192,88164,1,0,0:0:0:90:kickdrum.wav
320,192,88250,1,0,0:0:0:90:kickdrum.wav
64,192,88421,1,0,0:0:0:90:kickdrum.wav
192,192,88507,1,0,0:0:0:70:clap.wav
448,192,88679,1,0,0:0:0:90:kickdrum.wav
320,192,88764,1,0,0:0:0:90:kickdrum.wav
64,192,88850,1,0,0:0:0:70:Finish.wav
192,192,88850,1,0,0:0:0:90:kickdrum.wav
448,192,89021,1,0,0:0:0:30:Muted Snare.wav
320,192,89193,1,0,0:0:0:70:clap.wav
192,192,89364,1,0,0:0:0:30:Muted Snare.wav
320,192,89536,1,0,0:0:0:90:kickdrum.wav
64,192,89707,1,0,0:0:0:30:Muted Snare.wav
320,192,89879,1,0,0:0:0:70:clap.wav
448,192,90050,128,0,90221:0:0:0:30:Muted Snare.wav
64,192,90221,128,0,90907:0:0:0:90:kickdrum.wav
192,192,90393,1,0,0:0:0:30:Muted Snare.wav
448,192,90564,1,0,0:0:0:70:clap.wav
320,192,90736,1,0,0:0:0:30:Muted Snare.wav
448,192,90907,128,0,91250:0:0:0:90:kickdrum.wav
192,192,91079,1,0,0:0:0:30:Muted Snare.wav
64,192,91250,1,0,0:0:0:70:clap.wav
320,192,91421,128,0,91593:0:0:0:90:kickdrum.wav
448,192,91593,1,0,0:0:0:90:kickdrum.wav
192,192,91936,128,0,92279:0:0:0:0:
320,192,92279,128,0,92621:0:0:0:0:
448,192,92621,128,0,92964:0:0:0:0:
64,192,92964,1,0,0:0:0:70:Hat.wav
320,192,93136,1,0,0:0:0:70:Hat.wav
192,192,93221,1,0,0:0:0:70:Hat.wav
448,192,93307,1,0,0:0:0:70:Hat.wav
320,192,93479,1,0,0:0:0:70:Hat.wav
64,192,93650,128,0,94336:0:0:0:70:RD_Snare_9.wav
192,192,93821,1,0,0:0:0:70:RD_Snare_9.wav
448,192,93993,1,0,0:0:0:40:LR4_SnareKKF.wav
320,192,94336,1,0,0:0:0:70:Finish.wav
448,192,94336,1,0,0:0:0:70:Hat.wav
192,192,94507,1,0,0:0:0:70:Hat.wav
320,192,94679,1,0,0:0:0:70:RD_Snare_9.wav
448,192,94850,1,0,0:0:0:70:Hat.wav
64,192,95021,128,0,95364:0:0:0:70:Hat.wav
192,192,95193,1,0,0:0:0:70:RD_Snare_9.wav
320,192,95364,1,0,0:0:0:70:RD_Snare_9.wav
448,192,95364,128,0,95707:0:0:0:70:Hat.wav
64,192,95707,1,0,0:0:0:70:Hat.wav
192,192,95879,1,0,0:0:0:70:Hat.wav
320,192,96050,1,0,0:0:0:70:RD_Snare_9.wav
64,192,96221,1,0,0:0:0:70:Hat.wav
448,192,96393,128,0,96564:0:0:0:70:Hat.wav
320,192,96564,128,0,96736:0:0:0:70:RD_Snare_9.wav
64,192,96736,128,0,97079:0:0:0:70:RD_Snare_9.wav
192,192,96736,1,0,0:0:0:70:Hat.wav
320,192,97079,1,0,0:0:0:70:Hat.wav
192,192,97250,1,0,0:0:0:70:Hat.wav
448,192,97421,128,0,97593:0:0:0:70:RD_Snare_9.wav
192,192,97764,1,0,0:0:0:70:Hat.wav
320,192,97936,1,0,0:0:0:70:RD_Snare_9.wav
64,192,98107,128,0,98279:0:0:0:70:RD_Snare_9.wav
192,192,98450,1,0,0:0:0:70:Hat.wav
448,192,98621,1,0,0:0:0:70:Hat.wav
320,192,98793,1,0,0:0:0:70:RD_Snare_9.wav
64,192,98964,1,0,0:0:0:70:Hat.wav
192,192,99136,1,0,0:0:0:70:RD_Snare_9.wav
448,192,99307,1,0,0:0:0:70:LR_Snare Drum .wav
320,192,99393,1,0,0:0:0:70:LR_Snare Drum .wav
192,192,99479,1,0,0:0:0:70:Hat.wav
448,192,99650,1,0,0:0:0:70:Hat.wav
64,192,99821,1,0,0:0:0:70:Finish.wav
320,192,99821,1,0,0:0:0:70:Hat.wav
192,192,99993,1,0,0:0:0:70:Hat.wav
448,192,100164,1,0,0:0:0:70:RD_Snare_9.wav
320,192,100336,1,0,0:0:0:70:Hat.wav
192,192,100507,128,0,100850:0:0:0:70:Hat.wav
448,192,100679,1,0,0:0:0:70:RD_Snare_9.wav
64,192,100850,128,0,101193:0:0:0:70:Finish.wav
320,192,100850,1,0,0:0:0:70:RD_Snare_9.wav
448,192,101193,1,0,0:0:0:70:Finish.wav
320,192,101364,1,0,0:0:0:70:Hat.wav
192,192,101536,1,0,0:0:0:70:RD_Snare_9.wav
448,192,101707,1,0,0:0:0:70:Hat.wav
64,192,101879,128,0,102050:0:0:0:70:Hat.wav
192,192,102050,128,0,102221:0:0:0:70:RD_Snare_9.wav
320,192,102221,1,0,0:0:0:70:Finish.wav
448,192,102221,128,0,102564:0:0:0:70:RD_Snare_9.wav
64,192,102393,1,0,0:0:0:70:Hat.wav
64,192,102564,1,0,0:0:0:70:Hat.wav
320,192,102736,128,0,102907:0:0:0:40:LR4_SnareKKF.wav
192,192,102907,128,0,103079:0:0:0:40:LR4_SnareKKF.wav
448,192,103079,1,0,0:0:0:0:
448,192,103250,1,0,0:0:0:0:
192,192,103421,128,0,103593:0:0:0:40:LR4_SnareKKF.wav
320,192,103593,128,0,103764:0:0:0:40:LR4_SnareKKF.wav
64,192,103764,1,0,0:0:0:0:
64,192,103936,128,0,104621:0:0:0:90:kickdrum.wav
192,192,104107,1,0,0:0:0:0:
448,192,104279,1,0,0:0:0:0:
320,192,104450,1,0,0:0:0:0:
192,192,104621,1,0,0:0:0:0:
448,192,104793,1,0,0:0:0:30:LR_Kick Beat 2.wav
320,192,104879,1,0,0:0:0:30:LR_Kick Beat 2.wav
64,192,104964,1,0,0:0:0:40:LR_Kick Beat 2.wav
192,192,105050,1,0,0:0:0:70:RD_Snare_9.wav
320,192,105136,1,0,0:0:0:40:LR_Kick Beat 2.wav
64,192,105307,1,0,0:0:0:70:Finish.wav
192,192,105307,1,0,0:0:0:90:kickdrum.wav
320,192,105479,1,0,0:0:0:70:Hat.wav
64,192,105650,1,0,0:0:0:90:kickdrum.wav
192,192,105821,1,0,0:0:0:70:Hat.wav
320,192,105993,1,0,0:0:0:90:kickdrum.wav
448,192,105993,1,0,0:0:0:0:
192,192,106164,1,0,0:0:0:70:RD_Snare_9.wav
64,192,106336,128,0,106679:0:0:0:90:kickdrum.wav
448,192,106336,1,0,0:0:0:40:LR_Drum Low Long.wav
320,192,106679,1,0,0:0:0:90:kickdrum.wav
448,192,106679,1,0,0:0:0:0:
192,192,106850,1,0,0:0:0:70:Hat.wav
64,192,107021,1,0,0:0:0:90:kickdrum.wav
448,192,107193,1,0,0:0:0:70:Hat.wav
192,192,107364,1,0,0:0:0:90:kickdrum.wav
320,192,107364,1,0,0:0:0:0:
64,192,107536,128,0,107707:0:0:0:70:RD_Snare_9.wav
192,192,107707,1,0,0:0:0:90:kickdrum.wav
448,192,107707,128,0,108050:0:0:0:40:LR_Drum Low Long.wav
64,192,108050,1,0,0:0:0:90:kickdrum.wav
320,192,108050,1,0,0:0:0:0:
192,192,108221,1,0,0:0:0:70:Hat.wav
64,192,108393,128,0,108564:0:0:0:90:kickdrum.wav
320,192,108736,1,0,0:0:0:90:kickdrum.wav
448,192,108736,1,0,0:0:0:0:
192,192,108907,1,0,0:0:0:70:RD_Snare_9.wav
448,192,109079,128,0,109250:0:0:0:90:kickdrum.wav
64,192,109421,1,0,0:0:0:90:kickdrum.wav
320,192,109421,1,0,0:0:0:0:
192,192,109593,1,0,0:0:0:70:Hat.wav
448,192,109764,1,0,0:0:0:90:kickdrum.wav
320,192,109936,1,0,0:0:0:70:Hat.wav
64,192,110107,1,0,0:0:0:90:kickdrum.wav
192,192,110107,1,0,0:0:0:0:
448,192,110279,1,0,0:0:0:70:RD_Snare_9.wav
320,192,110364,1,0,0:0:0:90:kickdrum.wav
192,192,110450,1,0,0:0:0:90:kickdrum.wav
448,192,110621,1,0,0:0:0:90:kickdrum.wav
320,192,110707,1,0,0:0:0:90:kickdrum.wav
64,192,110793,1,0,0:0:0:70:Finish.wav
192,192,110793,1,0,0:0:0:90:kickdrum.wav
448,192,110964,1,0,0:0:0:70:Hat.wav
320,192,111136,1,0,0:0:0:90:kickdrum.wav
192,192,111307,1,0,0:0:0:70:Hat.wav
320,192,111479,1,0,0:0:0:90:kickdrum.wav
448,192,111479,1,0,0:0:0:0:
64,192,111650,1,0,0:0:0:70:RD_Snare_9.wav
192,192,111821,128,0,112164:0:0:0:70:Finish.wav
448,192,111821,1,0,0:0:0:90:kickdrum.wav
320,192,112164,1,0,0:0:0:70:Finish.wav
448,192,112336,1,0,0:0:0:70:Hat.wav
192,192,112507,1,0,0:0:0:90:kickdrum.wav
320,192,112679,1,0,0:0:0:70:Hat.wav
64,192,112850,1,0,0:0:0:90:kickdrum.wav
448,192,112850,1,0,0:0:0:0:
192,192,113021,128,0,113193:0:0:0:70:RD_Snare_9.wav
320,192,113193,128,0,113536:0:0:0:70:Finish.wav
448,192,113193,1,0,0:0:0:90:kickdrum.wav
64,192,113364,1,0,0:0:0:90:kickdrum.wav
192,192,113536,1,0,0:0:0:0:
448,192,113707,1,0,0:0:0:0:
320,192,113793,1,0,0:0:0:0:
192,192,113879,1,0,0:0:0:0:
448,192,114050,1,0,0:0:0:0:
320,192,114221,1,0,0:0:0:0:
64,192,114393,1,0,0:0:0:0:
192,192,114479,1,0,0:0:0:0:
320,192,114564,1,0,0:0:0:0:
64,192,114736,1,0,0:0:0:0:
192,192,114907,1,0,0:0:0:40:LR4_SnareKKF.wav
448,192,114907,1,0,0:0:0:0:
320,192,115079,1,0,0:0:0:0:
448,192,115164,1,0,0:0:0:0:
192,192,115250,1,0,0:0:0:0:
320,192,115421,1,0,0:0:0:40:LR4_SnareKKF.wav
448,192,115421,1,0,0:0:0:0:
64,192,115593,1,0,0:0:0:40:LR4_SnareKKF.wav
192,192,115593,1,0,0:0:0:0:
448,192,115764,1,0,0:0:0:40:japan_perc_10.wav
320,192,115850,1,0,0:0:0:40:japan_perc_10.wav
192,192,115936,128,0,116107:0:0:0:40:japan_perc_10.wav
320,192,116107,128,0,116279:0:0:0:40:japan_perc_10.wav
192,192,116279,128,0,116450:0:0:0:50:japan_perc_9.wav
448,192,116279,1,0,0:0:0:70:Hat.wav
64,192,116450,128,0,116621:0:0:0:0:
320,192,116621,128,0,116793:0:0:0:0:
64,192,116964,128,0,117136:0:0:0:15:snare2.wav
192,192,117136,128,0,117307:0:0:0:0:
320,192,117307,128,0,117479:0:0:0:0:
448,192,117479,128,0,117650:0:0:0:0:
320,192,117650,128,0,118164:0:0:0:70:Hat.wav
448,192,118336,1,0,0:0:0:15:snare2.wav
64,192,118507,1,0,0:0:0:0:
192,192,118679,1,0,0:0:0:0:
320,192,118850,1,0,0:0:0:0:
64,192,119021,1,0,0:0:0:50:japan_perc_9.wav
192,192,119021,1,0,0:0:0:70:Hat.wav
448,192,119279,1,0,0:0:0:0:
320,192,119364,1,0,0:0:0:0:
64,192,119536,1,0,0:0:0:0:
448,192,119707,1,0,0:0:0:15:snare2.wav
64,192,119964,1,0,0:0:0:0:
192,192,120050,1,0,0:0:0:0:
320,192,120221,1,0,0:0:0:0:
448,192,120393,1,0,0:0:0:15:snare2.wav
192,192,120564,1,0,0:0:0:90:kickdrum.wav
320,192,120650,1,0,0:0:0:70:Sacco kick bounce.ogg
448,192,120736,1,0,0:0:0:70:Thick Kick.wav
64,192,120907,1,0,0:0:0:90:kickdrum.wav
320,192,121079,1,0,0:0:0:15:snare2.wav
192,192,121164,1,0,0:0:0:30:Muted Snare.wav
64,192,121250,1,0,0:0:0:70:Thick Kick.wav
320,192,121421,1,0,0:0:0:40:LR4_SnareKKF.wav
448,192,121421,1,0,0:0:0:0:
64,192,121593,1,0,0:0:0:40:LR4_SnareKKF.wav
192,192,121593,1,0,0:0:0:0:
320,192,121764,128,0,121936:0:0:0:50:japan_perc_9.wav
448,192,121764,1,0,0:0:0:90:kickdrum.wav
192,192,121936,128,0,122107:0:0:0:0:
320,192,122107,128,0,122279:0:0:0:70:Hat.wav
192,192,122450,128,0,122621:0:0:0:15:snare2.wav
320,192,122621,128,0,122793:0:0:0:0:
448,192,122793,128,0,122964:0:0:0:30:LR4_SnareKKF.wav
192,192,122964,128,0,123136:0:0:0:0:
64,192,123136,128,0,123650:0:0:0:90:kickdrum.wav
320,192,123307,1,0,0:0:0:50:japan_perc_10.wav
448,192,123479,1,0,0:0:0:50:japan_perc_10.wav
192,192,123650,1,0,0:0:0:50:japan_perc_10.wav
320,192,123821,1,0,0:0:0:50:japan_perc_10.wav
448,192,123993,1,0,0:0:0:50:japan_perc_10.wav
64,192,124164,1,0,0:0:0:100:japan_perc_10.wav
64,192,124336,1,0,0:0:0:100:japan_perc_10.wav
320,192,124507,128,0,125193:0:0:0:70:Hat.wav
448,192,124507,1,0,0:0:0:0:
192,192,125193,128,0,125536:0:0:0:70:Hat.wav
64,192,125879,128,0,126221:0:0:0:70:Hat.wav
448,192,126221,128,0,126393:0:0:0:70:Hat.wav
320,192,126393,128,0,126564:0:0:0:70:Hat.wav
64,192,126564,128,0,126907:0:0:0:70:Hat.wav
192,192,126907,128,0,127250:0:0:0:70:Hat.wav
64,192,127250,128,0,127936:0:0:0:70:kickdrum.wav
448,192,127250,1,0,0:0:0:0:
192,192,127593,1,0,0:0:0:70:Hat.wav
320,192,127764,1,0,0:0:0:70:Hat.wav
192,192,127936,1,0,0:0:0:50:LR4_SnareKKF.wav
448,192,127936,1,0,0:0:0:70:Hat.wav
192,192,128279,1,0,0:0:0:70:LR_Drum Low Long.wav
64,192,128621,1,0,0:0:0:70:kickdrum.wav
448,192,128621,128,0,129307:0:0:0:0:
320,192,128964,1,0,0:0:0:70:Hat.wav
192,192,129136,1,0,0:0:0:70:Hat.wav
64,192,129307,1,0,0:0:0:50:LR4_SnareKKF.wav
320,192,129307,1,0,0:0:0:70:Hat.wav
320,192,129650,1,0,0:0:0:70:LR_Drum Low Long.wav
192,192,129993,1,0,0:0:0:70:kickdrum.wav
448,192,129993,1,0,0:0:0:0:
64,192,130164,1,0,0:0:0:70:kickdrum.wav
320,192,130336,1,0,0:0:0:70:kickdrum.wav
448,192,130507,1,0,0:0:0:70:kickdrum.wav
64,192,130679,1,0,0:0:0:70:kickdrum.wav
192,192,130679,1,0,0:0:0:0:
320,192,130850,1,0,0:0:0:70:kickdrum.wav
448,192,131021,1,0,0:0:0:70:kickdrum.wav
192,192,131193,1,0,0:0:0:70:kickdrum.wav
64,192,131364,128,0,132050:0:0:0:70:kickdrum.wav
320,192,131364,128,0,131707:0:0:0:0:
192,192,131707,128,0,132050:0:0:0:70:kickdrum.wav
320,192,132050,128,0,132393:0:0:0:70:kickdrum.wav
448,192,132050,128,0,132736:0:0:0:0:
192,192,132393,128,0,132736:0:0:0:70:kickdrum.wav
64,192,132736,1,0,0:0:0:70:japan_perc_8.wav
320,192,132736,1,0,0:0:0:0:
192,192,134793,128,0,135136:0:0:0:0:
320,192,135136,128,0,135479:0:0:0:0:
64,192,135479,128,0,135821:0:0:0:70:Finish.wav
448,192,135479,1,0,0:0:0:90:kickdrum.wav
320,192,135821,1,0,0:0:0:70:clap.wav
448,192,135821,1,0,0:0:0:90:kickdrum.wav
192,192,135993,1,0,0:0:0:70:Hat.wav
448,192,136164,128,0,136507:0:0:0:90:kickdrum.wav
64,192,136507,1,0,0:0:0:70:clap.wav
320,192,136507,1,0,0:0:0:90:kickdrum.wav
192,192,136679,1,0,0:0:0:70:Hat.wav
448,192,136850,128,0,137021:0:0:0:90:kickdrum.wav
320,192,137107,1,0,0:0:0:0:
64,192,137193,1,0,0:0:0:70:clap.wav
192,192,137193,1,0,0:0:0:90:kickdrum.wav
448,192,137364,1,0,0:0:0:70:Hat.wav
64,192,137536,128,0,137707:0:0:0:90:kickdrum.wav
320,192,137879,1,0,0:0:0:70:clap.wav
448,192,137879,1,0,0:0:0:90:kickdrum.wav
192,192,138050,1,0,0:0:0:90:kickdrum.wav
448,192,138221,128,0,138564:0:0:0:90:kickdrum.wav
64,192,138564,1,0,0:0:0:70:clap.wav
192,192,138564,1,0,0:0:0:90:kickdrum.wav
320,192,138736,1,0,0:0:0:70:Hat.wav
448,192,138907,1,0,0:0:0:90:kickdrum.wav
64,192,139079,1,0,0:0:0:70:Hat.wav
192,192,139164,1,0,0:0:0:0:
320,192,139250,1,0,0:0:0:70:clap.wav
448,192,139250,1,0,0:0:0:90:kickdrum.wav
64,192,139421,1,0,0:0:0:70:Hat.wav
192,192,139593,1,0,0:0:0:70:Finish.wav
448,192,139593,1,0,0:0:0:90:kickdrum.wav
320,192,139764,1,0,0:0:0:70:RD_Snare_9.wav
64,192,139936,1,0,0:0:0:70:Finish.wav
192,192,139936,1,0,0:0:0:70:clap.wav
448,192,140107,1,0,0:0:0:70:RD_Snare_9.wav
64,192,140279,1,0,0:0:0:70:Finish.wav
192,192,140364,1,0,0:0:0:90:kickdrum.wav
448,192,140536,1,0,0:0:0:90:kickdrum.wav
320,192,140621,1,0,0:0:0:70:Finish.wav
64,192,140793,1,0,0:0:0:90:kickdrum.wav
192,192,140879,1,0,0:0:0:90:kickdrum.wav
320,192,140964,1,0,0:0:0:70:Finish.wav
448,192,140964,1,0,0:0:0:90:kickdrum.wav
64,192,141136,1,0,0:0:0:70:Hat.wav
192,192,141307,1,0,0:0:0:70:clap.wav
320,192,141479,1,0,0:0:0:70:Hat.wav
64,192,141650,1,0,0:0:0:70:Finish.wav
448,192,141650,1,0,0:0:0:90:kickdrum.wav
192,192,141821,1,0,0:0:0:70:Hat.wav
320,192,141993,1,0,0:0:0:70:clap.wav
64,192,142164,1,0,0:0:0:70:Hat.wav
320,192,142336,1,0,0:0:0:70:Finish.wav
448,192,142336,1,0,0:0:0:90:kickdrum.wav
192,192,142507,1,0,0:0:0:70:Hat.wav
64,192,142679,1,0,0:0:0:70:clap.wav
448,192,142850,1,0,0:0:0:70:Hat.wav
64,192,143021,1,0,0:0:0:70:Finish.wav
320,192,143021,1,0,0:0:0:90:kickdrum.wav
192,192,143364,1,0,0:0:0:70:clap.wav
320,192,143536,1,0,0:0:0:90:kickdrum.wav
64,192,143707,1,0,0:0:0:70:Finish.wav
448,192,143707,1,0,0:0:0:90:kickdrum.wav
320,192,144050,1,0,0:0:0:70:clap.wav
192,192,144221,1,0,0:0:0:90:kickdrum.wav
64,192,144393,1,0,0:0:0:70:Finish.wav
448,192,144393,1,0,0:0:0:90:kickdrum.wav
192,192,144564,1,0,0:0:0:90:kickdrum.wav
320,192,144650,1,0,0:0:0:70:RD_Snare_9.wav
64,192,144736,1,0,0:0:0:70:clap.wav
448,192,144907,1,0,0:0:0:90:kickdrum.wav
320,192,145250,1,0,0:0:0:70:japan_perc_4.wav
320,192,145421,1,0,0:0:0:70:japan_perc_4.wav
192,192,145593,1,0,0:0:0:70:japan_perc_4.wav
448,192,145764,1,0,0:0:0:70:japan_perc_4.wav
320,192,145850,1,0,0:0:0:90:kickdrum.wav
64,192,146021,1,0,0:0:0:90:kickdrum.wav
192,192,146107,1,0,0:0:0:90:kickdrum.wav
448,192,146279,1,0,0:0:0:90:kickdrum.wav
64,192,146450,1,0,0:0:0:70:Finish.wav
320,192,146450,128,0,146793:0:0:0:90:kickdrum.wav
192,192,146793,1,0,0:0:0:70:clap.wav
448,192,146793,1,0,0:0:0:90:kickdrum.wav
64,192,146964,1,0,0:0:0:70:Hat.wav
448,192,147136,128,0,147479:0:0:0:90:kickdrum.wav
192,192,147479,1,0,0:0:0:70:clap.wav
320,192,147479,1,0,0:0:0:90:kickdrum.wav
64,192,147650,1,0,0:0:0:70:Hat.wav
448,192,147821,128,0,147993:0:0:0:90:kickdrum.wav
320,192,148079,1,0,0:0:0:0:
64,192,148164,1,0,0:0:0:70:clap.wav
192,192,148164,1,0,0:0:0:90:kickdrum.wav
448,192,148336,1,0,0:0:0:70:Hat.wav
192,192,148507,128,0,148679:0:0:0:90:kickdrum.wav
64,192,148850,1,0,0:0:0:70:clap.wav
320,192,148850,1,0,0:0:0:90:kickdrum.wav
192,192,149021,1,0,0:0:0:90:kickdrum.wav
448,192,149193,128,0,149364:0:0:0:90:kickdrum.wav
64,192,149450,1,0,0:0:0:70:GMHiTom1_01.wav
192,192,149536,1,0,0:0:0:70:clap.wav
320,192,149536,1,0,0:0:0:90:kickdrum.wav
448,192,149707,1,0,0:0:0:70:Hat.wav
320,192,149879,1,0,0:0:0:90:kickdrum.wav
64,192,150050,1,0,0:0:0:70:Hat.wav
192,192,150136,1,0,0:0:0:70:GMMidTom1_01.wav
320,192,150221,1,0,0:0:0:70:clap.wav
448,192,150221,1,0,0:0:0:90:kickdrum.wav
64,192,150393,1,0,0:0:0:70:Hat.wav
192,192,150564,1,0,0:0:0:70:Finish.wav
320,192,150564,1,0,0:0:0:90:kickdrum.wav
448,192,150736,1,0,0:0:0:70:RD_Snare_9.wav
64,192,150907,1,0,0:0:0:70:clap.wav
192,192,150907,1,0,0:0:0:90:kickdrum.wav
320,192,151079,1,0,0:0:0:70:RD_Snare_9.wav
64,192,151250,1,0,0:0:0:70:Finish.wav
192,192,151336,1,0,0:0:0:90:kickdrum.wav
448,192,151421,1,0,0:0:0:70:RD_Snare_9.wav
320,192,151507,1,0,0:0:0:90:kickdrum.wav
192,192,151593,1,0,0:0:0:70:clap.wav
64,192,151764,1,0,0:0:0:90:kickdrum.wav
192,192,151850,1,0,0:0:0:90:kickdrum.wav
320,192,151936,1,0,0:0:0:70:Finish.wav
448,192,151936,1,0,0:0:0:90:kickdrum.wav
64,192,152107,1,0,0:0:0:70:Hat.wav
192,192,152279,1,0,0:0:0:70:clap.wav
448,192,152279,1,0,0:0:0:90:kickdrum.wav
320,192,152450,1,0,0:0:0:70:Hat.wav
64,192,152621,128,0,152793:0:0:0:90:kickdrum.wav
320,192,152964,1,0,0:0:0:70:clap.wav
448,192,152964,1,0,0:0:0:90:kickdrum.wav
192,192,153136,1,0,0:0:0:70:Hat.wav
448,192,153307,1,0,0:0:0:90:kickdrum.wav
320,192,153479,1,0,0:0:0:70:Hat.wav
64,192,153650,1,0,0:0:0:70:clap.wav
192,192,153650,1,0,0:0:0:90:kickdrum.wav
448,192,153821,1,0,0:0:0:70:Hat.wav
320,192,153993,1,0,0:0:0:90:kickdrum.wav
64,192,154164,1,0,0:0:0:70:Hat.wav
192,192,154336,1,0,0:0:0:70:clap.wav
320,192,154336,1,0,0:0:0:90:kickdrum.wav
448,192,154507,1,0,0:0:0:90:kickdrum.wav
64,192,154679,1,0,0:0:0:70:Finish.wav
192,192,154679,1,0,0:0:0:90:kickdrum.wav
64,192,155021,1,0,0:0:0:70:clap.wav
448,192,155021,1,0,0:0:0:90:kickdrum.wav
320,192,155193,1,0,0:0:0:70:Hat.wav
192,192,155364,1,0,0:0:0:90:kickdrum.wav
448,192,155536,1,0,0:0:0:70:Hat.wav
64,192,155707,1,0,0:0:0:70:clap.wav
320,192,155707,1,0,0:0:0:90:kickdrum.wav
192,192,155879,1,0,0:0:0:70:Hat.wav
320,192,156050,1,0,0:0:0:70:Finish.wav
448,192,156050,1,0,0:0:0:90:kickdrum.wav
192,192,156393,1,0,0:0:0:70:clap.wav
320,192,156393,1,0,0:0:0:90:kickdrum.wav
448,192,156564,1,0,0:0:0:70:RD_Snare_9.wav
64,192,156736,1,0,0:0:0:90:kickdrum.wav
192,192,156821,1,0,0:0:0:90:kickdrum.wav
448,192,156993,1,0,0:0:0:90:kickdrum.wav
320,192,157079,1,0,0:0:0:90:kickdrum.wav
64,192,157250,1,0,0:0:0:90:kickdrum.wav
192,192,157336,1,0,0:0:0:90:kickdrum.wav
320,192,157421,1,0,0:0:0:70:Finish.wav
448,192,157421,1,0,0:0:0:90:kickdrum.wav
192,192,157593,1,0,0:0:0:35:japan_perc_4.wav
320,192,157679,1,0,0:0:0:35:japan_perc_4.wav
64,192,157764,1,0,0:0:0:35:japan_perc_4.wav
448,192,157936,1,0,0:0:0:70:Hat.wav
64,192,158107,1,0,0:0:0:90:kickdrum.wav
192,192,158107,1,0,0:0:0:0:
320,192,158279,1,0,0:0:0:35:japan_perc_4.wav
192,192,158364,1,0,0:0:0:35:japan_perc_4.wav
448,192,158450,1,0,0:0:0:35:japan_perc_4.wav
64,192,158621,1,0,0:0:0:70:Hat.wav
320,192,158793,1,0,0:0:0:90:kickdrum.wav
448,192,158793,1,0,0:0:0:0:
192,192,158964,1,0,0:0:0:35:japan_perc_4.wav
320,192,159050,1,0,0:0:0:35:japan_perc_4.wav
64,192,159136,1,0,0:0:0:35:japan_perc_4.wav
448,192,159307,1,0,0:0:0:70:Hat.wav
64,192,159479,1,0,0:0:0:90:kickdrum.wav
192,192,159479,1,0,0:0:0:0:
320,192,159650,1,0,0:0:0:35:japan_perc_4.wav
192,192,159736,1,0,0:0:0:35:japan_perc_4.wav
448,192,159821,1,0,0:0:0:35:japan_perc_4.wav
64,192,159993,1,0,0:0:0:90:kickdrum.wav
320,192,160164,128,0,160850:0:0:0:70:japan_perc_8.wav
448,192,160164,1,0,0:0:0:0:
64,192,160850,1,0,0:0:0:70:japan_perc_4.wav
192,192,160850,1,0,0:0:0:30:snare2.wav
320,192,161021,1,0,0:0:0:70:japan_perc_4.wav
448,192,161021,1,0,0:0:0:30:snare2.wav
64,192,161193,1,0,0:0:0:70:japan_perc_4.wav
192,192,161193,1,0,0:0:0:30:snare2.wav
320,192,161536,1,0,0:0:0:90:kickdrum.wav
448,192,161536,1,0,0:0:0:0:
192,192,161707,1,0,0:0:0:90:kickdrum.wav
320,192,161793,1,0,0:0:0:90:kickdrum.wav
64,192,161879,1,0,0:0:0:90:kickdrum.wav
448,192,161879,1,0,0:0:0:0:
192,192,162050,1,0,0:0:0:90:kickdrum.wav
320,192,162050,1,0,0:0:0:0:
64,192,162393,1,0,0:0:0:70:japan_perc_4.wav
192,192,162393,1,0,0:0:0:30:snare2.wav
320,192,162564,1,0,0:0:0:70:japan_perc_4.wav
448,192,162564,1,0,0:0:0:30:snare2.wav
64,192,162907,1,0,0:0:0:50:japan_perc_9.wav
192,192,162907,1,0,0:0:0:70:LR_Kick Beat 2.wav
64,192,167707,1,0,0:0:0:20:snare2.wav
192,192,167707,1,0,0:0:0:0:
448,192,167900,1,0,0:0:0:70:Hat.wav
320,192,168050,1,0,0:0:0:70:Hat.wav
192,192,168393,1,0,0:0:0:70:Hat.wav
320,192,168736,1,0,0:0:0:70:Hat.wav
64,192,169079,1,0,0:0:0:70:japan_perc_3.wav
192,192,169079,1,0,0:0:0:0:
448,192,169421,1,0,0:0:0:70:Hat.wav
320,192,169764,1,0,0:0:0:70:Hat.wav
192,192,169936,1,0,0:0:0:70:Hat.wav
448,192,170107,1,0,0:0:0:70:Hat.wav
64,192,170450,1,0,0:0:0:20:snare2.wav
192,192,170450,1,0,0:0:0:0:
448,192,170793,1,0,0:0:0:70:Hat.wav
320,192,171136,1,0,0:0:0:70:Hat.wav
64,192,171307,1,0,0:0:0:70:Hat.wav
192,192,171479,1,0,0:0:0:70:Hat.wav
320,192,171821,1,0,0:0:0:70:japan_perc_3.wav
448,192,171821,1,0,0:0:0:0:
64,192,172164,1,0,0:0:0:70:Hat.wav
192,192,172507,1,0,0:0:0:70:Hat.wav
448,192,172679,1,0,0:0:0:70:Hat.wav
64,192,172850,1,0,0:0:0:70:Hat.wav
320,192,173193,1,0,0:0:0:15:snare2.wav
448,192,173193,1,0,0:0:0:0:
192,192,173536,1,0,0:0:0:70:Hat.wav
320,192,173879,1,0,0:0:0:40:LR_Kick Beat 2.wav
448,192,173879,1,0,0:0:0:70:Hat.wav
192,192,174221,1,0,0:0:0:70:Hat.wav
64,192,174564,1,0,0:0:0:70:japan_perc_3.wav
448,192,174564,1,0,0:0:0:70:Hat.wav
320,192,174907,1,0,0:0:0:40:LR_Kick Beat 2.wav
448,192,174907,1,0,0:0:0:70:Hat.wav
64,192,175250,1,0,0:0:0:70:Hat.wav
320,192,175421,1,0,0:0:0:70:Hat.wav
64,192,175593,1,0,0:0:0:40:LR_Kick Beat 2.wav
192,192,175593,1,0,0:0:0:70:Hat.wav
192,192,175936,1,0,0:0:0:15:snare2.wav
448,192,175936,1,0,0:0:0:70:Hat.wav
320,192,176279,1,0,0:0:0:70:Hat.wav
64,192,176621,1,0,0:0:0:40:LR_Kick Beat 2.wav
192,192,176621,1,0,0:0:0:70:Hat.wav
448,192,176793,1,0,0:0:0:0:
320,192,176964,1,0,0:0:0:70:Hat.wav
192,192,177136,1,0,0:0:0:0:
64,192,177307,1,0,0:0:0:70:japan_perc_3.wav
448,192,177307,1,0,0:0:0:70:Hat.wav
320,192,177650,1,0,0:0:0:40:LR_Kick Beat 2.wav
448,192,177650,1,0,0:0:0:70:Hat.wav
192,192,177821,1,0,0:0:0:0:
320,192,177993,1,0,0:0:0:70:Hat.wav
448,192,178164,1,0,0:0:0:70:Hat.wav
64,192,178336,1,0,0:0:0:40:LR_Kick Beat 2.wav
192,192,178336,1,0,0:0:0:70:Hat.wav
320,192,178507,1,0,0:0:0:0:
64,192,178679,1,0,0:0:0:15:snare2.wav
448,192,178679,1,0,0:0:0:70:Hat.wav
192,192,179021,1,0,0:0:0:70:Hat.wav
64,192,179193,1,0,0:0:0:0:
320,192,179364,1,0,0:0:0:40:LR_Kick Beat 2.wav
448,192,179364,1,0,0:0:0:70:Hat.wav
192,192,179707,1,0,0:0:0:70:Hat.wav
64,192,180050,1,0,0:0:0:70:japan_perc_3.wav
448,192,180050,1,0,0:0:0:70:Hat.wav
320,192,180221,1,0,0:0:0:0:
64,192,180393,1,0,0:0:0:40:LR_Kick Beat 2.wav
192,192,180393,1,0,0:0:0:70:Hat.wav
448,192,180564,1,0,0:0:0:0:
320,192,180736,1,0,0:0:0:70:Hat.wav
192,192,180907,1,0,0:0:0:70:Hat.wav
320,192,181079,1,0,0:0:0:40:LR_Kick Beat 2.wav
448,192,181079,1,0,0:0:0:70:Hat.wav
64,192,181250,1,0,0:0:0:0:
192,192,181421,1,0,0:0:0:15:snare2.wav
448,192,181421,1,0,0:0:0:70:Hat.wav
320,192,181764,1,0,0:0:0:70:Hat.wav
448,192,181936,1,0,0:0:0:0:
64,192,182107,1,0,0:0:0:40:LR_Kick Beat 2.wav
192,192,182107,1,0,0:0:0:70:Hat.wav
320,192,182279,1,0,0:0:0:0:
192,192,182450,1,0,0:0:0:70:Hat.wav
448,192,182621,1,0,0:0:0:0:
64,192,182793,1,0,0:0:0:70:japan_perc_3.wav
320,192,182793,1,0,0:0:0:70:Hat.wav
64,192,183136,1,0,0:0:0:40:LR_Kick Beat 2.wav
192,192,183136,1,0,0:0:0:70:Hat.wav
320,192,183307,1,0,0:0:0:0:
448,192,183479,1,0,0:0:0:70:Hat.wav
192,192,183650,1,0,0:0:0:70:Hat.wav
320,192,183821,1,0,0:0:0:40:LR_Kick Beat 2.wav
448,192,183821,1,0,0:0:0:70:Hat.wav
64,192,183993,1,0,0:0:0:0:
192,192,184164,1,0,0:0:0:15:snare2.wav
448,192,184164,1,0,0:0:0:70:Hat.wav
320,192,184507,1,0,0:0:0:70:Hat.wav
64,192,184850,1,0,0:0:0:45:japan_perc_don.wav
192,192,184850,1,0,0:0:0:0:
320,192,185021,1,0,0:0:0:50:japan_perc_3.wav
448,192,185107,1,0,0:0:0:45:japan_perc_don.wav
192,192,185193,1,0,0:0:0:45:japan_perc_don.wav
320,192,185364,1,0,0:0:0:50:japan_perc_3.wav
64,192,185536,1,0,0:0:0:45:japan_perc_don.wav
192,192,185536,1,0,0:0:0:0:
320,192,185707,1,0,0:0:0:50:japan_perc_3.wav
448,192,185793,1,0,0:0:0:45:japan_perc_don.wav
192,192,185879,1,0,0:0:0:45:japan_perc_don.wav
64,192,186050,1,0,0:0:0:50:japan_perc_3.wav
320,192,186221,1,0,0:0:0:45:japan_perc_don.wav
448,192,186221,1,0,0:0:0:0:
192,192,186393,1,0,0:0:0:50:japan_perc_3.wav
64,192,186479,1,0,0:0:0:45:japan_perc_don.wav
320,192,186564,1,0,0:0:0:45:japan_perc_don.wav
192,192,186736,1,0,0:0:0:45:japan_perc_don.wav
320,192,186907,1,0,0:0:0:45:japan_perc_don.wav
448,192,186907,1,0,0:0:0:0:
64,192,187079,1,0,0:0:0:45:japan_perc_don.wav
448,192,187250,1,0,0:0:0:45:japan_perc_don.wav
320,192,187336,1,0,0:0:0:45:japan_perc_don.wav
64,192,187421,1,0,0:0:0:45:japan_perc_don.wav
192,192,187507,1,0,0:0:0:45:japan_perc_don.wav
448,192,187593,1,0,0:0:0:45:japan_perc_don.wav
448,192,187764,1,0,0:0:0:45:japan_perc_don.wav
64,192,187936,1,0,0:0:0:45:japan_perc_don.wav
64,192,188107,1,0,0:0:0:45:japan_perc_don.wav
320,192,188279,1,0,0:0:0:45:japan_perc_don.wav
320,192,188450,1,0,0:0:0:45:japan_perc_don.wav
192,192,188621,1,0,0:0:0:45:japan_perc_don.wav
192,192,188793,1,0,0:0:0:45:japan_perc_don.wav
64,192,188964,128,0,189650:0:0:0:70:japan_perc_9.wav
448,192,188964,1,0,0:0:0:45:japan_perc_don.wav
192,192,189650,128,0,190336:0:0:0:0:
448,192,190336,128,0,190679:0:0:0:0:
320,192,190679,128,0,191021:0:0:0:0:
192,192,191021,128,0,191364:0:0:0:0:
64,192,191707,128,0,192050:0:0:0:70:japan_perc_9.wav
448,192,191707,1,0,0:0:0:45:japan_perc_don.wav
320,192,192221,128,0,192393:0:0:0:0:
192,192,192393,128,0,192736:0:0:0:0:
64,192,192736,128,0,193079:0:0:0:0:
192,192,193079,128,0,194450:0:0:0:0:
320,192,194450,1,0,0:0:0:90:kickdrum.wav
448,192,194450,1,0,0:0:0:0:
320,192,195821,1,0,0:0:0:90:kickdrum.wav
448,192,195821,1,0,0:0:0:0:
320,192,197193,1,0,0:0:0:90:kickdrum.wav
448,192,197193,1,0,0:0:0:0:
64,192,197364,1,0,0:0:0:90:kickdrum.wav
192,192,197536,1,0,0:0:0:90:kickdrum.wav
448,192,197536,1,0,0:0:0:0:
320,192,197707,1,0,0:0:0:90:kickdrum.wav
64,192,197879,128,0,198564:0:0:0:90:kickdrum.wav
192,192,197879,1,0,0:0:0:0:
448,192,198050,1,0,0:0:0:90:kickdrum.wav
192,192,198221,1,0,0:0:0:90:kickdrum.wav
320,192,198393,1,0,0:0:0:90:kickdrum.wav
192,192,198564,1,0,0:0:0:70:bell1.wav
448,192,198564,1,0,0:0:0:0:
192,192,199250,128,0,199593:0:0:0:0:
320,192,199593,128,0,199936:0:0:0:0:
64,192,199936,1,0,0:0:0:70:Finish.wav
448,192,199936,128,0,200279:0:0:0:90:kickdrum.wav
192,192,200279,1,0,0:0:0:70:clap.wav
320,192,200279,1,0,0:0:0:90:kickdrum.wav
64,192,200450,1,0,0:0:0:70:Hat.wav
192,192,200621,128,0,200964:0:0:0:90:kickdrum.wav
64,192,200964,1,0,0:0:0:70:clap.wav
320,192,200964,1,0,0:0:0:90:kickdrum.wav
448,192,201136,1,0,0:0:0:70:Hat.wav
192,192,201307,128,0,201479:0:0:0:90:kickdrum.wav
320,192,201564,1,0,0:0:0:0:
64,192,201650,1,0,0:0:0:70:clap.wav
448,192,201650,1,0,0:0:0:90:kickdrum.wav
192,192,201821,1,0,0:0:0:70:Hat.wav
320,192,201993,128,0,202164:0:0:0:90:kickdrum.wav
192,192,202336,1,0,0:0:0:70:clap.wav
448,192,202336,1,0,0:0:0:90:kickdrum.wav
320,192,202507,1,0,0:0:0:90:kickdrum.wav
64,192,202679,128,0,203021:0:0:0:90:kickdrum.wav
320,192,203021,1,0,0:0:0:70:clap.wav
448,192,203021,1,0,0:0:0:90:kickdrum.wav
192,192,203193,1,0,0:0:0:70:Hat.wav
448,192,203364,1,0,0:0:0:90:kickdrum.wav
320,192,203450,1,0,0:0:0:0:
64,192,203621,1,0,0:0:0:0:
192,192,203707,1,0,0:0:0:70:clap.wav
448,192,203707,1,0,0:0:0:90:kickdrum.wav
320,192,203879,1,0,0:0:0:70:Hat.wav
64,192,204050,1,0,0:0:0:70:Finish.wav
448,192,204050,1,0,0:0:0:90:kickdrum.wav
192,192,204221,1,0,0:0:0:70:RD_Snare_9.wav
64,192,204393,1,0,0:0:0:70:Finish.wav
320,192,204393,1,0,0:0:0:70:clap.wav
448,192,204564,1,0,0:0:0:70:RD_Snare_9.wav
64,192,204736,1,0,0:0:0:70:Finish.wav
192,192,204821,1,0,0:0:0:90:kickdrum.wav
448,192,204993,1,0,0:0:0:90:kickdrum.wav
320,192,205079,1,0,0:0:0:70:Finish.wav
64,192,205250,1,0,0:0:0:90:kickdrum.wav
192,192,205336,1,0,0:0:0:90:kickdrum.wav
320,192,205421,1,0,0:0:0:70:Finish.wav
448,192,205421,1,0,0:0:0:90:kickdrum.wav
64,192,205593,1,0,0:0:0:70:Hat.wav
320,192,205764,1,0,0:0:0:70:clap.wav
192,192,205936,1,0,0:0:0:70:Hat.wav
320,192,206107,1,0,0:0:0:70:Finish.wav
448,192,206107,1,0,0:0:0:90:kickdrum.wav
64,192,206279,1,0,0:0:0:70:Hat.wav
192,192,206450,1,0,0:0:0:70:clap.wav
320,192,206621,1,0,0:0:0:70:Hat.wav
64,192,206793,1,0,0:0:0:70:Finish.wav
192,192,206793,1,0,0:0:0:90:kickdrum.wav
448,192,206964,1,0,0:0:0:70:Hat.wav
320,192,207136,1,0,0:0:0:70:clap.wav
192,192,207307,1,0,0:0:0:70:Hat.wav
64,192,207479,1,0,0:0:0:70:Finish.wav
448,192,207479,1,0,0:0:0:90:kickdrum.wav
320,192,207821,1,0,0:0:0:70:clap.wav
64,192,207993,1,0,0:0:0:90:kickdrum.wav
320,192,208164,1,0,0:0:0:70:Finish.wav
448,192,208164,1,0,0:0:0:90:kickdrum.wav
192,192,208507,1,0,0:0:0:70:clap.wav
448,192,208679,1,0,0:0:0:90:kickdrum.wav
64,192,208850,1,0,0:0:0:70:Finish.wav
320,192,208850,1,0,0:0:0:90:kickdrum.wav
192,192,209021,1,0,0:0:0:90:kickdrum.wav
448,192,209107,1,0,0:0:0:70:RD_Snare_9.wav
320,192,209193,1,0,0:0:0:70:clap.wav
64,192,209364,1,0,0:0:0:90:kickdrum.wav
192,192,209707,1,0,0:0:0:70:japan_perc_4.wav
192,192,209879,1,0,0:0:0:70:japan_perc_4.wav
320,192,210050,1,0,0:0:0:70:japan_perc_4.wav
64,192,210221,1,0,0:0:0:70:japan_perc_4.wav
192,192,210307,1,0,0:0:0:90:kickdrum.wav
448,192,210479,1,0,0:0:0:90:kickdrum.wav
320,192,210564,1,0,0:0:0:90:kickdrum.wav
64,192,210736,1,0,0:0:0:90:kickdrum.wav
320,192,210907,1,0,0:0:0:70:Finish.wav
448,192,210907,128,0,211250:0:0:0:90:kickdrum.wav
64,192,211250,1,0,0:0:0:70:clap.wav
192,192,211250,1,0,0:0:0:90:kickdrum.wav
320,192,211421,1,0,0:0:0:70:Hat.wav
192,192,211593,128,0,211936:0:0:0:90:kickdrum.wav
64,192,211936,1,0,0:0:0:70:clap.wav
448,192,211936,1,0,0:0:0:90:kickdrum.wav
320,192,212107,1,0,0:0:0:70:Hat.wav
192,192,212279,128,0,212450:0:0:0:90:kickdrum.wav
64,192,212536,1,0,0:0:0:0:
320,192,212621,1,0,0:0:0:70:clap.wav
448,192,212621,1,0,0:0:0:90:kickdrum.wav
192,192,212793,1,0,0:0:0:70:Hat.wav
64,192,212964,128,0,213136:0:0:0:90:kickdrum.wav
320,192,213307,1,0,0:0:0:70:clap.wav
448,192,213307,1,0,0:0:0:90:kickdrum.wav
64,192,213479,1,0,0:0:0:90:kickdrum.wav
192,192,213650,128,0,213821:0:0:0:90:kickdrum.wav
448,192,213907,1,0,0:0:0:70:GMHiTom1_01.wav
64,192,213993,1,0,0:0:0:70:clap.wav
320,192,213993,1,0,0:0:0:90:kickdrum.wav
192,192,214164,1,0,0:0:0:70:Hat.wav
320,192,214336,1,0,0:0:0:90:kickdrum.wav
448,192,214421,1,0,0:0:0:0:
64,192,214593,1,0,0:0:0:70:GMMidTom1_01.wav
192,192,214679,1,0,0:0:0:70:clap.wav
320,192,214679,1,0,0:0:0:90:kickdrum.wav
448,192,214850,1,0,0:0:0:70:Hat.wav
64,192,215021,1,0,0:0:0:70:Finish.wav
192,192,215021,1,0,0:0:0:90:kickdrum.wav
320,192,215193,1,0,0:0:0:70:RD_Snare_9.wav
64,192,215364,1,0,0:0:0:70:clap.wav
448,192,215364,1,0,0:0:0:90:kickdrum.wav
192,192,215536,1,0,0:0:0:70:RD_Snare_9.wav
448,192,215707,1,0,0:0:0:70:Finish.wav
320,192,215793,1,0,0:0:0:90:kickdrum.wav
64,192,215879,1,0,0:0:0:70:RD_Snare_9.wav
192,192,215964,1,0,0:0:0:90:kickdrum.wav
320,192,216050,1,0,0:0:0:70:clap.wav
64,192,216221,1,0,0:0:0:90:kickdrum.wav
192,192,216307,1,0,0:0:0:90:kickdrum.wav
320,192,216393,1,0,0:0:0:70:Finish.wav
448,192,216393,1,0,0:0:0:90:kickdrum.wav
64,192,216564,1,0,0:0:0:70:Hat.wav
192,192,216736,1,0,0:0:0:70:clap.wav
320,192,216736,1,0,0:0:0:90:kickdrum.wav
448,192,216907,1,0,0:0:0:70:Hat.wav
64,192,217079,128,0,217250:0:0:0:90:kickdrum.wav
192,192,217421,1,0,0:0:0:70:clap.wav
448,192,217421,1,0,0:0:0:90:kickdrum.wav
320,192,217593,1,0,0:0:0:70:Hat.wav
64,192,217764,1,0,0:0:0:90:kickdrum.wav
192,192,217936,1,0,0:0:0:70:Hat.wav
320,192,218107,1,0,0:0:0:70:clap.wav
448,192,218107,1,0,0:0:0:90:kickdrum.wav
192,192,218279,1,0,0:0:0:70:Hat.wav
64,192,218450,1,0,0:0:0:90:kickdrum.wav
448,192,218621,1,0,0:0:0:70:Hat.wav
192,192,218793,1,0,0:0:0:70:clap.wav
320,192,218793,1,0,0:0:0:90:kickdrum.wav
64,192,218964,1,0,0:0:0:90:kickdrum.wav
320,192,219136,1,0,0:0:0:70:Finish.wav
448,192,219136,1,0,0:0:0:90:kickdrum.wav
64,192,219479,1,0,0:0:0:70:clap.wav
320,192,219479,1,0,0:0:0:90:kickdrum.wav
192,192,219650,1,0,0:0:0:70:Hat.wav
448,192,219821,1,0,0:0:0:90:kickdrum.wav
320,192,219993,1,0,0:0:0:70:Hat.wav
192,192,220164,1,0,0:0:0:70:clap.wav
448,192,220164,1,0,0:0:0:90:kickdrum.wav
64,192,220336,1,0,0:0:0:70:Hat.wav
320,192,220507,1,0,0:0:0:70:Finish.wav
448,192,220507,1,0,0:0:0:90:kickdrum.wav
192,192,220850,1,0,0:0:0:70:clap.wav
320,192,220850,1,0,0:0:0:90:kickdrum.wav
64,192,221021,1,0,0:0:0:70:RD_Snare_9.wav
448,192,221193,1,0,0:0:0:90:kickdrum.wav
320,192,221279,1,0,0:0:0:90:kickdrum.wav
64,192,221450,1,0,0:0:0:90:kickdrum.wav
192,192,221536,1,0,0:0:0:90:kickdrum.wav
448,192,221707,1,0,0:0:0:90:kickdrum.wav
320,192,221793,1,0,0:0:0:90:kickdrum.wav
64,192,221879,1,0,0:0:0:70:Finish.wav
192,192,221879,1,0,0:0:0:90:kickdrum.wav
320,192,222050,1,0,0:0:0:35:japan_perc_4.wav
448,192,222136,1,0,0:0:0:35:japan_perc_4.wav
192,192,222221,1,0,0:0:0:35:japan_perc_4.wav
64,192,222393,1,0,0:0:0:70:Hat.wav
320,192,222564,1,0,0:0:0:90:kickdrum.wav
448,192,222564,1,0,0:0:0:0:
192,192,222736,1,0,0:0:0:35:japan_perc_4.wav
64,192,222821,1,0,0:0:0:35:japan_perc_4.wav
320,192,222907,1,0,0:0:0:35:japan_perc_4.wav
448,192,223079,1,0,0:0:0:70:Hat.wav
64,192,223250,1,0,0:0:0:90:kickdrum.wav
192,192,223250,1,0,0:0:0:0:
320,192,223421,1,0,0:0:0:35:japan_perc_4.wav
448,192,223507,1,0,0:0:0:35:japan_perc_4.wav
192,192,223593,1,0,0:0:0:35:japan_perc_4.wav
64,192,223764,1,0,0:0:0:70:Hat.wav
320,192,223936,1,0,0:0:0:90:kickdrum.wav
448,192,223936,1,0,0:0:0:0:
192,192,224107,1,0,0:0:0:35:japan_perc_4.wav
64,192,224193,1,0,0:0:0:35:japan_perc_4.wav
320,192,224279,1,0,0:0:0:35:japan_perc_4.wav
448,192,224450,1,0,0:0:0:90:kickdrum.wav
64,192,224621,1,0,0:0:0:70:japan_perc_8.wav
192,192,224621,128,0,225307:0:0:0:0:
320,192,225307,1,0,0:0:0:70:japan_perc_4.wav
448,192,225307,1,0,0:0:0:30:snare2.wav
64,192,225479,1,0,0:0:0:70:japan_perc_4.wav
192,192,225479,1,0,0:0:0:30:snare2.wav
320,192,225650,1,0,0:0:0:70:japan_perc_4.wav
448,192,225650,1,0,0:0:0:30:snare2.wav
64,192,225993,1,0,0:0:0:90:kickdrum.wav
192,192,225993,1,0,0:0:0:0:
320,192,226164,1,0,0:0:0:90:kickdrum.wav
192,192,226250,1,0,0:0:0:90:kickdrum.wav
64,192,226336,1,0,0:0:0:90:kickdrum.wav
448,192,226336,1,0,0:0:0:0:
192,192,226507,1,0,0:0:0:90:kickdrum.wav
320,192,226507,1,0,0:0:0:0:
64,192,226850,1,0,0:0:0:70:japan_perc_4.wav
192,192,226850,1,0,0:0:0:30:snare2.wav
320,192,227021,1,0,0:0:0:70:japan_perc_4.wav
448,192,227021,1,0,0:0:0:30:snare2.wav
64,192,227364,1,0,0:0:0:70:Finish.wav
448,192,227364,1,0,0:0:0:90:kickdrum.wav
192,192,227536,1,0,0:0:0:70:Hat.wav
320,192,227707,1,0,0:0:0:70:clap.wav
64,192,227879,1,0,0:0:0:70:Hat.wav
192,192,228050,1,0,0:0:0:90:kickdrum.wav
448,192,228221,1,0,0:0:0:70:Hat.wav
320,192,228393,1,0,0:0:0:70:clap.wav
192,192,228564,1,0,0:0:0:70:Hat.wav
64,192,228736,1,0,0:0:0:90:kickdrum.wav
192,192,228907,1,0,0:0:0:70:Hat.wav
448,192,229079,1,0,0:0:0:70:clap.wav
320,192,229250,1,0,0:0:0:70:Hat.wav
192,192,229421,1,0,0:0:0:90:kickdrum.wav
448,192,229593,1,0,0:0:0:70:Hat.wav
64,192,229764,1,0,0:0:0:70:clap.wav
320,192,229936,1,0,0:0:0:90:kickdrum.wav
448,192,230107,1,0,0:0:0:90:kickdrum.wav
192,192,230279,1,0,0:0:0:70:Hat.wav
320,192,230450,1,0,0:0:0:70:clap.wav
64,192,230621,1,0,0:0:0:70:Hat.wav
192,192,230793,1,0,0:0:0:90:kickdrum.wav
320,192,230964,1,0,0:0:0:70:Hat.wav
64,192,231136,1,0,0:0:0:70:clap.wav
448,192,231307,1,0,0:0:0:70:Hat.wav
64,192,231479,128,0,231821:0:0:0:90:kickdrum.wav
192,192,231479,1,0,0:0:0:0:
320,192,231821,1,0,0:0:0:70:clap.wav
448,192,231821,128,0,232164:0:0:0:90:kickdrum.wav
64,192,232164,1,0,0:0:0:90:kickdrum.wav
192,192,232250,1,0,0:0:0:90:kickdrum.wav
448,192,232421,1,0,0:0:0:90:kickdrum.wav
320,192,232507,1,0,0:0:0:70:clap.wav
64,192,232679,1,0,0:0:0:90:kickdrum.wav
192,192,232764,1,0,0:0:0:90:kickdrum.wav
320,192,232850,1,0,0:0:0:70:Finish.wav
448,192,232850,1,0,0:0:0:90:kickdrum.wav
64,192,233021,1,0,0:0:0:30:Muted Snare.wav
192,192,233193,1,0,0:0:0:70:clap.wav
320,192,233364,1,0,0:0:0:30:Muted Snare.wav
64,192,233536,1,0,0:0:0:90:kickdrum.wav
192,192,233707,1,0,0:0:0:30:Muted Snare.wav
320,192,233879,1,0,0:0:0:70:clap.wav
448,192,234050,1,0,0:0:0:30:Muted Snare.wav
192,192,234221,1,0,0:0:0:90:kickdrum.wav
320,192,234393,1,0,0:0:0:30:Muted Snare.wav
64,192,234564,1,0,0:0:0:70:clap.wav
320,192,234736,128,0,234907:0:0:0:30:Muted Snare.wav
64,192,234907,1,0,0:0:0:90:kickdrum.wav
448,192,235079,128,0,235250:0:0:0:30:Muted Snare.wav
192,192,235250,1,0,0:0:0:70:clap.wav
320,192,235421,1,0,0:0:0:90:kickdrum.wav
64,192,235593,1,0,0:0:0:90:kickdrum.wav
320,192,235764,1,0,0:0:0:0:
192,192,235850,1,0,0:0:0:0:
64,192,235936,1,0,0:0:0:0:
448,192,236107,1,0,0:0:0:0:
64,192,236279,1,0,0:0:0:0:
320,192,236536,1,0,0:0:0:0:
192,192,236621,1,0,0:0:0:0:
64,192,236793,1,0,0:0:0:0:
320,192,237136,1,0,0:0:0:0:
448,192,237221,1,0,0:0:0:0:
192,192,237307,1,0,0:0:0:0:
320,192,237479,1,0,0:0:0:0:
64,192,237650,1,0,0:0:0:70:RD_Snare_9.wav
192,192,237821,1,0,0:0:0:70:RD_Snare_9.wav
64,192,237993,1,0,0:0:0:70:Finish.wav
320,192,237993,1,0,0:0:0:70:LR4_SnareKKF.wav
448,192,237993,1,0,0:0:0:0:
