osu file format v14

[General]
AudioFilename: audio.mp3
AudioLeadIn: 0
PreviewTime: 55398
Countdown: 0
SampleSet: Normal
StackLeniency: 0.7
Mode: 1
LetterboxInBreaks: 0
WidescreenStoryboard: 0

[Editor]
Bookmarks: 14362,28076,41790,55505,82933,110362,124076,139505,153219,166933,194362
DistanceSpacing: 1
BeatDivisor: 12
GridSize: 32
TimelineZoom: 3.899998

[Metadata]
Title:Water Lily
TitleUnicode:Water Lily
Artist:ARM
ArtistUnicode:ARM
Creator:tasuke912
Version:Suiren
Source:東方風神録 ~ Mountain of Faith.
Tags:_Rise IOSYS arrange zun native faith touhou 東方Project toho fuujinroku huujinroku bloom instrumental jazz
BeatmapID:3247900
BeatmapSetID:1590156

[Difficulty]
HPDrainRate:6
CircleSize:2
OverallDifficulty:6
ApproachRate:5
SliderMultiplier:1.4
SliderTickRate:1

[Events]
//Background and Video events
0,0,"water-lily-g4366fb875_1920.jpg",0,0
//Break Periods
//Storyboard Layer 0 (Background)
//Storyboard Layer 1 (Fail)
//Storyboard Layer 2 (Pass)
//Storyboard Layer 3 (Foreground)
//Storyboard Layer 4 (Overlay)
//Storyboard Sound Samples

[TimingPoints]
653,428.571428571429,4,1,0,70,1,0
55510,-100,4,1,0,70,0,1
82938,-100,4,1,0,70,0,0
194367,-80,4,1,0,70,0,1
211510,-80,4,1,0,70,0,0
211617,-100,4,1,0,50,0,0

[HitObjects]
256,192,6867,5,0,0:0:0:0:
256,192,7188,1,0,0:0:0:0:
256,192,7510,1,0,0:0:0:0:
256,192,7724,1,2,0:0:0:0:
256,192,8153,1,2,0:0:0:0:
256,192,8581,1,2,0:0:0:0:
256,192,9010,1,2,0:0:0:0:
256,192,9224,1,0,0:0:0:0:
256,192,9438,1,2,0:0:0:0:
256,192,9867,1,2,0:0:0:0:
256,192,10295,1,2,0:0:0:0:
256,192,10617,1,2,0:0:0:0:
256,192,10831,1,2,0:0:0:0:
256,192,10938,1,0,0:0:0:0:
256,192,11153,1,2,0:0:0:0:
256,192,11581,1,2,0:0:0:0:
256,192,12010,1,2,0:0:0:0:
256,192,12224,1,0,0:0:0:0:
256,192,12438,1,2,0:0:0:0:
256,192,12545,1,2,0:0:0:0:
256,192,12653,1,0,0:0:0:0:
256,192,12760,1,0,0:0:0:0:
256,192,12813,1,0,0:0:0:0:
256,192,12867,1,0,0:0:0:0:
256,192,12974,1,0,0:0:0:0:
256,192,13081,1,2,0:0:0:0:
256,192,13188,1,2,0:0:0:0:
256,192,13295,1,0,0:0:0:0:
256,192,13403,1,0,0:0:0:0:
256,192,13510,1,2,0:0:0:0:
256,192,13563,1,2,0:0:0:0:
256,192,13617,1,2,0:0:0:0:
256,192,13724,1,0,0:0:0:0:
256,192,13831,1,2,0:0:0:0:
256,192,13938,1,0,0:0:0:0:
256,192,14045,1,0,0:0:0:0:
256,192,14153,1,2,0:0:0:0:
256,192,14260,1,2,0:0:0:0:
256,192,14367,5,0,0:0:0:0:
256,192,14688,1,0,0:0:0:0:
256,192,14795,1,2,0:0:0:0:
256,192,14903,1,0,0:0:0:0:
256,192,15010,1,0,0:0:0:0:
256,192,15117,1,2,0:0:0:0:
256,192,15331,1,2,0:0:0:0:
256,192,15438,1,0,0:0:0:0:
256,192,15653,1,2,0:0:0:0:
256,192,15867,1,2,0:0:0:0:
256,192,15974,1,2,0:0:0:0:
256,192,16081,1,0,0:0:0:0:
256,192,16188,1,2,0:0:0:0:
256,192,16403,1,0,0:0:0:0:
256,192,16510,1,2,0:0:0:0:
256,192,16724,1,2,0:0:0:0:
256,192,16831,1,0,0:0:0:0:
256,192,16938,1,2,0:0:0:0:
256,192,16992,1,2,0:0:0:0:
256,192,17045,1,2,0:0:0:0:
256,192,17153,1,2,0:0:0:0:
256,192,17260,1,0,0:0:0:0:
256,192,17474,1,0,0:0:0:0:
256,192,17581,1,2,0:0:0:0:
256,192,17688,1,0,0:0:0:0:
256,192,17795,1,0,0:0:0:0:
256,192,18010,1,2,0:0:0:0:
256,192,18117,1,0,0:0:0:0:
256,192,18224,1,2,0:0:0:0:
256,192,18331,1,0,0:0:0:0:
256,192,18438,1,0,0:0:0:0:
256,192,18545,1,2,0:0:0:0:
256,192,18760,1,2,0:0:0:0:
256,192,18867,1,0,0:0:0:0:
256,192,19081,1,2,0:0:0:0:
256,192,19188,1,0,0:0:0:0:
256,192,19295,1,2,0:0:0:0:
256,192,19510,1,0,0:0:0:0:
256,192,19617,1,2,0:0:0:0:
256,192,19831,1,0,0:0:0:0:
256,192,19938,1,2,0:0:0:0:
256,192,20045,1,2,0:0:0:0:
256,192,20099,1,2,0:0:0:0:
256,192,20153,1,2,0:0:0:0:
256,192,20260,1,0,0:0:0:0:
256,192,20474,1,2,0:0:0:0:
256,192,20581,1,2,0:0:0:0:
256,192,20688,1,0,0:0:0:0:
256,192,20795,1,2,0:0:0:0:
256,192,20903,1,0,0:0:0:0:
256,192,21010,1,0,0:0:0:0:
256,192,21117,1,2,0:0:0:0:
256,192,21224,1,0,0:0:0:0:
256,192,21438,1,2,0:0:0:0:
256,192,21545,1,0,0:0:0:0:
256,192,21653,1,2,0:0:0:0:
256,192,21867,1,0,0:0:0:0:
256,192,21974,1,2,0:0:0:0:
256,192,22188,1,2,0:0:0:0:
256,192,22295,1,0,0:0:0:0:
256,192,22403,1,2,0:0:0:0:
256,192,22510,1,2,0:0:0:0:
256,192,22617,1,0,0:0:0:0:
256,192,22724,1,2,0:0:0:0:
256,192,22938,1,0,0:0:0:0:
256,192,23045,1,2,0:0:0:0:
256,192,23260,1,0,0:0:0:0:
256,192,23367,1,2,0:0:0:0:
256,192,23474,1,0,0:0:0:0:
256,192,23581,1,0,0:0:0:0:
256,192,23688,1,2,0:0:0:0:
256,192,23903,1,2,0:0:0:0:
256,192,24010,1,2,0:0:0:0:
256,192,24117,1,0,0:0:0:0:
256,192,24224,1,0,0:0:0:0:
256,192,24331,1,0,0:0:0:0:
256,192,24438,1,2,0:0:0:0:
256,192,24545,1,0,0:0:0:0:
256,192,24653,1,0,0:0:0:0:
256,192,24867,1,2,0:0:0:0:
256,192,24974,1,0,0:0:0:0:
256,192,25081,1,2,0:0:0:0:
256,192,25188,1,0,0:0:0:0:
256,192,25295,1,0,0:0:0:0:
256,192,25403,1,2,0:0:0:0:
256,192,25617,1,2,0:0:0:0:
256,192,25724,1,0,0:0:0:0:
256,192,25938,1,0,0:0:0:0:
256,192,26045,1,2,0:0:0:0:
256,192,26260,1,0,0:0:0:0:
256,192,26367,1,0,0:0:0:0:
256,192,26581,1,0,0:0:0:0:
256,192,26688,1,2,0:0:0:0:
256,192,26795,1,2,0:0:0:0:
256,192,26903,1,0,0:0:0:0:
256,192,27010,1,2,0:0:0:0:
256,192,27117,1,2,0:0:0:0:
256,192,27224,1,0,0:0:0:0:
256,192,27331,1,2,0:0:0:0:
256,192,27545,1,2,0:0:0:0:
256,192,27653,1,0,0:0:0:0:
256,192,27760,1,0,0:0:0:0:
256,192,27867,1,2,0:0:0:0:
256,192,27974,1,0,0:0:0:0:
256,192,28081,5,0,0:0:0:0:
256,192,28403,1,0,0:0:0:0:
256,192,28724,1,6,0:0:0:0:
256,192,29153,1,0,0:0:0:0:
256,192,29367,1,2,0:0:0:0:
256,192,29474,1,0,0:0:0:0:
256,192,29688,1,0,0:0:0:0:
256,192,29795,1,2,0:0:0:0:
256,192,30010,1,0,0:0:0:0:
256,192,30117,1,0,0:0:0:0:
256,192,30224,1,2,0:0:0:0:
256,192,30438,1,0,0:0:0:0:
256,192,30653,1,2,0:0:0:0:
256,192,30867,1,0,0:0:0:0:
256,192,30974,1,2,0:0:0:0:
256,192,31188,1,0,0:0:0:0:
256,192,31295,1,2,0:0:0:0:
256,192,31510,1,0,0:0:0:0:
256,192,31563,1,0,0:0:0:0:
256,192,31617,1,0,0:0:0:0:
256,192,31831,1,0,0:0:0:0:
256,192,32045,1,0,0:0:0:0:
256,192,32153,1,2,0:0:0:0:
256,192,32581,1,0,0:0:0:0:
256,192,32795,1,2,0:0:0:0:
256,192,33010,1,2,0:0:0:0:
256,192,33117,1,0,0:0:0:0:
256,192,33331,1,2,0:0:0:0:
256,192,33545,1,2,0:0:0:0:
256,192,33653,1,2,0:0:0:0:
256,192,33760,1,0,0:0:0:0:
256,192,33974,1,2,0:0:0:0:
256,192,34081,1,0,0:0:0:0:
256,192,34188,1,2,0:0:0:0:
256,192,34403,1,0,0:0:0:0:
256,192,34510,1,2,0:0:0:0:
256,192,34617,1,0,0:0:0:0:
256,192,34831,1,0,0:0:0:0:
256,192,34938,1,2,0:0:0:0:
256,192,35045,1,2,0:0:0:0:
256,192,35153,1,2,0:0:0:0:
256,192,35260,1,0,0:0:0:0:
256,192,35474,1,2,0:0:0:0:
256,192,35581,1,0,0:0:0:0:
256,192,36010,1,2,0:0:0:0:
256,192,36117,1,2,0:0:0:0:
256,192,36224,1,0,0:0:0:0:
256,192,36331,1,2,0:0:0:0:
256,192,36545,1,2,0:0:0:0:
256,192,36653,1,0,0:0:0:0:
256,192,36760,1,2,0:0:0:0:
256,192,36974,1,0,0:0:0:0:
256,192,37081,1,2,0:0:0:0:
256,192,37510,1,0,0:0:0:0:
256,192,37617,1,0,0:0:0:0:
256,192,37831,1,0,0:0:0:0:
256,192,37938,1,2,0:0:0:0:
256,192,38045,1,0,0:0:0:0:
256,192,38260,1,4,0:0:0:0:
256,192,38581,1,2,0:0:0:0:
256,192,38688,1,2,0:0:0:0:
256,192,38795,1,2,0:0:0:0:
256,192,39010,1,2,0:0:0:0:
256,192,39117,1,2,0:0:0:0:
256,192,39224,1,2,0:0:0:0:
256,192,39438,1,2,0:0:0:0:
256,192,39545,1,2,0:0:0:0:
256,192,39653,1,2,0:0:0:0:
256,192,39867,1,0,0:0:0:0:
256,192,40081,1,2,0:0:0:0:
256,192,40188,1,0,0:0:0:0:
256,192,40403,1,0,0:0:0:0:
256,192,40617,1,0,0:0:0:0:
256,192,40831,1,0,0:0:0:0:
256,192,40938,1,2,0:0:0:0:
256,192,41045,1,2,0:0:0:0:
256,192,41260,1,2,0:0:0:0:
256,192,41313,1,2,0:0:0:0:
256,192,41367,1,2,0:0:0:0:
256,192,41474,1,2,0:0:0:0:
256,192,41795,5,4,0:0:0:0:
256,192,42224,1,2,0:0:0:0:
256,192,42438,1,0,0:0:0:0:
256,192,42653,1,2,0:0:0:0:
256,192,43081,1,2,0:0:0:0:
256,192,43295,1,0,0:0:0:0:
256,192,43510,1,2,0:0:0:0:
256,192,43724,1,0,0:0:0:0:
256,192,43938,1,2,0:0:0:0:
256,192,44367,1,2,0:0:0:0:
256,192,44581,1,0,0:0:0:0:
256,192,44795,1,2,0:0:0:0:
256,192,45010,1,2,0:0:0:0:
256,192,45224,1,0,0:0:0:0:
256,192,45653,1,2,0:0:0:0:
256,192,45867,1,0,0:0:0:0:
256,192,46081,1,2,0:0:0:0:
256,192,46510,1,2,0:0:0:0:
256,192,46724,1,0,0:0:0:0:
256,192,46938,1,2,0:0:0:0:
256,192,47153,1,0,0:0:0:0:
256,192,47260,1,2,0:0:0:0:
256,192,47474,1,0,0:0:0:0:
256,192,47581,1,2,0:0:0:0:
256,192,47903,1,2,0:0:0:0:
256,192,48010,1,0,0:0:0:0:
256,192,48117,1,0,0:0:0:0:
256,192,48224,1,2,0:0:0:0:
256,192,48438,1,2,0:0:0:0:
256,192,48545,1,2,0:0:0:0:
256,192,48653,1,0,0:0:0:0:
256,192,48974,1,2,0:0:0:0:
256,192,49295,1,0,0:0:0:0:
256,192,49617,1,2,0:0:0:0:
256,192,49938,1,2,0:0:0:0:
256,192,50153,1,0,0:0:0:0:
256,192,50367,1,2,0:0:0:0:
256,192,50581,1,0,0:0:0:0:
256,192,50688,1,2,0:0:0:0:
256,192,50795,1,2,0:0:0:0:
256,192,51010,1,0,0:0:0:0:
256,192,51224,1,2,0:0:0:0:
256,192,51438,1,0,0:0:0:0:
256,192,51653,1,2,0:0:0:0:
256,192,51867,1,2,0:0:0:0:
256,192,51974,1,2,0:0:0:0:
256,192,52081,1,0,0:0:0:0:
256,192,52403,1,0,0:0:0:0:
256,192,52510,1,2,0:0:0:0:
256,192,52724,1,0,0:0:0:0:
256,192,52938,1,2,0:0:0:0:
256,192,53045,1,2,0:0:0:0:
256,192,53153,1,0,0:0:0:0:
256,192,53367,1,2,0:0:0:0:
256,192,53581,1,4,0:0:0:0:
256,192,53903,1,2,0:0:0:0:
256,192,54010,1,0,0:0:0:0:
256,192,54224,1,2,0:0:0:0:
256,192,54438,1,4,0:0:0:0:
256,192,54867,1,2,0:0:0:0:
256,192,54938,1,0,0:0:0:0:
256,192,55010,1,0,0:0:0:0:
256,192,55081,1,0,0:0:0:0:
256,192,55188,1,2,0:0:0:0:
256,192,55295,1,2,0:0:0:0:
256,192,55403,1,2,0:0:0:0:
256,192,55510,5,0,0:0:0:0:
256,192,55617,1,0,0:0:0:0:
256,192,55831,1,0,0:0:0:0:
256,192,55938,1,2,0:0:0:0:
256,192,56045,1,0,0:0:0:0:
256,192,56153,1,0,0:0:0:0:
256,192,56260,1,2,0:0:0:0:
256,192,56474,1,2,0:0:0:0:
256,192,56581,1,0,0:0:0:0:
256,192,56795,1,0,0:0:0:0:
256,192,56903,1,2,0:0:0:0:
256,192,57224,1,0,0:0:0:0:
256,192,57438,1,0,0:0:0:0:
256,192,57545,1,2,0:0:0:0:
256,192,57653,1,0,0:0:0:0:
256,192,57760,1,0,0:0:0:0:
256,192,57867,1,2,0:0:0:0:
256,192,57974,1,0,0:0:0:0:
256,192,58081,1,2,0:0:0:0:
256,192,58135,1,2,0:0:0:0:
256,192,58188,1,2,0:0:0:0:
256,192,58295,1,2,0:0:0:0:
256,192,58403,1,0,0:0:0:0:
256,192,58617,1,0,0:0:0:0:
256,192,58724,1,2,0:0:0:0:
256,192,58831,1,0,0:0:0:0:
256,192,58938,1,0,0:0:0:0:
256,192,59153,1,0,0:0:0:0:
256,192,59260,1,0,0:0:0:0:
256,192,59367,1,2,0:0:0:0:
256,192,59474,1,2,0:0:0:0:
256,192,59688,1,2,0:0:0:0:
256,192,59795,1,0,0:0:0:0:
256,192,59903,1,2,0:0:0:0:
256,192,60010,1,2,0:0:0:0:
256,192,60117,1,0,0:0:0:0:
256,192,60224,1,2,0:0:0:0:
256,192,60331,1,0,0:0:0:0:
256,192,60545,1,0,0:0:0:0:
256,192,60653,1,2,0:0:0:0:
256,192,60760,1,2,0:0:0:0:
256,192,60867,1,0,0:0:0:0:
256,192,61081,1,2,0:0:0:0:
256,192,61188,1,0,0:0:0:0:
256,192,61242,1,2,0:0:0:0:
256,192,61295,1,2,0:0:0:0:
256,192,61617,1,2,0:0:0:0:
256,192,61724,1,2,0:0:0:0:
256,192,61831,1,0,0:0:0:0:
256,192,61938,1,0,0:0:0:0:
256,192,62045,1,2,0:0:0:0:
256,192,62260,1,2,0:0:0:0:
256,192,62367,1,0,0:0:0:0:
256,192,62581,1,2,0:0:0:0:
256,192,62688,1,0,0:0:0:0:
256,192,62795,1,0,0:0:0:0:
256,192,62903,1,2,0:0:0:0:
256,192,63117,1,2,0:0:0:0:
256,192,63170,1,2,0:0:0:0:
256,192,63331,1,2,0:0:0:0:
256,192,63438,1,0,0:0:0:0:
256,192,63653,1,2,0:0:0:0:
256,192,63760,1,0,0:0:0:0:
256,192,63867,1,2,0:0:0:0:
256,192,63974,1,2,0:0:0:0:
256,192,64081,1,0,0:0:0:0:
256,192,64188,1,2,0:0:0:0:
256,192,64403,1,0,0:0:0:0:
256,192,64510,1,2,0:0:0:0:
256,192,64724,1,0,0:0:0:0:
256,192,64831,1,0,0:0:0:0:
256,192,65045,1,2,0:0:0:0:
256,192,65099,1,2,0:0:0:0:
256,192,65153,1,2,0:0:0:0:
256,192,65260,1,0,0:0:0:0:
256,192,65367,1,2,0:0:0:0:
256,192,65474,1,2,0:0:0:0:
256,192,65581,1,0,0:0:0:0:
256,192,65688,1,0,0:0:0:0:
256,192,65795,1,0,0:0:0:0:
256,192,66117,1,0,0:0:0:0:
256,192,66224,1,2,0:0:0:0:
256,192,66438,1,0,0:0:0:0:
256,192,66545,1,0,0:0:0:0:
256,192,66867,1,2,0:0:0:0:
256,192,67081,1,0,0:0:0:0:
256,192,67188,1,2,0:0:0:0:
256,192,67403,1,0,0:0:0:0:
256,192,67510,1,2,0:0:0:0:
256,192,67724,1,0,0:0:0:0:
256,192,67831,1,0,0:0:0:0:
256,192,67938,1,2,0:0:0:0:
256,192,68153,1,0,0:0:0:0:
256,192,68260,1,2,0:0:0:0:
256,192,68367,1,0,0:0:0:0:
256,192,68474,1,2,0:0:0:0:
256,192,68688,1,2,0:0:0:0:
256,192,68795,1,0,0:0:0:0:
256,192,68903,1,0,0:0:0:0:
256,192,69010,1,2,0:0:0:0:
256,192,69117,1,0,0:0:0:0:
256,192,69224,1,0,0:0:0:0:
256,192,69331,1,2,0:0:0:0:
256,192,69545,1,2,0:0:0:0:
256,192,69653,1,0,0:0:0:0:
256,192,69760,1,0,0:0:0:0:
256,192,69867,1,0,0:0:0:0:
256,192,69974,1,2,0:0:0:0:
256,192,70188,1,2,0:0:0:0:
256,192,70295,1,0,0:0:0:0:
256,192,70403,1,0,0:0:0:0:
256,192,70510,1,2,0:0:0:0:
256,192,70617,1,2,0:0:0:0:
256,192,70831,1,2,0:0:0:0:
256,192,70938,1,0,0:0:0:0:
256,192,71045,1,0,0:0:0:0:
256,192,71260,1,0,0:0:0:0:
256,192,71367,1,2,0:0:0:0:
256,192,71581,1,2,0:0:0:0:
256,192,71688,1,0,0:0:0:0:
256,192,71795,1,2,0:0:0:0:
256,192,71849,1,2,0:0:0:0:
256,192,71903,1,2,0:0:0:0:
256,192,72010,1,2,0:0:0:0:
256,192,72117,1,0,0:0:0:0:
256,192,72331,1,0,0:0:0:0:
256,192,72438,1,2,0:0:0:0:
256,192,72545,1,0,0:0:0:0:
256,192,72653,1,0,0:0:0:0:
256,192,72760,1,2,0:0:0:0:
256,192,72813,1,2,0:0:0:0:
256,192,72974,1,0,0:0:0:0:
256,192,73081,1,2,0:0:0:0:
256,192,73188,1,2,0:0:0:0:
256,192,73295,1,0,0:0:0:0:
256,192,73403,1,2,0:0:0:0:
256,192,73617,1,2,0:0:0:0:
256,192,73724,1,2,0:0:0:0:
256,192,73831,1,0,0:0:0:0:
256,192,73938,1,2,0:0:0:0:
256,192,74045,1,0,0:0:0:0:
256,192,74260,1,0,0:0:0:0:
256,192,74367,1,0,0:0:0:0:
256,192,74474,1,2,0:0:0:0:
256,192,74688,1,0,0:0:0:0:
256,192,74795,1,2,0:0:0:0:
256,192,74903,1,2,0:0:0:0:
256,192,74956,1,2,0:0:0:0:
256,192,75010,1,0,0:0:0:0:
256,192,75331,1,2,0:0:0:0:
256,192,75438,1,2,0:0:0:0:
256,192,75545,1,0,0:0:0:0:
256,192,75653,1,2,0:0:0:0:
256,192,75867,1,2,0:0:0:0:
256,192,75974,1,2,0:0:0:0:
256,192,76081,1,0,0:0:0:0:
256,192,76295,1,2,0:0:0:0:
256,192,76367,1,2,0:0:0:0:
256,192,76438,1,2,0:0:0:0:
256,192,76510,1,0,0:0:0:0:
256,192,76617,1,2,0:0:0:0:
256,192,76724,1,0,0:0:0:0:
256,192,76778,1,0,0:0:0:0:
256,192,76831,1,2,0:0:0:0:
256,192,76938,1,2,0:0:0:0:
256,192,77153,1,0,0:0:0:0:
256,192,77260,1,2,0:0:0:0:
256,192,77474,1,0,0:0:0:0:
256,192,77581,1,2,0:0:0:0:
256,192,77688,1,2,0:0:0:0:
256,192,77795,1,0,0:0:0:0:
256,192,78010,1,0,0:0:0:0:
256,192,78117,1,2,0:0:0:0:
256,192,78331,1,2,0:0:0:0:
256,192,78438,1,0,0:0:0:0:
256,192,78545,1,0,0:0:0:0:
256,192,78653,1,2,0:0:0:0:
256,192,78867,1,2,0:0:0:0:
256,192,78974,1,0,0:0:0:0:
256,192,79188,1,0,0:0:0:0:
256,192,79295,1,2,0:0:0:0:
256,192,79403,1,2,0:0:0:0:
256,192,79510,1,0,0:0:0:0:
256,192,79724,1,2,0:0:0:0:
256,192,79938,1,2,0:0:0:0:
256,192,80045,1,0,0:0:0:0:
256,192,80260,1,2,0:0:0:0:
256,192,80474,1,0,0:0:0:0:
256,192,80581,1,2,0:0:0:0:
256,192,80688,1,0,0:0:0:0:
256,192,80903,1,6,0:0:0:0:
256,192,81224,1,0,0:0:0:0:
256,192,81545,1,2,0:0:0:0:
256,192,81760,1,0,0:0:0:0:
256,192,81867,1,2,0:0:0:0:
256,192,82081,1,0,0:0:0:0:
256,192,82188,1,2,0:0:0:0:
256,192,82403,1,2,0:0:0:0:
256,192,82510,1,0,0:0:0:0:
256,192,82617,1,0,0:0:0:0:
256,192,82724,1,2,0:0:0:0:
256,192,82831,1,0,0:0:0:0:
256,192,82938,5,0,0:0:0:0:
256,192,83260,1,0,0:0:0:0:
256,192,83367,1,2,0:0:0:0:
256,192,83474,1,2,0:0:0:0:
256,192,83688,1,0,0:0:0:0:
256,192,84010,1,0,0:0:0:0:
256,192,84224,1,2,0:0:0:0:
256,192,84331,1,0,0:0:0:0:
256,192,84653,1,0,0:0:0:0:
256,192,84974,1,0,0:0:0:0:
256,192,85081,1,2,0:0:0:0:
256,192,85295,1,2,0:0:0:0:
256,192,85510,1,2,0:0:0:0:
256,192,85563,1,2,0:0:0:0:
256,192,85617,1,0,0:0:0:0:
256,192,85724,1,2,0:0:0:0:
256,192,85831,1,0,0:0:0:0:
256,192,86045,1,0,0:0:0:0:
256,192,86153,1,2,0:0:0:0:
256,192,86260,1,0,0:0:0:0:
256,192,86474,1,0,0:0:0:0:
256,192,86688,1,0,0:0:0:0:
256,192,86795,1,2,0:0:0:0:
256,192,86903,1,2,0:0:0:0:
256,192,87117,1,0,0:0:0:0:
256,192,87331,1,0,0:0:0:0:
256,192,87545,1,0,0:0:0:0:
256,192,87653,1,2,0:0:0:0:
256,192,87760,1,0,0:0:0:0:
256,192,87867,1,2,0:0:0:0:
256,192,87974,1,2,0:0:0:0:
256,192,88081,1,0,0:0:0:0:
256,192,88188,1,2,0:0:0:0:
256,192,88295,1,0,0:0:0:0:
256,192,88510,1,2,0:0:0:0:
256,192,88617,1,0,0:0:0:0:
256,192,88670,1,0,0:0:0:0:
256,192,88724,1,2,0:0:0:0:
256,192,89045,1,2,0:0:0:0:
256,192,89153,1,2,0:0:0:0:
256,192,89260,1,0,0:0:0:0:
256,192,89367,1,2,0:0:0:0:
256,192,89474,1,0,0:0:0:0:
256,192,89581,1,2,0:0:0:0:
256,192,89688,1,2,0:0:0:0:
256,192,89795,1,0,0:0:0:0:
256,192,90117,1,0,0:0:0:0:
256,192,90224,1,2,0:0:0:0:
256,192,90438,1,2,0:0:0:0:
256,192,90545,1,2,0:0:0:0:
256,192,90653,1,0,0:0:0:0:
256,192,90760,1,2,0:0:0:0:
256,192,90867,1,0,0:0:0:0:
256,192,91081,1,2,0:0:0:0:
256,192,91188,1,0,0:0:0:0:
256,192,91295,1,2,0:0:0:0:
256,192,91403,1,2,0:0:0:0:
256,192,91510,1,0,0:0:0:0:
256,192,91617,1,2,0:0:0:0:
256,192,91831,1,0,0:0:0:0:
256,192,91938,1,2,0:0:0:0:
256,192,92153,1,0,0:0:0:0:
256,192,92260,1,0,0:0:0:0:
256,192,92474,1,0,0:0:0:0:
256,192,92581,1,2,0:0:0:0:
256,192,92688,1,0,0:0:0:0:
256,192,92795,1,0,0:0:0:0:
256,192,92867,1,2,0:0:0:0:
256,192,92938,1,2,0:0:0:0:
256,192,93010,1,2,0:0:0:0:
256,192,93117,1,0,0:0:0:0:
256,192,93224,1,2,0:0:0:0:
256,192,93545,1,2,0:0:0:0:
256,192,93653,1,0,0:0:0:0:
256,192,93760,1,0,0:0:0:0:
256,192,93867,1,2,0:0:0:0:
256,192,94188,1,2,0:0:0:0:
256,192,94295,1,0,0:0:0:0:
256,192,94403,1,0,0:0:0:0:
256,192,94510,1,2,0:0:0:0:
256,192,94617,1,0,0:0:0:0:
256,192,94724,1,2,0:0:0:0:
256,192,94831,1,2,0:0:0:0:
256,192,94938,1,0,0:0:0:0:
256,192,95045,1,2,0:0:0:0:
256,192,95153,1,2,0:0:0:0:
256,192,95260,1,0,0:0:0:0:
256,192,95367,1,2,0:0:0:0:
256,192,95474,1,0,0:0:0:0:
256,192,95581,1,2,0:0:0:0:
256,192,95688,1,0,0:0:0:0:
256,192,95795,1,0,0:0:0:0:
256,192,95903,1,2,0:0:0:0:
256,192,96117,1,2,0:0:0:0:
256,192,96224,1,0,0:0:0:0:
256,192,96331,1,2,0:0:0:0:
256,192,96438,1,0,0:0:0:0:
256,192,96545,1,0,0:0:0:0:
256,192,96653,5,0,0:0:0:0:
256,192,96974,1,2,0:0:0:0:
256,192,97295,1,0,0:0:0:0:
256,192,97403,1,0,0:0:0:0:
256,192,97724,1,0,0:0:0:0:
256,192,97938,1,2,0:0:0:0:
256,192,98045,1,0,0:0:0:0:
256,192,98153,1,2,0:0:0:0:
256,192,98260,1,2,0:0:0:0:
256,192,98367,1,0,0:0:0:0:
256,192,98474,1,2,0:0:0:0:
256,192,98688,1,2,0:0:0:0:
256,192,98795,1,0,0:0:0:0:
256,192,99010,1,0,0:0:0:0:
256,192,99117,1,2,0:0:0:0:
256,192,99331,1,2,0:0:0:0:
256,192,99438,1,2,0:0:0:0:
256,192,99545,1,0,0:0:0:0:
256,192,99760,1,0,0:0:0:0:
256,192,99867,1,2,0:0:0:0:
256,192,100081,1,2,0:0:0:0:
256,192,100188,1,0,0:0:0:0:
256,192,100403,1,2,0:0:0:0:
256,192,100510,1,0,0:0:0:0:
256,192,100617,1,0,0:0:0:0:
256,192,100724,1,0,0:0:0:0:
256,192,100831,1,2,0:0:0:0:
256,192,101153,1,0,0:0:0:0:
256,192,101367,1,2,0:0:0:0:
256,192,101474,1,2,0:0:0:0:
256,192,101688,1,2,0:0:0:0:
256,192,101795,1,0,0:0:0:0:
256,192,102010,1,0,0:0:0:0:
256,192,102117,1,2,0:0:0:0:
256,192,102331,1,0,0:0:0:0:
256,192,102438,1,2,0:0:0:0:
256,192,102545,1,2,0:0:0:0:
256,192,102653,1,0,0:0:0:0:
256,192,102760,1,2,0:0:0:0:
256,192,102974,1,2,0:0:0:0:
256,192,103081,1,0,0:0:0:0:
256,192,103188,1,0,0:0:0:0:
256,192,103295,1,2,0:0:0:0:
256,192,103403,1,0,0:0:0:0:
256,192,103510,1,0,0:0:0:0:
256,192,103724,1,2,0:0:0:0:
256,192,103831,1,2,0:0:0:0:
256,192,104045,1,2,0:0:0:0:
256,192,104153,1,0,0:0:0:0:
256,192,104367,1,2,0:0:0:0:
256,192,104474,1,2,0:0:0:0:
256,192,104581,1,0,0:0:0:0:
256,192,104795,1,2,0:0:0:0:
256,192,104903,1,0,0:0:0:0:
256,192,105010,1,2,0:0:0:0:
256,192,105117,1,2,0:0:0:0:
256,192,105224,1,0,0:0:0:0:
256,192,105331,1,2,0:0:0:0:
256,192,105545,1,2,0:0:0:0:
256,192,105760,1,0,0:0:0:0:
256,192,105867,1,0,0:0:0:0:
256,192,105974,1,2,0:0:0:0:
256,192,106188,1,0,0:0:0:0:
256,192,106295,1,2,0:0:0:0:
256,192,106510,1,2,0:0:0:0:
256,192,106617,1,0,0:0:0:0:
256,192,106724,1,2,0:0:0:0:
256,192,106831,1,2,0:0:0:0:
256,192,106938,1,0,0:0:0:0:
256,192,107260,1,2,0:0:0:0:
256,192,107474,1,2,0:0:0:0:
256,192,107581,1,0,0:0:0:0:
256,192,107688,1,0,0:0:0:0:
256,192,108010,1,2,0:0:0:0:
256,192,108224,1,0,0:0:0:0:
256,192,108331,1,2,0:0:0:0:
256,192,108438,1,0,0:0:0:0:
256,192,108545,1,0,0:0:0:0:
256,192,108867,1,6,0:0:0:0:
256,192,109188,1,6,0:0:0:0:
256,192,109510,1,6,0:0:0:0:
256,192,109938,1,0,0:0:0:0:
256,192,110010,1,0,0:0:0:0:
256,192,110081,1,0,0:0:0:0:
256,192,110153,1,2,0:0:0:0:
256,192,110224,1,2,0:0:0:0:
256,192,110295,1,2,0:0:0:0:
256,192,110367,5,0,0:0:0:0:
256,192,110581,1,0,0:0:0:0:
256,192,110688,1,2,0:0:0:0:
256,192,110903,1,2,0:0:0:0:
256,192,111010,1,0,0:0:0:0:
256,192,111117,1,0,0:0:0:0:
256,192,111438,1,2,0:0:0:0:
256,192,111653,1,2,0:0:0:0:
256,192,111760,1,0,0:0:0:0:
256,192,111867,1,2,0:0:0:0:
256,192,111974,1,2,0:0:0:0:
256,192,112081,1,0,0:0:0:0:
256,192,112188,1,2,0:0:0:0:
256,192,112403,1,2,0:0:0:0:
256,192,112510,1,0,0:0:0:0:
256,192,112617,1,0,0:0:0:0:
256,192,112724,1,0,0:0:0:0:
256,192,112831,1,2,0:0:0:0:
256,192,113045,1,0,0:0:0:0:
256,192,113153,1,2,0:0:0:0:
256,192,113260,1,0,0:0:0:0:
256,192,113474,1,0,0:0:0:0:
256,192,113581,1,2,0:0:0:0:
256,192,113688,1,0,0:0:0:0:
256,192,113795,1,0,0:0:0:0:
256,192,113903,1,2,0:0:0:0:
256,192,114117,1,2,0:0:0:0:
256,192,114331,1,0,0:0:0:0:
256,192,114438,1,0,0:0:0:0:
256,192,114545,1,2,0:0:0:0:
256,192,114653,1,2,0:0:0:0:
256,192,114867,1,0,0:0:0:0:
256,192,115081,1,2,0:0:0:0:
256,192,115188,1,2,0:0:0:0:
256,192,115403,1,0,0:0:0:0:
256,192,115510,1,0,0:0:0:0:
256,192,115724,1,0,0:0:0:0:
256,192,115831,1,2,0:0:0:0:
256,192,116045,1,0,0:0:0:0:
256,192,116153,1,2,0:0:0:0:
256,192,116260,1,0,0:0:0:0:
256,192,116367,1,0,0:0:0:0:
256,192,116474,1,2,0:0:0:0:
256,192,116688,1,2,0:0:0:0:
256,192,116795,1,0,0:0:0:0:
256,192,116903,1,2,0:0:0:0:
256,192,117010,1,2,0:0:0:0:
256,192,117117,1,2,0:0:0:0:
256,192,117224,1,0,0:0:0:0:
256,192,117385,1,2,0:0:0:0:
256,192,117438,1,2,0:0:0:0:
256,192,117653,1,0,0:0:0:0:
256,192,117760,1,0,0:0:0:0:
256,192,117867,1,0,0:0:0:0:
256,192,117974,1,2,0:0:0:0:
256,192,118188,1,2,0:0:0:0:
256,192,118295,1,0,0:0:0:0:
256,192,118510,1,2,0:0:0:0:
256,192,118617,1,0,0:0:0:0:
256,192,118724,1,2,0:0:0:0:
256,192,118831,1,2,0:0:0:0:
256,192,118938,1,0,0:0:0:0:
256,192,119045,1,2,0:0:0:0:
256,192,119260,1,2,0:0:0:0:
256,192,119367,1,2,0:0:0:0:
256,192,119474,1,0,0:0:0:0:
256,192,119581,1,0,0:0:0:0:
256,192,119688,1,2,0:0:0:0:
256,192,119903,1,0,0:0:0:0:
256,192,120010,1,2,0:0:0:0:
256,192,120117,1,0,0:0:0:0:
256,192,120331,1,2,0:0:0:0:
256,192,120438,1,2,0:0:0:0:
256,192,120545,1,0,0:0:0:0:
256,192,120653,1,0,0:0:0:0:
256,192,120867,1,2,0:0:0:0:
256,192,120974,1,2,0:0:0:0:
256,192,121295,1,0,0:0:0:0:
256,192,121403,1,2,0:0:0:0:
256,192,121617,1,2,0:0:0:0:
256,192,121724,1,2,0:0:0:0:
256,192,122045,1,2,0:0:0:0:
256,192,122260,1,0,0:0:0:0:
256,192,122367,1,2,0:0:0:0:
256,192,122581,1,0,0:0:0:0:
256,192,122688,1,2,0:0:0:0:
256,192,122760,1,2,0:0:0:0:
256,192,122831,1,2,0:0:0:0:
256,192,122903,1,0,0:0:0:0:
256,192,123010,1,2,0:0:0:0:
256,192,123224,1,0,0:0:0:0:
256,192,123331,1,2,0:0:0:0:
256,192,123545,1,2,0:0:0:0:
256,192,123653,1,0,0:0:0:0:
256,192,123760,1,0,0:0:0:0:
256,192,123867,1,2,0:0:0:0:
256,192,123974,1,0,0:0:0:0:
256,192,124081,5,0,0:0:0:0:
256,192,124403,1,0,0:0:0:0:
256,192,124724,1,6,0:0:0:0:
256,192,125153,1,0,0:0:0:0:
256,192,125367,1,2,0:0:0:0:
256,192,125581,1,2,0:0:0:0:
256,192,125688,1,0,0:0:0:0:
256,192,125795,1,2,0:0:0:0:
256,192,126010,1,2,0:0:0:0:
256,192,126117,1,0,0:0:0:0:
256,192,126224,1,2,0:0:0:0:
256,192,126438,1,2,0:0:0:0:
256,192,126545,1,0,0:0:0:0:
256,192,126653,1,2,0:0:0:0:
256,192,126760,1,2,0:0:0:0:
256,192,126867,1,0,0:0:0:0:
256,192,126974,1,2,0:0:0:0:
256,192,127081,1,2,0:0:0:0:
256,192,127188,1,0,0:0:0:0:
256,192,127295,1,2,0:0:0:0:
256,192,127403,1,2,0:0:0:0:
256,192,127510,1,0,0:0:0:0:
256,192,127563,1,0,0:0:0:0:
256,192,127617,1,0,0:0:0:0:
256,192,127831,1,0,0:0:0:0:
256,192,128045,1,0,0:0:0:0:
256,192,128153,1,2,0:0:0:0:
256,192,128528,1,2,0:0:0:0:
256,192,128581,1,2,0:0:0:0:
256,192,128795,1,2,0:0:0:0:
256,192,129010,1,0,0:0:0:0:
256,192,129117,1,2,0:0:0:0:
256,192,129331,1,0,0:0:0:0:
256,192,129545,1,2,0:0:0:0:
256,192,129653,1,2,0:0:0:0:
256,192,129760,1,0,0:0:0:0:
256,192,129974,1,0,0:0:0:0:
256,192,130081,1,2,0:0:0:0:
256,192,130188,1,2,0:0:0:0:
256,192,130403,1,2,0:0:0:0:
256,192,130510,1,2,0:0:0:0:
256,192,130617,1,0,0:0:0:0:
256,192,130831,1,0,0:0:0:0:
256,192,130938,1,2,0:0:0:0:
256,192,131045,1,2,0:0:0:0:
256,192,131153,1,2,0:0:0:0:
256,192,131260,1,0,0:0:0:0:
256,192,131474,1,2,0:0:0:0:
256,192,131581,1,0,0:0:0:0:
256,192,132010,1,0,0:0:0:0:
256,192,132117,1,0,0:0:0:0:
256,192,132224,1,2,0:0:0:0:
256,192,132438,1,2,0:0:0:0:
256,192,132545,1,2,0:0:0:0:
256,192,132653,1,0,0:0:0:0:
256,192,132760,1,2,0:0:0:0:
256,192,132974,1,2,0:0:0:0:
256,192,133081,1,0,0:0:0:0:
256,192,133188,1,0,0:0:0:0:
256,192,133295,1,2,0:0:0:0:
256,192,133403,1,0,0:0:0:0:
256,192,133510,1,2,0:0:0:0:
256,192,133617,1,2,0:0:0:0:
256,192,133724,1,2,0:0:0:0:
256,192,133831,1,0,0:0:0:0:
256,192,134045,1,2,0:0:0:0:
256,192,134260,1,4,0:0:0:0:
256,192,134581,1,2,0:0:0:0:
256,192,134688,1,2,0:0:0:0:
256,192,134795,1,2,0:0:0:0:
256,192,135010,1,2,0:0:0:0:
256,192,135117,1,2,0:0:0:0:
256,192,135224,1,2,0:0:0:0:
256,192,135438,1,2,0:0:0:0:
256,192,135545,1,2,0:0:0:0:
256,192,135653,1,2,0:0:0:0:
256,192,135867,1,0,0:0:0:0:
256,192,136081,1,2,0:0:0:0:
256,192,136188,1,0,0:0:0:0:
256,192,136403,1,0,0:0:0:0:
256,192,136617,1,0,0:0:0:0:
256,192,136831,1,0,0:0:0:0:
256,192,136938,1,2,0:0:0:0:
256,192,137045,1,2,0:0:0:0:
256,192,137260,1,2,0:0:0:0:
256,192,137313,1,2,0:0:0:0:
256,192,137367,1,2,0:0:0:0:
256,192,137474,1,2,0:0:0:0:
256,192,137795,1,2,0:0:0:0:
256,192,137903,1,2,0:0:0:0:
256,192,138117,1,0,0:0:0:0:
256,192,138224,1,2,0:0:0:0:
256,192,138438,1,2,0:0:0:0:
256,192,138545,1,2,0:0:0:0:
256,192,138653,1,0,0:0:0:0:
256,192,138760,1,2,0:0:0:0:
256,192,138867,1,0,0:0:0:0:
256,192,138938,1,0,0:0:0:0:
256,192,139010,1,0,0:0:0:0:
256,192,139081,1,2,0:0:0:0:
256,192,139188,1,2,0:0:0:0:
256,192,139295,1,2,0:0:0:0:
256,192,139403,1,2,0:0:0:0:
256,192,139510,5,0,0:0:0:0:
256,192,139938,1,2,0:0:0:0:
256,192,140153,1,0,0:0:0:0:
256,192,140367,1,2,0:0:0:0:
256,192,140795,1,2,0:0:0:0:
256,192,141010,1,0,0:0:0:0:
256,192,141224,1,2,0:0:0:0:
256,192,141438,1,0,0:0:0:0:
256,192,141653,1,2,0:0:0:0:
256,192,142081,1,2,0:0:0:0:
256,192,142295,1,0,0:0:0:0:
256,192,142510,1,2,0:0:0:0:
256,192,142724,1,2,0:0:0:0:
256,192,142938,1,0,0:0:0:0:
256,192,143367,1,2,0:0:0:0:
256,192,143581,1,0,0:0:0:0:
256,192,143795,1,2,0:0:0:0:
256,192,144224,1,2,0:0:0:0:
256,192,144438,1,0,0:0:0:0:
256,192,144653,1,2,0:0:0:0:
256,192,144867,1,0,0:0:0:0:
256,192,144974,1,2,0:0:0:0:
256,192,145188,1,0,0:0:0:0:
256,192,145295,1,2,0:0:0:0:
256,192,145617,1,2,0:0:0:0:
256,192,145724,1,0,0:0:0:0:
256,192,145831,1,0,0:0:0:0:
256,192,145938,1,2,0:0:0:0:
256,192,146045,1,2,0:0:0:0:
256,192,146153,1,2,0:0:0:0:
256,192,146260,1,2,0:0:0:0:
256,192,146367,1,0,0:0:0:0:
256,192,146688,1,2,0:0:0:0:
256,192,147010,1,0,0:0:0:0:
256,192,147224,1,2,0:0:0:0:
256,192,147545,1,2,0:0:0:0:
256,192,147599,1,2,0:0:0:0:
256,192,147653,1,2,0:0:0:0:
256,192,147867,1,0,0:0:0:0:
256,192,148081,1,2,0:0:0:0:
256,192,148295,1,0,0:0:0:0:
256,192,148403,1,2,0:0:0:0:
256,192,148510,1,2,0:0:0:0:
256,192,148724,1,0,0:0:0:0:
256,192,148938,1,2,0:0:0:0:
256,192,149045,1,2,0:0:0:0:
256,192,149153,1,0,0:0:0:0:
256,192,149367,1,2,0:0:0:0:
256,192,149581,1,0,0:0:0:0:
256,192,149795,1,0,0:0:0:0:
256,192,150010,1,2,0:0:0:0:
256,192,150331,1,6,0:0:0:0:
256,192,150653,1,0,0:0:0:0:
256,192,150760,1,2,0:0:0:0:
256,192,150974,1,2,0:0:0:0:
256,192,151188,1,2,0:0:0:0:
256,192,151295,1,0,0:0:0:0:
256,192,151403,1,0,0:0:0:0:
256,192,151510,1,2,0:0:0:0:
256,192,151724,1,0,0:0:0:0:
256,192,151938,1,2,0:0:0:0:
256,192,152045,1,2,0:0:0:0:
256,192,152153,1,0,0:0:0:0:
256,192,152367,1,2,0:0:0:0:
256,192,152474,1,2,0:0:0:0:
256,192,152581,1,0,0:0:0:0:
256,192,152653,1,0,0:0:0:0:
256,192,152724,1,0,0:0:0:0:
256,192,152795,1,0,0:0:0:0:
256,192,152903,1,2,0:0:0:0:
256,192,153010,1,2,0:0:0:0:
256,192,153117,1,2,0:0:0:0:
256,192,153224,5,2,0:0:0:0:
256,192,153331,1,0,0:0:0:0:
256,192,153545,1,0,0:0:0:0:
256,192,153867,1,2,0:0:0:0:
256,192,154081,1,2,0:0:0:0:
256,192,154188,1,0,0:0:0:0:
256,192,154403,1,0,0:0:0:0:
256,192,154724,1,2,0:0:0:0:
256,192,154778,1,2,0:0:0:0:
256,192,154938,1,2,0:0:0:0:
256,192,155045,1,0,0:0:0:0:
256,192,155260,1,0,0:0:0:0:
256,192,155474,1,0,0:0:0:0:
256,192,155581,1,2,0:0:0:0:
256,192,155688,1,0,0:0:0:0:
256,192,155903,1,0,0:0:0:0:
256,192,156117,1,2,0:0:0:0:
256,192,156224,1,0,0:0:0:0:
256,192,156295,1,2,0:0:0:0:
256,192,156367,1,2,0:0:0:0:
256,192,156438,1,0,0:0:0:0:
256,192,156545,1,0,0:0:0:0:
256,192,156653,1,2,0:0:0:0:
256,192,156760,1,0,0:0:0:0:
256,192,156974,1,0,0:0:0:0:
256,192,157295,1,2,0:0:0:0:
256,192,157510,1,2,0:0:0:0:
256,192,157617,1,0,0:0:0:0:
256,192,157831,1,0,0:0:0:0:
256,192,158153,1,2,0:0:0:0:
256,192,158367,1,2,0:0:0:0:
256,192,158474,1,2,0:0:0:0:
256,192,158581,1,0,0:0:0:0:
256,192,158688,1,0,0:0:0:0:
256,192,158795,1,2,0:0:0:0:
256,192,158903,1,0,0:0:0:0:
256,192,159010,1,0,0:0:0:0:
256,192,159117,1,2,0:0:0:0:
256,192,159438,1,0,0:0:0:0:
256,192,159545,1,0,0:0:0:0:
256,192,159653,1,2,0:0:0:0:
256,192,159867,1,0,0:0:0:0:
256,192,159974,1,2,0:0:0:0:
256,192,160081,1,2,0:0:0:0:
256,192,160295,1,0,0:0:0:0:
256,192,160510,1,2,0:0:0:0:
256,192,160724,1,0,0:0:0:0:
256,192,160831,1,2,0:0:0:0:
256,192,161153,1,2,0:0:0:0:
256,192,161260,1,0,0:0:0:0:
256,192,161367,1,0,0:0:0:0:
256,192,161474,1,2,0:0:0:0:
256,192,161581,1,0,0:0:0:0:
256,192,161688,1,0,0:0:0:0:
256,192,161795,1,2,0:0:0:0:
256,192,162010,1,2,0:0:0:0:
256,192,162117,1,0,0:0:0:0:
256,192,162331,1,2,0:0:0:0:
256,192,162438,1,0,0:0:0:0:
256,192,162653,1,2,0:0:0:0:
256,192,162724,1,2,0:0:0:0:
256,192,162795,1,2,0:0:0:0:
256,192,162867,1,2,0:0:0:0:
256,192,162974,1,0,0:0:0:0:
256,192,163081,1,2,0:0:0:0:
256,192,163188,1,2,0:0:0:0:
256,192,163295,1,0,0:0:0:0:
256,192,163403,1,2,0:0:0:0:
256,192,163510,1,0,0:0:0:0:
256,192,164260,1,4,0:0:0:0:
256,192,164581,1,6,0:0:0:0:
256,192,164903,1,6,0:0:0:0:
256,192,165224,1,2,0:0:0:0:
256,192,165331,1,2,0:0:0:0:
256,192,165438,1,2,0:0:0:0:
256,192,165545,1,0,0:0:0:0:
256,192,165653,1,2,0:0:0:0:
256,192,165724,1,2,0:0:0:0:
256,192,165795,1,2,0:0:0:0:
256,192,165867,1,0,0:0:0:0:
256,192,165938,1,0,0:0:0:0:
256,192,166010,1,0,0:0:0:0:
256,192,166081,1,0,0:0:0:0:
256,192,166188,1,2,0:0:0:0:
256,192,166295,1,2,0:0:0:0:
256,192,166403,1,0,0:0:0:0:
256,192,166510,1,2,0:0:0:0:
256,192,166581,1,2,0:0:0:0:
256,192,166653,1,2,0:0:0:0:
256,192,166724,1,2,0:0:0:0:
256,192,166831,1,0,0:0:0:0:
256,192,166938,5,0,0:0:0:0:
256,192,167045,1,2,0:0:0:0:
256,192,167260,1,0,0:0:0:0:
256,192,167367,1,2,0:0:0:0:
256,192,167581,1,2,0:0:0:0:
256,192,167688,1,0,0:0:0:0:
256,192,167795,1,2,0:0:0:0:
256,192,167903,1,2,0:0:0:0:
256,192,168010,1,0,0:0:0:0:
256,192,168117,1,2,0:0:0:0:
256,192,168170,1,2,0:0:0:0:
256,192,168224,1,2,0:0:0:0:
256,192,168331,1,0,0:0:0:0:
256,192,168438,1,2,0:0:0:0:
256,192,168545,1,2,0:0:0:0:
256,192,168653,1,0,0:0:0:0:
256,192,168867,1,0,0:0:0:0:
256,192,168974,1,2,0:0:0:0:
256,192,169081,1,0,0:0:0:0:
256,192,169188,1,0,0:0:0:0:
256,192,169295,1,2,0:0:0:0:
256,192,169403,1,0,0:0:0:0:
256,192,169510,1,2,0:0:0:0:
256,192,169563,1,2,0:0:0:0:
256,192,169617,1,2,0:0:0:0:
256,192,169724,1,2,0:0:0:0:
256,192,169831,1,0,0:0:0:0:
256,192,170045,1,0,0:0:0:0:
256,192,170153,1,2,0:0:0:0:
256,192,170260,1,0,0:0:0:0:
256,192,170367,1,0,0:0:0:0:
256,192,170581,1,0,0:0:0:0:
256,192,170688,1,2,0:0:0:0:
256,192,170903,1,2,0:0:0:0:
256,192,171010,1,0,0:0:0:0:
256,192,171117,1,2,0:0:0:0:
256,192,171224,1,2,0:0:0:0:
256,192,171331,1,0,0:0:0:0:
256,192,171545,1,0,0:0:0:0:
256,192,171653,1,2,0:0:0:0:
256,192,171760,1,0,0:0:0:0:
256,192,171974,1,0,0:0:0:0:
256,192,172081,1,2,0:0:0:0:
256,192,172188,1,2,0:0:0:0:
256,192,172295,1,0,0:0:0:0:
256,192,172510,1,2,0:0:0:0:
256,192,172617,1,2,0:0:0:0:
256,192,172670,1,2,0:0:0:0:
256,192,172724,1,2,0:0:0:0:
256,192,172831,1,0,0:0:0:0:
256,192,173045,1,2,0:0:0:0:
256,192,173153,1,2,0:0:0:0:
256,192,173260,1,0,0:0:0:0:
256,192,173367,1,2,0:0:0:0:
256,192,173474,1,2,0:0:0:0:
256,192,173528,1,2,0:0:0:0:
256,192,173688,1,2,0:0:0:0:
256,192,173795,1,0,0:0:0:0:
256,192,174010,1,2,0:0:0:0:
256,192,174117,1,0,0:0:0:0:
256,192,174224,1,0,0:0:0:0:
256,192,174331,1,2,0:0:0:0:
256,192,174438,1,0,0:0:0:0:
256,192,174545,1,2,0:0:0:0:
256,192,174653,1,2,0:0:0:0:
256,192,174867,1,0,0:0:0:0:
256,192,174974,1,2,0:0:0:0:
256,192,175188,1,0,0:0:0:0:
256,192,175295,1,2,0:0:0:0:
256,192,175403,1,0,0:0:0:0:
256,192,175510,1,2,0:0:0:0:
256,192,175617,1,2,0:0:0:0:
256,192,175831,1,0,0:0:0:0:
256,192,175938,1,2,0:0:0:0:
256,192,176045,1,2,0:0:0:0:
256,192,176153,1,0,0:0:0:0:
256,192,176260,1,2,0:0:0:0:
256,192,176474,1,2,0:0:0:0:
256,192,176581,1,0,0:0:0:0:
256,192,176688,1,0,0:0:0:0:
256,192,176795,1,2,0:0:0:0:
256,192,176903,1,0,0:0:0:0:
256,192,177010,1,2,0:0:0:0:
256,192,177117,1,2,0:0:0:0:
256,192,177224,1,0,0:0:0:0:
256,192,177438,1,0,0:0:0:0:
256,192,177545,1,0,0:0:0:0:
256,192,177653,1,2,0:0:0:0:
256,192,177867,1,0,0:0:0:0:
256,192,177974,1,2,0:0:0:0:
256,192,178295,1,0,0:0:0:0:
256,192,178617,1,2,0:0:0:0:
256,192,178670,1,2,0:0:0:0:
256,192,178831,1,2,0:0:0:0:
256,192,178938,1,0,0:0:0:0:
256,192,179045,1,0,0:0:0:0:
256,192,179153,1,0,0:0:0:0:
256,192,179260,1,2,0:0:0:0:
256,192,179474,1,0,0:0:0:0:
256,192,179581,1,2,0:0:0:0:
256,192,179688,1,0,0:0:0:0:
256,192,179795,1,0,0:0:0:0:
256,192,179903,1,2,0:0:0:0:
256,192,180010,1,2,0:0:0:0:
256,192,180063,1,2,0:0:0:0:
256,192,180117,1,0,0:0:0:0:
256,192,180224,1,2,0:0:0:0:
256,192,180331,1,0,0:0:0:0:
256,192,180438,1,2,0:0:0:0:
256,192,180545,1,0,0:0:0:0:
256,192,180653,5,0,0:0:0:0:
256,192,180974,1,2,0:0:0:0:
256,192,181295,1,0,0:0:0:0:
256,192,181403,1,2,0:0:0:0:
256,192,181617,1,2,0:0:0:0:
256,192,181724,1,0,0:0:0:0:
256,192,181831,1,2,0:0:0:0:
256,192,181938,1,2,0:0:0:0:
256,192,182045,1,0,0:0:0:0:
256,192,182260,1,2,0:0:0:0:
256,192,182367,1,0,0:0:0:0:
256,192,182474,1,2,0:0:0:0:
256,192,182688,1,2,0:0:0:0:
256,192,182795,1,0,0:0:0:0:
256,192,182903,1,0,0:0:0:0:
256,192,183010,1,2,0:0:0:0:
256,192,183117,1,0,0:0:0:0:
256,192,183188,1,2,0:0:0:0:
256,192,183260,1,2,0:0:0:0:
256,192,183331,1,0,0:0:0:0:
256,192,183438,1,2,0:0:0:0:
256,192,183545,1,0,0:0:0:0:
256,192,183653,1,2,0:0:0:0:
256,192,183724,1,2,0:0:0:0:
256,192,183795,1,2,0:0:0:0:
256,192,183867,1,2,0:0:0:0:
256,192,183974,1,2,0:0:0:0:
256,192,184188,1,0,0:0:0:0:
256,192,184403,1,2,0:0:0:0:
256,192,184510,1,0,0:0:0:0:
256,192,184617,1,0,0:0:0:0:
256,192,184724,1,2,0:0:0:0:
256,192,184831,1,2,0:0:0:0:
256,192,184938,1,2,0:0:0:0:
256,192,185153,1,0,0:0:0:0:
256,192,185260,1,2,0:0:0:0:
256,192,185367,1,0,0:0:0:0:
256,192,185474,1,2,0:0:0:0:
256,192,185688,1,0,0:0:0:0:
256,192,185795,1,2,0:0:0:0:
256,192,185903,1,2,0:0:0:0:
256,192,186010,1,0,0:0:0:0:
256,192,186117,1,2,0:0:0:0:
256,192,186385,1,2,0:0:0:0:
256,192,186438,1,2,0:0:0:0:
256,192,186492,1,2,0:0:0:0:
256,192,186653,1,0,0:0:0:0:
256,192,186760,1,2,0:0:0:0:
256,192,186974,1,2,0:0:0:0:
256,192,187028,1,2,0:0:0:0:
256,192,187081,1,2,0:0:0:0:
256,192,187295,1,2,0:0:0:0:
256,192,187403,1,0,0:0:0:0:
256,192,187563,1,2,0:0:0:0:
256,192,187617,1,2,0:0:0:0:
256,192,187670,1,2,0:0:0:0:
256,192,187831,1,2,0:0:0:0:
256,192,187938,1,2,0:0:0:0:
256,192,188045,1,0,0:0:0:0:
256,192,188099,1,0,0:0:0:0:
256,192,188153,1,0,0:0:0:0:
256,192,188367,1,2,0:0:0:0:
256,192,188581,1,0,0:0:0:0:
256,192,188688,1,2,0:0:0:0:
256,192,188795,1,2,0:0:0:0:
256,192,188903,1,0,0:0:0:0:
256,192,189010,1,2,0:0:0:0:
256,192,189224,1,0,0:0:0:0:
256,192,189331,1,2,0:0:0:0:
256,192,189438,1,2,0:0:0:0:
256,192,189545,1,0,0:0:0:0:
256,192,189867,1,0,0:0:0:0:
256,192,189974,1,2,0:0:0:0:
256,192,190188,1,0,0:0:0:0:
256,192,190295,1,2,0:0:0:0:
256,192,190403,1,2,0:0:0:0:
256,192,190617,1,2,0:0:0:0:
256,192,190670,1,2,0:0:0:0:
256,192,190831,1,0,0:0:0:0:
256,192,191045,1,2,0:0:0:0:
256,192,191260,1,2,0:0:0:0:
256,192,191367,1,2,0:0:0:0:
256,192,191581,1,0,0:0:0:0:
256,192,191688,1,2,0:0:0:0:
256,192,191903,1,0,0:0:0:0:
256,192,192010,1,0,0:0:0:0:
256,192,192117,1,2,0:0:0:0:
256,192,192224,1,2,0:0:0:0:
256,192,192331,1,0,0:0:0:0:
256,192,192438,1,2,0:0:0:0:
256,192,192545,1,0,0:0:0:0:
256,192,192867,1,4,0:0:0:0:
256,192,193188,1,6,0:0:0:0:
256,192,193510,1,4,0:0:0:0:
256,192,193724,1,2,0:0:0:0:
256,192,193795,1,2,0:0:0:0:
256,192,193867,1,2,0:0:0:0:
256,192,193938,1,2,0:0:0:0:
256,192,194045,1,0,0:0:0:0:
256,192,194153,1,0,0:0:0:0:
256,192,194260,1,0,0:0:0:0:
256,192,194367,5,2,0:0:0:0:
256,192,194581,1,0,0:0:0:0:
256,192,194688,1,0,0:0:0:0:
256,192,194795,1,2,0:0:0:0:
256,192,194903,1,0,0:0:0:0:
256,192,195117,1,0,0:0:0:0:
256,192,195224,1,2,0:0:0:0:
256,192,195331,1,0,0:0:0:0:
256,192,195545,1,0,0:0:0:0:
256,192,195653,1,2,0:0:0:0:
256,192,195867,1,0,0:0:0:0:
256,192,195938,1,2,0:0:0:0:
256,192,196010,1,2,0:0:0:0:
256,192,196081,1,2,0:0:0:0:
256,192,196188,1,0,0:0:0:0:
256,192,196403,1,0,0:0:0:0:
256,192,196510,1,2,0:0:0:0:
256,192,196617,1,0,0:0:0:0:
256,192,196724,1,0,0:0:0:0:
256,192,196831,1,2,0:0:0:0:
256,192,196938,1,2,0:0:0:0:
256,192,197045,1,0,0:0:0:0:
256,192,197260,1,0,0:0:0:0:
256,192,197474,1,2,0:0:0:0:
256,192,197581,1,0,0:0:0:0:
256,192,197688,1,0,0:0:0:0:
256,192,197795,1,2,0:0:0:0:
256,192,198010,1,0,0:0:0:0:
256,192,198117,1,0,0:0:0:0:
256,192,198224,1,2,0:0:0:0:
256,192,198331,1,0,0:0:0:0:
256,192,198545,1,0,0:0:0:0:
256,192,198653,1,2,0:0:0:0:
256,192,198760,1,0,0:0:0:0:
256,192,198974,1,0,0:0:0:0:
256,192,199081,1,2,0:0:0:0:
256,192,199188,1,0,0:0:0:0:
256,192,199295,1,0,0:0:0:0:
256,192,199403,1,2,0:0:0:0:
256,192,199510,1,2,0:0:0:0:
256,192,199617,1,0,0:0:0:0:
256,192,199724,1,0,0:0:0:0:
256,192,199831,1,2,0:0:0:0:
256,192,199938,1,2,0:0:0:0:
256,192,200045,1,0,0:0:0:0:
256,192,200153,1,2,0:0:0:0:
256,192,200260,1,2,0:0:0:0:
256,192,200367,1,0,0:0:0:0:
256,192,200438,1,2,0:0:0:0:
256,192,200510,1,2,0:0:0:0:
256,192,200581,1,2,0:0:0:0:
256,192,200688,1,0,0:0:0:0:
256,192,200795,1,2,0:0:0:0:
256,192,200903,1,0,0:0:0:0:
256,192,201010,1,0,0:0:0:0:
256,192,201117,1,0,0:0:0:0:
256,192,201224,5,2,0:0:0:0:
256,192,201438,1,0,0:0:0:0:
256,192,201545,1,0,0:0:0:0:
256,192,201653,1,2,0:0:0:0:
256,192,201760,1,0,0:0:0:0:
256,192,201974,1,0,0:0:0:0:
256,192,202081,1,2,0:0:0:0:
256,192,202188,1,0,0:0:0:0:
256,192,202403,1,0,0:0:0:0:
256,192,202510,1,2,0:0:0:0:
256,192,202617,1,0,0:0:0:0:
256,192,202724,1,0,0:0:0:0:
256,192,202795,1,2,0:0:0:0:
256,192,202867,1,2,0:0:0:0:
256,192,202938,1,2,0:0:0:0:
256,192,203045,1,0,0:0:0:0:
256,192,203260,1,0,0:0:0:0:
256,192,203367,1,2,0:0:0:0:
256,192,203474,1,2,0:0:0:0:
256,192,203581,1,0,0:0:0:0:
256,192,203688,1,0,0:0:0:0:
256,192,203795,1,2,0:0:0:0:
256,192,203903,1,0,0:0:0:0:
256,192,204010,1,0,0:0:0:0:
256,192,204117,1,2,0:0:0:0:
256,192,204331,1,2,0:0:0:0:
256,192,204438,1,0,0:0:0:0:
256,192,204545,1,0,0:0:0:0:
256,192,204653,1,2,0:0:0:0:
256,192,204867,1,0,0:0:0:0:
256,192,204974,1,0,0:0:0:0:
256,192,205081,1,2,0:0:0:0:
256,192,205188,1,0,0:0:0:0:
256,192,205403,1,0,0:0:0:0:
256,192,205510,1,2,0:0:0:0:
256,192,205617,1,2,0:0:0:0:
256,192,205724,1,0,0:0:0:0:
256,192,205831,1,0,0:0:0:0:
256,192,205938,1,2,0:0:0:0:
256,192,206045,1,0,0:0:0:0:
256,192,206153,1,0,0:0:0:0:
256,192,206260,1,2,0:0:0:0:
256,192,206367,1,2,0:0:0:0:
256,192,206474,1,2,0:0:0:0:
256,192,206581,1,2,0:0:0:0:
256,192,206688,1,0,0:0:0:0:
256,192,206903,1,2,0:0:0:0:
256,192,207010,1,0,0:0:0:0:
256,192,207117,1,2,0:0:0:0:
256,192,207224,1,2,0:0:0:0:
256,192,207331,1,2,0:0:0:0:
256,192,207438,1,0,0:0:0:0:
256,192,207545,1,0,0:0:0:0:
256,192,207653,1,0,0:0:0:0:
256,192,207760,1,0,0:0:0:0:
256,192,207867,1,0,0:0:0:0:
256,192,207974,1,0,0:0:0:0:
256,192,208081,5,2,0:0:0:0:
256,192,208188,1,2,0:0:0:0:
256,192,208403,1,2,0:0:0:0:
256,192,208617,1,2,0:0:0:0:
256,192,208831,1,2,0:0:0:0:
256,192,209045,1,2,0:0:0:0:
256,192,209260,1,2,0:0:0:0:
256,192,209474,1,2,0:0:0:0:
256,192,209581,1,0,0:0:0:0:
256,192,209688,1,0,0:0:0:0:
256,192,209795,1,2,0:0:0:0:
256,192,209903,1,0,0:0:0:0:
256,192,210117,1,0,0:0:0:0:
256,192,210331,1,2,0:0:0:0:
256,192,210545,1,0,0:0:0:0:
256,192,210760,1,0,0:0:0:0:
256,192,210867,1,2,0:0:0:0:
256,192,210974,1,0,0:0:0:0:
256,192,211081,1,0,0:0:0:0:
256,192,211188,1,2,0:0:0:0:
256,192,211295,1,2,0:0:0:0:
256,192,211403,1,2,0:0:0:0:
256,192,211510,5,4,0:0:0:0:
256,192,212081,1,2,0:0:0:0:
256,192,212153,1,2,0:0:0:0:
256,192,212224,1,2,0:0:0:0:
256,192,212295,1,2,0:0:0:0:
256,192,212367,1,2,0:0:0:0:
256,192,212438,1,2,0:0:0:0:
256,192,212617,1,2,0:0:0:0:
256,192,212724,1,2,0:0:0:0:
256,192,213010,1,2,0:0:0:0:
256,192,213081,1,2,0:0:0:0:
256,192,213153,1,2,0:0:0:0:
256,192,213224,1,2,0:0:0:0:
256,192,213295,1,2,0:0:0:0:
256,192,213367,1,2,0:0:0:0:
256,192,213545,1,2,0:0:0:0:
256,192,213778,1,2,0:0:0:0:
256,192,213867,1,2,0:0:0:0:
256,192,214028,1,2,0:0:0:0:
256,192,214117,1,2,0:0:0:0:
256,192,214295,1,2,0:0:0:0:
256,192,214438,1,2,0:0:0:0:
256,192,214617,1,2,0:0:0:0:
256,192,214831,1,2,0:0:0:0:
256,192,215510,1,0,0:0:0:0:
256,192,215581,1,0,0:0:0:0:
256,192,215653,1,0,0:0:0:0:
