osu file format v14

[General]
AudioFilename: audio.mp3
AudioLeadIn: 0
PreviewTime: 55398
Countdown: 0
SampleSet: Normal
StackLeniency: 0.7
Mode: 1
LetterboxInBreaks: 0
WidescreenStoryboard: 1

[Editor]
Bookmarks: 14362,28076,41790,55505,82933,109505,109719,109933,110148,110362,124076,139505,153219,166933,194362
DistanceSpacing: 1
BeatDivisor: 4
GridSize: 32
TimelineZoom: 1.6

[Metadata]
Title:Water Lily
TitleUnicode:Water Lily
Artist:ARM
ArtistUnicode:ARM
Creator:tasuke912
Version:Muzukashii
Source:東方風神録 ~ Mountain of Faith.
Tags:_Rise IOSYS arrange zun native faith touhou 東方Project toho fuujinroku huujinroku bloom instrumental jazz
BeatmapID:3601408
BeatmapSetID:1590156

[Difficulty]
HPDrainRate:6
CircleSize:2
OverallDifficulty:5
ApproachRate:5
SliderMultiplier:1.4
SliderTickRate:1

[Events]
//Background and Video events
0,0,"water-lily-g4366fb875_1920.jpg",0,0
//Break Periods
//Storyboard Layer 0 (Background)
//Storyboard Layer 1 (Fail)
//Storyboard Layer 2 (Pass)
//Storyboard Layer 3 (Foreground)
//Storyboard Layer 4 (Overlay)
//Storyboard Sound Samples

[TimingPoints]
653,428.571428571429,4,1,0,70,1,0
55510,-100,4,1,0,70,0,1
82938,-100,4,1,0,70,0,0
194367,-80,4,1,0,70,0,1
211510,-80,4,1,0,70,0,0
211617,-80,4,1,0,40,0,0
211938,-100,4,1,0,40,0,0

[HitObjects]
256,192,6867,5,0,0:0:0:0:
256,192,7188,1,0,0:0:0:0:
256,192,7510,1,0,0:0:0:0:
256,192,7724,1,2,0:0:0:0:
256,192,8153,1,2,0:0:0:0:
256,192,8581,1,2,0:0:0:0:
256,192,9010,1,2,0:0:0:0:
256,192,9224,1,0,0:0:0:0:
256,192,9438,1,2,0:0:0:0:
256,192,9867,1,2,0:0:0:0:
256,192,10295,1,2,0:0:0:0:
256,192,10617,1,2,0:0:0:0:
256,192,10938,1,0,0:0:0:0:
256,192,11153,1,2,0:0:0:0:
256,192,11581,1,2,0:0:0:0:
256,192,12010,1,2,0:0:0:0:
256,192,12224,1,0,0:0:0:0:
256,192,12653,1,0,0:0:0:0:
256,192,12760,1,0,0:0:0:0:
256,192,12867,1,0,0:0:0:0:
256,192,13081,1,2,0:0:0:0:
256,192,13295,1,0,0:0:0:0:
256,192,13510,1,2,0:0:0:0:
256,192,13938,1,0,0:0:0:0:
256,192,14153,1,2,0:0:0:0:
256,192,14367,5,4,0:0:0:0:
256,192,14795,1,2,0:0:0:0:
256,192,15117,1,2,0:0:0:0:
256,192,15331,1,2,0:0:0:0:
256,192,15653,1,0,0:0:0:0:
256,192,15867,1,2,0:0:0:0:
256,192,16081,1,0,0:0:0:0:
256,192,16510,1,2,0:0:0:0:
256,192,16724,1,0,0:0:0:0:
256,192,16938,1,2,0:0:0:0:
256,192,17153,1,2,0:0:0:0:
256,192,17581,1,2,0:0:0:0:
256,192,17795,1,0,0:0:0:0:
256,192,18224,1,2,0:0:0:0:
256,192,18545,1,2,0:0:0:0:
256,192,18760,1,2,0:0:0:0:
256,192,19081,1,0,0:0:0:0:
256,192,19295,1,2,0:0:0:0:
256,192,19510,1,0,0:0:0:0:
256,192,19938,1,2,0:0:0:0:
256,192,20153,1,2,0:0:0:0:
256,192,20474,1,2,0:0:0:0:
256,192,20581,1,2,0:0:0:0:
256,192,20795,1,2,0:0:0:0:
256,192,21224,1,0,0:0:0:0:
256,192,21653,1,2,0:0:0:0:
256,192,21974,1,2,0:0:0:0:
256,192,22188,1,2,0:0:0:0:
256,192,22403,1,2,0:0:0:0:
256,192,22724,1,2,0:0:0:0:
256,192,22938,1,0,0:0:0:0:
256,192,23367,1,2,0:0:0:0:
256,192,23688,1,2,0:0:0:0:
256,192,23903,1,2,0:0:0:0:
256,192,24224,1,0,0:0:0:0:
256,192,24438,1,2,0:0:0:0:
256,192,24653,1,0,0:0:0:0:
256,192,25081,1,2,0:0:0:0:
256,192,25403,1,0,0:0:0:0:
256,192,25724,1,0,0:0:0:0:
256,192,26045,1,2,0:0:0:0:
256,192,26367,1,0,0:0:0:0:
256,192,26688,1,2,0:0:0:0:
256,192,27010,1,2,0:0:0:0:
256,192,27224,1,0,0:0:0:0:
256,192,27653,1,0,0:0:0:0:
256,192,27867,1,2,0:0:0:0:
256,192,28081,5,0,0:0:0:0:
256,192,28403,1,0,0:0:0:0:
256,192,28724,1,6,0:0:0:0:
256,192,29153,1,0,0:0:0:0:
256,192,29367,1,2,0:0:0:0:
256,192,29795,1,0,0:0:0:0:
256,192,30224,1,2,0:0:0:0:
256,192,30438,1,0,0:0:0:0:
256,192,30653,1,2,0:0:0:0:
256,192,30974,1,2,0:0:0:0:
256,192,31295,1,2,0:0:0:0:
256,192,31510,1,0,0:0:0:0:
256,192,31831,1,0,0:0:0:0:
256,192,32153,1,6,0:0:0:0:
256,192,32581,1,0,0:0:0:0:
256,192,32795,1,2,0:0:0:0:
256,192,33117,1,0,0:0:0:0:
256,192,33545,1,2,0:0:0:0:
256,192,33760,1,2,0:0:0:0:
256,192,34081,1,0,0:0:0:0:
256,192,34510,1,2,0:0:0:0:
256,192,34938,1,2,0:0:0:0:
256,192,35260,1,0,0:0:0:0:
256,192,35581,1,6,0:0:0:0:
256,192,36010,1,0,0:0:0:0:
256,192,36224,1,2,0:0:0:0:
256,192,36438,1,2,0:0:0:0:
256,192,36653,1,0,0:0:0:0:
256,192,37081,1,2,0:0:0:0:
256,192,37510,1,0,0:0:0:0:
256,192,37831,1,0,0:0:0:0:
256,192,38045,1,2,0:0:0:0:
256,192,38260,1,6,0:0:0:0:
256,192,39010,1,2,0:0:0:0:
256,192,39117,1,2,0:0:0:0:
256,192,39224,1,2,0:0:0:0:
256,192,39545,1,2,0:0:0:0:
256,192,39867,1,2,0:0:0:0:
256,192,40081,1,0,0:0:0:0:
256,192,40403,1,0,0:0:0:0:
256,192,40617,1,0,0:0:0:0:
256,192,40831,1,0,0:0:0:0:
256,192,41045,1,2,0:0:0:0:
256,192,41260,1,2,0:0:0:0:
256,192,41474,1,2,0:0:0:0:
256,192,41795,1,4,0:0:0:0:
256,192,42438,1,0,0:0:0:0:
256,192,42653,1,2,0:0:0:0:
256,192,43081,1,2,0:0:0:0:
256,192,43510,1,2,0:0:0:0:
256,192,43724,1,0,0:0:0:0:
256,192,43938,1,2,0:0:0:0:
256,192,44367,1,2,0:0:0:0:
256,192,44795,1,2,0:0:0:0:
256,192,45010,1,2,0:0:0:0:
256,192,45224,1,0,0:0:0:0:
256,192,45867,1,0,0:0:0:0:
256,192,46081,1,2,0:0:0:0:
256,192,46510,1,2,0:0:0:0:
256,192,46724,1,0,0:0:0:0:
256,192,46938,1,2,0:0:0:0:
256,192,47260,1,2,0:0:0:0:
256,192,47581,1,2,0:0:0:0:
256,192,48010,1,2,0:0:0:0:
256,192,48117,1,2,0:0:0:0:
256,192,48224,1,2,0:0:0:0:
256,192,48653,1,4,0:0:0:0:
256,192,48974,1,2,0:0:0:0:
256,192,49295,1,2,0:0:0:0:
256,192,49938,1,2,0:0:0:0:
256,192,50153,1,0,0:0:0:0:
256,192,50367,1,2,0:0:0:0:
256,192,50581,1,0,0:0:0:0:
256,192,50795,1,2,0:0:0:0:
256,192,51224,1,2,0:0:0:0:
256,192,51653,1,2,0:0:0:0:
256,192,51867,1,2,0:0:0:0:
256,192,52081,1,0,0:0:0:0:
256,192,52510,1,2,0:0:0:0:
256,192,52724,1,0,0:0:0:0:
256,192,52938,1,2,0:0:0:0:
256,192,53367,1,2,0:0:0:0:
256,192,53581,1,4,0:0:0:0:
256,192,54010,1,0,0:0:0:0:
256,192,54224,1,2,0:0:0:0:
256,192,54438,1,4,0:0:0:0:
256,192,55188,1,2,0:0:0:0:
256,192,55295,1,2,0:0:0:0:
256,192,55510,5,0,0:0:0:0:
256,192,55831,1,2,0:0:0:0:
256,192,56153,1,2,0:0:0:0:
256,192,56581,1,0,0:0:0:0:
256,192,56795,1,2,0:0:0:0:
256,192,56903,1,2,0:0:0:0:
256,192,57224,1,2,0:0:0:0:
256,192,57653,1,0,0:0:0:0:
256,192,57867,1,2,0:0:0:0:
256,192,58081,1,0,0:0:0:0:
256,192,58295,1,0,0:0:0:0:
256,192,58617,1,2,0:0:0:0:
256,192,58831,1,0,0:0:0:0:
256,192,59153,1,0,0:0:0:0:
256,192,59367,1,2,0:0:0:0:
256,192,59795,1,2,0:0:0:0:
256,192,60117,1,0,0:0:0:0:
256,192,60438,1,0,0:0:0:0:
256,192,60653,1,2,0:0:0:0:
256,192,60974,1,2,0:0:0:0:
256,192,61295,1,2,0:0:0:0:
256,192,61938,1,0,0:0:0:0:
256,192,62045,1,0,0:0:0:0:
256,192,62260,1,2,0:0:0:0:
256,192,62795,1,2,0:0:0:0:
256,192,62903,1,2,0:0:0:0:
256,192,63117,1,2,0:0:0:0:
256,192,63438,1,2,0:0:0:0:
256,192,63760,1,2,0:0:0:0:
256,192,64081,1,0,0:0:0:0:
256,192,64510,1,2,0:0:0:0:
256,192,64724,1,0,0:0:0:0:
256,192,65045,1,2,0:0:0:0:
256,192,65367,1,2,0:0:0:0:
256,192,65581,1,2,0:0:0:0:
256,192,65795,1,0,0:0:0:0:
256,192,66224,1,2,0:0:0:0:
256,192,66545,1,0,0:0:0:0:
256,192,66867,1,0,0:0:0:0:
256,192,67188,1,2,0:0:0:0:
256,192,67510,1,2,0:0:0:0:
256,192,67724,1,0,0:0:0:0:
256,192,67938,1,2,0:0:0:0:
256,192,68153,1,2,0:0:0:0:
256,192,68260,1,2,0:0:0:0:
256,192,68474,1,0,0:0:0:0:
256,192,68795,1,2,0:0:0:0:
256,192,69224,1,0,0:0:0:0:
256,192,69653,1,2,0:0:0:0:
256,192,69974,1,2,0:0:0:0:
256,192,70295,1,0,0:0:0:0:
256,192,70510,1,2,0:0:0:0:
256,192,70617,1,2,0:0:0:0:
256,192,70938,1,0,0:0:0:0:
256,192,71260,1,2,0:0:0:0:
256,192,71581,1,2,0:0:0:0:
256,192,71795,1,0,0:0:0:0:
256,192,72117,1,0,0:0:0:0:
256,192,72438,1,2,0:0:0:0:
256,192,72653,1,2,0:0:0:0:
256,192,72760,1,2,0:0:0:0:
256,192,73081,1,0,0:0:0:0:
256,192,73403,1,2,0:0:0:0:
256,192,73724,1,0,0:0:0:0:
256,192,73938,1,2,0:0:0:0:
256,192,74153,1,0,0:0:0:0:
256,192,74367,1,0,0:0:0:0:
256,192,74795,1,2,0:0:0:0:
256,192,75010,1,2,0:0:0:0:
256,192,75331,1,2,0:0:0:0:
256,192,75438,1,2,0:0:0:0:
256,192,75653,1,2,0:0:0:0:
256,192,76081,1,0,0:0:0:0:
256,192,76724,1,2,0:0:0:0:
256,192,76831,1,2,0:0:0:0:
256,192,76938,1,2,0:0:0:0:
256,192,77260,1,2,0:0:0:0:
256,192,77581,1,2,0:0:0:0:
256,192,77795,1,0,0:0:0:0:
256,192,78117,1,0,0:0:0:0:
256,192,78438,1,0,0:0:0:0:
256,192,78653,1,2,0:0:0:0:
256,192,78974,1,2,0:0:0:0:
256,192,79295,1,2,0:0:0:0:
256,192,79724,1,0,0:0:0:0:
256,192,79938,1,2,0:0:0:0:
256,192,80045,1,2,0:0:0:0:
256,192,80260,1,0,0:0:0:0:
256,192,80581,1,2,0:0:0:0:
256,192,80903,1,2,0:0:0:0:
256,192,81224,1,0,0:0:0:0:
256,192,81545,1,0,0:0:0:0:
256,192,81867,1,2,0:0:0:0:
256,192,82188,1,2,0:0:0:0:
256,192,82510,1,0,0:0:0:0:
256,192,82938,1,0,0:0:0:0:
256,192,83367,1,2,0:0:0:0:
256,192,83474,1,2,0:0:0:0:
256,192,83688,1,2,0:0:0:0:
256,192,84010,1,0,0:0:0:0:
256,192,84224,1,2,0:0:0:0:
256,192,84653,1,0,0:0:0:0:
256,192,85081,1,2,0:0:0:0:
256,192,85295,1,0,0:0:0:0:
256,192,85510,1,2,0:0:0:0:
256,192,85724,1,2,0:0:0:0:
256,192,86153,1,2,0:0:0:0:
256,192,86795,1,2,0:0:0:0:
256,192,86903,1,2,0:0:0:0:
256,192,87117,1,2,0:0:0:0:
256,192,87438,1,0,0:0:0:0:
256,192,87653,1,2,0:0:0:0:
256,192,88081,1,0,0:0:0:0:
256,192,88510,1,2,0:0:0:0:
256,192,88724,1,2,0:0:0:0:
256,192,89367,1,2,0:0:0:0:
256,192,89795,1,0,0:0:0:0:
256,192,90117,1,2,0:0:0:0:
256,192,90438,1,2,0:0:0:0:
256,192,90760,1,2,0:0:0:0:
256,192,91081,1,2,0:0:0:0:
256,192,91510,1,0,0:0:0:0:
256,192,91831,1,2,0:0:0:0:
256,192,92153,1,2,0:0:0:0:
256,192,92474,1,0,0:0:0:0:
256,192,92795,1,2,0:0:0:0:
256,192,93010,1,2,0:0:0:0:
256,192,93224,1,0,0:0:0:0:
256,192,93545,1,0,0:0:0:0:
256,192,93653,1,0,0:0:0:0:
256,192,93867,1,2,0:0:0:0:
256,192,94188,1,2,0:0:0:0:
256,192,94295,1,2,0:0:0:0:
256,192,94510,1,0,0:0:0:0:
256,192,94724,1,2,0:0:0:0:
256,192,94938,1,0,0:0:0:0:
256,192,95260,1,2,0:0:0:0:
256,192,95581,1,2,0:0:0:0:
256,192,95795,1,0,0:0:0:0:
256,192,96117,1,0,0:0:0:0:
256,192,96331,1,2,0:0:0:0:
256,192,96653,5,0,0:0:0:0:
256,192,96974,1,2,0:0:0:0:
256,192,97295,1,2,0:0:0:0:
256,192,98153,1,2,0:0:0:0:
256,192,98260,1,2,0:0:0:0:
256,192,98367,1,2,0:0:0:0:
256,192,98688,1,0,0:0:0:0:
256,192,99010,1,2,0:0:0:0:
256,192,99117,1,2,0:0:0:0:
256,192,99867,1,2,0:0:0:0:
256,192,100081,1,0,0:0:0:0:
256,192,100831,1,2,0:0:0:0:
256,192,101153,1,2,0:0:0:0:
256,192,101367,1,2,0:0:0:0:
256,192,101474,1,2,0:0:0:0:
256,192,101795,1,0,0:0:0:0:
256,192,102117,1,2,0:0:0:0:
256,192,102438,1,2,0:0:0:0:
256,192,102653,1,0,0:0:0:0:
256,192,103081,1,0,0:0:0:0:
256,192,103295,1,2,0:0:0:0:
256,192,103510,1,0,0:0:0:0:
256,192,103724,1,2,0:0:0:0:
256,192,104045,1,2,0:0:0:0:
256,192,104367,1,2,0:0:0:0:
256,192,104474,1,2,0:0:0:0:
256,192,104795,1,2,0:0:0:0:
256,192,105010,1,2,0:0:0:0:
256,192,105117,1,2,0:0:0:0:
256,192,105438,1,2,0:0:0:0:
256,192,105974,1,0,0:0:0:0:
256,192,106295,1,2,0:0:0:0:
256,192,106617,1,2,0:0:0:0:
256,192,106938,1,0,0:0:0:0:
256,192,107260,1,2,0:0:0:0:
256,192,107581,1,0,0:0:0:0:
256,192,107688,1,0,0:0:0:0:
256,192,108010,1,2,0:0:0:0:
256,192,108331,1,2,0:0:0:0:
256,192,108867,1,6,0:0:0:0:
256,192,109188,1,6,0:0:0:0:
256,192,109510,1,6,0:0:0:0:
256,192,110367,5,0,0:0:0:0:
256,192,110688,1,2,0:0:0:0:
256,192,111117,1,0,0:0:0:0:
256,192,111438,1,0,0:0:0:0:
256,192,111653,1,2,0:0:0:0:
256,192,112081,1,2,0:0:0:0:
256,192,112188,1,2,0:0:0:0:
256,192,112403,1,2,0:0:0:0:
256,192,112831,1,0,0:0:0:0:
256,192,113153,1,2,0:0:0:0:
256,192,113367,1,0,0:0:0:0:
256,192,113581,1,2,0:0:0:0:
256,192,113795,1,0,0:0:0:0:
256,192,114117,1,2,0:0:0:0:
256,192,114438,1,0,0:0:0:0:
256,192,114545,1,0,0:0:0:0:
256,192,114867,1,0,0:0:0:0:
256,192,115188,1,2,0:0:0:0:
256,192,115510,1,0,0:0:0:0:
256,192,115831,1,2,0:0:0:0:
256,192,116153,1,2,0:0:0:0:
256,192,116474,1,0,0:0:0:0:
256,192,116795,1,2,0:0:0:0:
256,192,117438,1,2,0:0:0:0:
256,192,117653,1,0,0:0:0:0:
256,192,117974,1,2,0:0:0:0:
256,192,118188,1,2,0:0:0:0:
256,192,118510,1,2,0:0:0:0:
256,192,118724,1,0,0:0:0:0:
256,192,118938,1,2,0:0:0:0:
256,192,119045,1,2,0:0:0:0:
256,192,119260,1,2,0:0:0:0:
256,192,119688,1,0,0:0:0:0:
256,192,120010,1,2,0:0:0:0:
256,192,120117,1,2,0:0:0:0:
256,192,120331,1,2,0:0:0:0:
256,192,120653,1,0,0:0:0:0:
256,192,120974,1,2,0:0:0:0:
256,192,121403,1,0,0:0:0:0:
256,192,121724,1,2,0:0:0:0:
256,192,122045,1,2,0:0:0:0:
256,192,122367,1,0,0:0:0:0:
256,192,122688,1,0,0:0:0:0:
256,192,123010,1,2,0:0:0:0:
256,192,123331,1,2,0:0:0:0:
256,192,123653,1,2,0:0:0:0:
256,192,124081,5,0,0:0:0:0:
256,192,124403,1,0,0:0:0:0:
256,192,124724,1,6,0:0:0:0:
256,192,125153,1,0,0:0:0:0:
256,192,125367,1,2,0:0:0:0:
256,192,125795,1,0,0:0:0:0:
256,192,126224,1,2,0:0:0:0:
256,192,126438,1,0,0:0:0:0:
256,192,126653,1,2,0:0:0:0:
256,192,126867,1,2,0:0:0:0:
256,192,126974,1,2,0:0:0:0:
256,192,127188,1,2,0:0:0:0:
256,192,127295,1,2,0:0:0:0:
256,192,127510,1,0,0:0:0:0:
256,192,127831,1,0,0:0:0:0:
256,192,128153,1,6,0:0:0:0:
256,192,128581,1,0,0:0:0:0:
256,192,128795,1,2,0:0:0:0:
256,192,129117,1,0,0:0:0:0:
256,192,129545,1,2,0:0:0:0:
256,192,129760,1,2,0:0:0:0:
256,192,130081,1,0,0:0:0:0:
256,192,130510,1,2,0:0:0:0:
256,192,130938,1,2,0:0:0:0:
256,192,131260,1,0,0:0:0:0:
256,192,131581,1,6,0:0:0:0:
256,192,132010,1,0,0:0:0:0:
256,192,132224,1,2,0:0:0:0:
256,192,132438,1,2,0:0:0:0:
256,192,132653,1,0,0:0:0:0:
256,192,133081,1,2,0:0:0:0:
256,192,133295,1,0,0:0:0:0:
256,192,133510,1,2,0:0:0:0:
256,192,133724,1,2,0:0:0:0:
256,192,133831,1,2,0:0:0:0:
256,192,134045,1,2,0:0:0:0:
256,192,134260,1,4,0:0:0:0:
256,192,135010,1,2,0:0:0:0:
256,192,135117,1,2,0:0:0:0:
256,192,135224,1,2,0:0:0:0:
256,192,135545,1,2,0:0:0:0:
256,192,135867,1,2,0:0:0:0:
256,192,136081,1,0,0:0:0:0:
256,192,136403,1,0,0:0:0:0:
256,192,136617,1,0,0:0:0:0:
256,192,136831,1,0,0:0:0:0:
256,192,137045,1,2,0:0:0:0:
256,192,137260,1,2,0:0:0:0:
256,192,137474,1,2,0:0:0:0:
256,192,137795,12,2,139081,0:0:0:0:
256,192,139510,5,4,0:0:0:0:
256,192,139938,1,2,0:0:0:0:
256,192,140367,1,2,0:0:0:0:
256,192,140795,1,2,0:0:0:0:
256,192,141224,1,2,0:0:0:0:
256,192,141438,1,0,0:0:0:0:
256,192,141653,1,2,0:0:0:0:
256,192,142081,1,2,0:0:0:0:
256,192,142510,1,2,0:0:0:0:
256,192,142724,1,2,0:0:0:0:
256,192,142938,1,0,0:0:0:0:
256,192,143367,1,2,0:0:0:0:
256,192,143581,1,0,0:0:0:0:
256,192,143795,1,2,0:0:0:0:
256,192,144224,1,2,0:0:0:0:
256,192,144653,1,2,0:0:0:0:
256,192,144974,1,2,0:0:0:0:
256,192,145295,1,2,0:0:0:0:
256,192,145724,1,0,0:0:0:0:
256,192,145938,1,2,0:0:0:0:
256,192,146367,1,4,0:0:0:0:
256,192,146688,1,2,0:0:0:0:
256,192,147010,1,2,0:0:0:0:
256,192,147653,1,2,0:0:0:0:
256,192,148081,1,2,0:0:0:0:
256,192,148295,1,0,0:0:0:0:
256,192,148510,1,2,0:0:0:0:
256,192,148938,1,2,0:0:0:0:
256,192,149367,1,2,0:0:0:0:
256,192,149581,1,2,0:0:0:0:
256,192,149795,1,0,0:0:0:0:
256,192,150010,1,2,0:0:0:0:
256,192,150331,1,6,0:0:0:0:
256,192,150653,1,0,0:0:0:0:
256,192,150867,1,2,0:0:0:0:
256,192,151188,1,2,0:0:0:0:
256,192,151510,1,6,0:0:0:0:
256,192,151938,1,2,0:0:0:0:
256,192,152153,1,0,0:0:0:0:
256,192,152367,1,2,0:0:0:0:
256,192,153331,1,0,0:0:0:0:
256,192,153545,1,0,0:0:0:0:
256,192,153867,1,0,0:0:0:0:
256,192,154188,1,2,0:0:0:0:
256,192,154403,1,2,0:0:0:0:
256,192,154724,1,2,0:0:0:0:
256,192,155045,1,0,0:0:0:0:
256,192,155260,1,0,0:0:0:0:
256,192,155474,1,2,0:0:0:0:
256,192,155688,1,0,0:0:0:0:
256,192,155903,1,0,0:0:0:0:
256,192,156117,1,2,0:0:0:0:
256,192,156760,1,0,0:0:0:0:
256,192,156974,1,0,0:0:0:0:
256,192,157295,1,2,0:0:0:0:
256,192,157617,1,0,0:0:0:0:
256,192,157831,1,0,0:0:0:0:
256,192,158153,1,2,0:0:0:0:
256,192,158367,1,2,0:0:0:0:
256,192,158581,1,0,0:0:0:0:
256,192,158795,1,2,0:0:0:0:
256,192,159117,1,6,0:0:0:0:
256,192,159867,1,2,0:0:0:0:
256,192,159974,1,2,0:0:0:0:
256,192,160081,1,2,0:0:0:0:
256,192,160295,1,0,0:0:0:0:
256,192,160510,1,2,0:0:0:0:
256,192,160831,1,2,0:0:0:0:
256,192,161260,1,0,0:0:0:0:
256,192,161581,1,0,0:0:0:0:
256,192,161795,1,2,0:0:0:0:
256,192,162117,1,2,0:0:0:0:
256,192,162438,1,2,0:0:0:0:
256,192,162760,1,0,0:0:0:0:
256,192,163081,1,2,0:0:0:0:
256,192,163295,1,2,0:0:0:0:
256,192,163510,1,0,0:0:0:0:
256,192,164260,1,4,0:0:0:0:
256,192,164581,1,6,0:0:0:0:
256,192,164903,1,6,0:0:0:0:
256,192,165224,5,2,0:0:0:0:
256,192,165867,1,2,0:0:0:0:
256,192,166081,1,0,0:0:0:0:
256,192,166295,1,2,0:0:0:0:
256,192,166510,1,2,0:0:0:0:
256,192,166617,1,2,0:0:0:0:
256,192,166938,1,0,0:0:0:0:
256,192,167367,1,2,0:0:0:0:
256,192,167581,1,2,0:0:0:0:
256,192,167795,1,0,0:0:0:0:
256,192,168117,1,2,0:0:0:0:
256,192,168653,1,0,0:0:0:0:
256,192,168974,1,2,0:0:0:0:
256,192,169081,1,2,0:0:0:0:
256,192,169295,1,0,0:0:0:0:
256,192,169510,1,2,0:0:0:0:
256,192,169724,1,2,0:0:0:0:
256,192,169938,1,0,0:0:0:0:
256,192,170045,1,0,0:0:0:0:
256,192,170153,1,0,0:0:0:0:
256,192,170367,1,0,0:0:0:0:
256,192,170795,1,2,0:0:0:0:
256,192,171010,1,0,0:0:0:0:
256,192,171224,1,2,0:0:0:0:
256,192,171653,1,0,0:0:0:0:
256,192,171867,1,2,0:0:0:0:
256,192,172081,1,0,0:0:0:0:
256,192,172510,1,2,0:0:0:0:
256,192,172724,1,2,0:0:0:0:
256,192,173045,1,2,0:0:0:0:
256,192,173153,1,2,0:0:0:0:
256,192,173367,1,2,0:0:0:0:
256,192,173795,1,0,0:0:0:0:
256,192,174224,1,2,0:0:0:0:
256,192,174438,1,2,0:0:0:0:
256,192,174545,1,2,0:0:0:0:
256,192,174653,1,2,0:0:0:0:
256,192,174974,1,0,0:0:0:0:
256,192,175295,1,0,0:0:0:0:
256,192,175510,1,2,0:0:0:0:
256,192,175617,1,2,0:0:0:0:
256,192,175831,1,2,0:0:0:0:
256,192,176153,1,0,0:0:0:0:
256,192,176260,1,0,0:0:0:0:
256,192,176474,1,0,0:0:0:0:
256,192,176795,1,2,0:0:0:0:
256,192,177010,1,0,0:0:0:0:
256,192,177224,1,0,0:0:0:0:
256,192,177653,1,2,0:0:0:0:
256,192,177974,1,2,0:0:0:0:
256,192,178295,1,0,0:0:0:0:
256,192,178617,1,2,0:0:0:0:
256,192,178938,1,2,0:0:0:0:
256,192,180010,1,2,0:0:0:0:
256,192,180331,1,2,0:0:0:0:
256,192,180653,1,0,0:0:0:0:
256,192,180974,1,2,0:0:0:0:
256,192,181295,1,0,0:0:0:0:
256,192,181403,1,0,0:0:0:0:
256,192,181724,1,0,0:0:0:0:
256,192,181938,1,2,0:0:0:0:
256,192,182367,1,0,0:0:0:0:
256,192,182688,1,2,0:0:0:0:
256,192,183117,1,2,0:0:0:0:
256,192,183438,1,0,0:0:0:0:
256,192,183653,1,2,0:0:0:0:
256,192,183867,1,2,0:0:0:0:
256,192,183974,1,2,0:0:0:0:
256,192,184403,1,2,0:0:0:0:
256,192,184724,1,0,0:0:0:0:
256,192,184831,1,0,0:0:0:0:
256,192,185153,1,0,0:0:0:0:
256,192,185474,1,2,0:0:0:0:
256,192,185795,1,0,0:0:0:0:
256,192,186117,1,2,0:0:0:0:
256,192,186438,1,2,0:0:0:0:
256,192,186974,1,2,0:0:0:0:
256,192,187295,1,2,0:0:0:0:
256,192,187510,1,0,0:0:0:0:
256,192,187831,1,2,0:0:0:0:
256,192,188153,1,0,0:0:0:0:
256,192,188260,1,0,0:0:0:0:
256,192,188581,1,0,0:0:0:0:
256,192,188795,1,2,0:0:0:0:
256,192,189224,1,0,0:0:0:0:
256,192,189438,1,2,0:0:0:0:
256,192,189545,1,2,0:0:0:0:
256,192,189974,1,0,0:0:0:0:
256,192,190188,1,2,0:0:0:0:
256,192,190295,1,2,0:0:0:0:
256,192,190403,1,2,0:0:0:0:
256,192,190617,1,2,0:0:0:0:
256,192,191045,1,0,0:0:0:0:
256,192,191367,1,2,0:0:0:0:
256,192,191581,1,2,0:0:0:0:
256,192,191688,1,2,0:0:0:0:
256,192,191903,1,0,0:0:0:0:
256,192,192117,1,2,0:0:0:0:
256,192,192331,1,2,0:0:0:0:
256,192,192438,1,2,0:0:0:0:
256,192,192867,1,4,0:0:0:0:
256,192,193188,1,6,0:0:0:0:
256,192,193510,1,4,0:0:0:0:
256,192,194367,1,2,0:0:0:0:
256,192,194795,1,2,0:0:0:0:
256,192,195010,1,0,0:0:0:0:
256,192,195224,1,2,0:0:0:0:
256,192,195438,1,0,0:0:0:0:
256,192,195653,1,2,0:0:0:0:
256,192,196081,1,2,0:0:0:0:
256,192,196510,1,2,0:0:0:0:
256,192,196724,1,0,0:0:0:0:
256,192,196938,1,2,0:0:0:0:
256,192,197260,1,0,0:0:0:0:
256,192,197474,1,2,0:0:0:0:
256,192,197795,1,2,0:0:0:0:
256,192,198224,1,2,0:0:0:0:
256,192,198438,1,0,0:0:0:0:
256,192,198653,1,2,0:0:0:0:
256,192,198867,1,0,0:0:0:0:
256,192,199081,1,2,0:0:0:0:
256,192,199510,1,2,0:0:0:0:
256,192,199831,1,2,0:0:0:0:
256,192,199938,1,2,0:0:0:0:
256,192,200153,1,2,0:0:0:0:
256,192,200260,1,2,0:0:0:0:
256,192,200474,1,2,0:0:0:0:
256,192,200581,1,2,0:0:0:0:
256,192,200795,1,2,0:0:0:0:
256,192,201224,1,6,0:0:0:0:
256,192,201653,1,2,0:0:0:0:
256,192,201867,1,0,0:0:0:0:
256,192,202081,1,2,0:0:0:0:
256,192,202295,1,0,0:0:0:0:
256,192,202510,1,2,0:0:0:0:
256,192,202938,1,2,0:0:0:0:
256,192,203367,1,2,0:0:0:0:
256,192,203581,1,0,0:0:0:0:
256,192,203795,1,2,0:0:0:0:
256,192,204117,1,2,0:0:0:0:
256,192,204331,1,0,0:0:0:0:
256,192,204653,1,2,0:0:0:0:
256,192,205081,1,2,0:0:0:0:
256,192,205295,1,0,0:0:0:0:
256,192,205510,1,2,0:0:0:0:
256,192,205724,1,0,0:0:0:0:
256,192,205938,1,2,0:0:0:0:
256,192,206367,1,2,0:0:0:0:
256,192,206688,1,0,0:0:0:0:
256,192,207010,1,0,0:0:0:0:
256,192,207224,1,2,0:0:0:0:
256,192,207438,1,0,0:0:0:0:
256,192,207545,1,0,0:0:0:0:
256,192,207653,1,0,0:0:0:0:
256,192,207867,1,0,0:0:0:0:
256,192,208081,1,2,0:0:0:0:
256,192,208403,1,2,0:0:0:0:
256,192,208617,1,2,0:0:0:0:
256,192,208831,1,2,0:0:0:0:
256,192,209045,1,2,0:0:0:0:
256,192,209260,1,2,0:0:0:0:
256,192,209474,1,2,0:0:0:0:
256,192,209581,1,2,0:0:0:0:
256,192,209795,1,0,0:0:0:0:
256,192,210117,1,0,0:0:0:0:
256,192,210331,1,0,0:0:0:0:
256,192,210545,1,0,0:0:0:0:
256,192,210760,1,0,0:0:0:0:
256,192,210867,1,0,0:0:0:0:
256,192,211081,1,0,0:0:0:0:
256,192,211295,1,2,0:0:0:0:
256,192,211510,1,4,0:0:0:0:
256,192,211831,12,0,215653,0:0:0:0:
