osu file format v14

[General]
AudioFilename: audio.mp3
AudioLeadIn: 0
PreviewTime: 55398
Countdown: 0
SampleSet: Normal
StackLeniency: 0.7
Mode: 1
LetterboxInBreaks: 0
WidescreenStoryboard: 1

[Editor]
Bookmarks: 14362,28076,41790,55505,82933,110362,124076,139505,153219,166933,194362
DistanceSpacing: 1
BeatDivisor: 4
GridSize: 32
TimelineZoom: 1.3

[Metadata]
Title:Water Lily
TitleUnicode:Water Lily
Artist:ARM
ArtistUnicode:ARM
Creator:tasuke912
Version:Kantan
Source:東方風神録 ~ Mountain of Faith.
Tags:_Rise IOSYS arrange zun native faith touhou 東方Project toho fuujinroku huujinroku bloom instrumental jazz
BeatmapID:3569911
BeatmapSetID:1590156

[Difficulty]
HPDrainRate:7
CircleSize:2
OverallDifficulty:3
ApproachRate:5
SliderMultiplier:1.4
SliderTickRate:1

[Events]
//Background and Video events
0,0,"water-lily-g4366fb875_1920.jpg",0,0
//Break Periods
//Storyboard Layer 0 (Background)
//Storyboard Layer 1 (Fail)
//Storyboard Layer 2 (Pass)
//Storyboard Layer 3 (Foreground)
//Storyboard Layer 4 (Overlay)
//Storyboard Sound Samples

[TimingPoints]
653,428.571428571429,4,1,0,70,1,0
55510,-100,4,1,0,70,0,1
82938,-100,4,1,0,70,0,0
137795,-100,4,1,0,40,0,0
139295,-100,4,1,0,70,0,0
194367,-86.9565217391304,4,1,0,70,0,1
211510,-86.9565217391304,4,1,0,70,0,0
211617,-86.9565217391304,4,1,0,40,0,0
211938,-100,4,1,0,40,0,0

[HitObjects]
256,192,7510,5,0,0:0:0:0:
256,192,9224,1,0,0:0:0:0:
256,192,10938,1,0,0:0:0:0:
256,192,11581,1,2,0:0:0:0:
256,192,12224,1,2,0:0:0:0:
256,192,12653,1,0,0:0:0:0:
256,192,14367,5,4,0:0:0:0:
256,192,15117,1,2,0:0:0:0:
256,192,16081,1,0,0:0:0:0:
256,192,16510,1,2,0:0:0:0:
256,192,16938,1,2,0:0:0:0:
256,192,17795,1,0,0:0:0:0:
256,192,18545,1,2,0:0:0:0:
256,192,19510,1,0,0:0:0:0:
256,192,19938,1,2,0:0:0:0:
256,192,21224,1,0,0:0:0:0:
256,192,21974,1,2,0:0:0:0:
256,192,22938,1,0,0:0:0:0:
256,192,23367,1,2,0:0:0:0:
256,192,23795,1,2,0:0:0:0:
256,192,24653,1,0,0:0:0:0:
256,192,25403,1,2,0:0:0:0:
256,192,26367,1,0,0:0:0:0:
256,192,27224,1,0,0:0:0:0:
256,192,27653,1,2,0:0:0:0:
256,192,28081,1,0,0:0:0:0:
256,192,28724,1,6,0:0:0:0:
256,192,29795,1,0,0:0:0:0:
256,192,30224,1,0,0:0:0:0:
256,192,30653,1,2,0:0:0:0:
256,192,31510,1,0,0:0:0:0:
256,192,32153,1,6,0:0:0:0:
256,192,33117,1,0,0:0:0:0:
256,192,34081,1,0,0:0:0:0:
256,192,34510,1,2,0:0:0:0:
256,192,34938,1,2,0:0:0:0:
256,192,35581,1,4,0:0:0:0:
256,192,36653,1,0,0:0:0:0:
256,192,37081,1,2,0:0:0:0:
256,192,37510,1,0,0:0:0:0:
256,192,38260,1,6,0:0:0:0:
256,192,40081,1,2,0:0:0:0:
256,192,40938,1,2,0:0:0:0:
256,192,41367,1,2,0:0:0:0:
256,192,41795,1,4,0:0:0:0:
256,192,42653,1,2,0:0:0:0:
256,192,43510,1,2,0:0:0:0:
256,192,43938,1,2,0:0:0:0:
256,192,44367,1,2,0:0:0:0:
256,192,45224,1,2,0:0:0:0:
256,192,46081,1,2,0:0:0:0:
256,192,46938,1,2,0:0:0:0:
256,192,47581,1,2,0:0:0:0:
256,192,48653,1,4,0:0:0:0:
256,192,49295,1,2,0:0:0:0:
256,192,49938,1,2,0:0:0:0:
256,192,50367,1,2,0:0:0:0:
256,192,51224,1,2,0:0:0:0:
256,192,52081,1,0,0:0:0:0:
256,192,52938,1,2,0:0:0:0:
256,192,53581,1,4,0:0:0:0:
256,192,54438,1,6,0:0:0:0:
256,192,55510,1,4,0:0:0:0:
256,192,56153,1,2,0:0:0:0:
256,192,56795,1,2,0:0:0:0:
256,192,57224,1,0,0:0:0:0:
256,192,58081,1,2,0:0:0:0:
256,192,58831,1,0,0:0:0:0:
256,192,59367,1,2,0:0:0:0:
256,192,59795,1,0,0:0:0:0:
256,192,60653,1,2,0:0:0:0:
256,192,60974,1,2,0:0:0:0:
256,192,61295,1,2,0:0:0:0:
256,192,62367,1,0,0:0:0:0:
256,192,63117,1,2,0:0:0:0:
256,192,63438,1,2,0:0:0:0:
256,192,63760,1,2,0:0:0:0:
256,192,65045,1,2,0:0:0:0:
256,192,65367,1,0,0:0:0:0:
256,192,65795,1,0,0:0:0:0:
256,192,66545,1,2,0:0:0:0:
256,192,67510,1,0,0:0:0:0:
256,192,67938,1,2,0:0:0:0:
256,192,68260,1,2,0:0:0:0:
256,192,69224,5,4,0:0:0:0:
256,192,70081,1,2,0:0:0:0:
256,192,70510,1,2,0:0:0:0:
256,192,70938,1,0,0:0:0:0:
256,192,71795,1,2,0:0:0:0:
256,192,72653,1,0,0:0:0:0:
256,192,73081,1,2,0:0:0:0:
256,192,73510,1,2,0:0:0:0:
256,192,74367,1,0,0:0:0:0:
256,192,74795,1,2,0:0:0:0:
256,192,76081,1,0,0:0:0:0:
256,192,76938,1,2,0:0:0:0:
256,192,77795,1,0,0:0:0:0:
256,192,78224,1,0,0:0:0:0:
256,192,78653,1,2,0:0:0:0:
256,192,79510,1,0,0:0:0:0:
256,192,80260,1,2,0:0:0:0:
256,192,80581,1,2,0:0:0:0:
256,192,80903,1,2,0:0:0:0:
256,192,81224,1,0,0:0:0:0:
256,192,82081,1,0,0:0:0:0:
256,192,82510,1,2,0:0:0:0:
256,192,82938,5,0,0:0:0:0:
256,192,83688,1,2,0:0:0:0:
256,192,84653,1,0,0:0:0:0:
256,192,85081,1,2,0:0:0:0:
256,192,85510,1,2,0:0:0:0:
256,192,86367,1,0,0:0:0:0:
256,192,87117,1,2,0:0:0:0:
256,192,88081,1,0,0:0:0:0:
256,192,88510,1,2,0:0:0:0:
256,192,89367,1,2,0:0:0:0:
256,192,89795,1,0,0:0:0:0:
256,192,90653,1,2,0:0:0:0:
256,192,91510,1,0,0:0:0:0:
256,192,91938,1,0,0:0:0:0:
256,192,92367,1,2,0:0:0:0:
256,192,93224,1,2,0:0:0:0:
256,192,94081,1,0,0:0:0:0:
256,192,94938,1,2,0:0:0:0:
256,192,96653,5,0,0:0:0:0:
256,192,97295,1,2,0:0:0:0:
256,192,98367,1,2,0:0:0:0:
256,192,99117,1,0,0:0:0:0:
256,192,100081,1,0,0:0:0:0:
256,192,100831,1,2,0:0:0:0:
256,192,101474,1,2,0:0:0:0:
256,192,101795,1,0,0:0:0:0:
256,192,102653,1,2,0:0:0:0:
256,192,103081,1,2,0:0:0:0:
256,192,103510,1,0,0:0:0:0:
256,192,104367,1,2,0:0:0:0:
256,192,105224,1,0,0:0:0:0:
256,192,105974,1,2,0:0:0:0:
256,192,106295,1,2,0:0:0:0:
256,192,106617,1,2,0:0:0:0:
256,192,106938,1,0,0:0:0:0:
256,192,107688,1,0,0:0:0:0:
256,192,108331,1,2,0:0:0:0:
256,192,108867,1,2,0:0:0:0:
256,192,109188,1,2,0:0:0:0:
256,192,109510,1,2,0:0:0:0:
256,192,110367,5,0,0:0:0:0:
256,192,111117,1,2,0:0:0:0:
256,192,112081,1,2,0:0:0:0:
256,192,112510,1,2,0:0:0:0:
256,192,112938,1,2,0:0:0:0:
256,192,113795,1,0,0:0:0:0:
256,192,114545,1,2,0:0:0:0:
256,192,115510,1,0,0:0:0:0:
256,192,116367,1,2,0:0:0:0:
256,192,116795,1,2,0:0:0:0:
256,192,117224,1,0,0:0:0:0:
256,192,117974,1,2,0:0:0:0:
256,192,118938,1,0,0:0:0:0:
256,192,119367,1,2,0:0:0:0:
256,192,119795,1,2,0:0:0:0:
256,192,120653,1,0,0:0:0:0:
256,192,121403,1,0,0:0:0:0:
256,192,122367,1,2,0:0:0:0:
256,192,123224,1,2,0:0:0:0:
256,192,123653,1,2,0:0:0:0:
256,192,124081,1,0,0:0:0:0:
256,192,124724,1,6,0:0:0:0:
256,192,125795,1,0,0:0:0:0:
256,192,126224,1,0,0:0:0:0:
256,192,126653,1,2,0:0:0:0:
256,192,127510,1,0,0:0:0:0:
256,192,128153,1,6,0:0:0:0:
256,192,129117,1,0,0:0:0:0:
256,192,130081,1,0,0:0:0:0:
256,192,130510,1,2,0:0:0:0:
256,192,130938,1,2,0:0:0:0:
256,192,131581,1,4,0:0:0:0:
256,192,132653,1,0,0:0:0:0:
256,192,133081,1,2,0:0:0:0:
256,192,133510,1,2,0:0:0:0:
256,192,134260,1,4,0:0:0:0:
256,192,135224,1,2,0:0:0:0:
256,192,136081,1,0,0:0:0:0:
256,192,136938,1,2,0:0:0:0:
256,192,137367,1,2,0:0:0:0:
256,192,137795,12,0,139081,0:0:0:0:
256,192,139510,5,4,0:0:0:0:
256,192,140367,1,2,0:0:0:0:
256,192,141224,1,2,0:0:0:0:
256,192,141653,1,2,0:0:0:0:
256,192,142081,1,2,0:0:0:0:
256,192,142938,1,0,0:0:0:0:
256,192,143795,1,2,0:0:0:0:
256,192,144653,1,2,0:0:0:0:
256,192,146367,1,0,0:0:0:0:
256,192,147010,1,2,0:0:0:0:
256,192,147653,1,2,0:0:0:0:
256,192,148081,1,0,0:0:0:0:
256,192,148938,1,2,0:0:0:0:
256,192,149367,1,2,0:0:0:0:
256,192,149795,1,0,0:0:0:0:
256,192,150653,1,2,0:0:0:0:
256,192,151510,1,6,0:0:0:0:
256,192,153224,1,0,0:0:0:0:
256,192,154081,1,2,0:0:0:0:
256,192,154938,1,0,0:0:0:0:
256,192,155367,1,2,0:0:0:0:
256,192,155795,1,0,0:0:0:0:
256,192,156653,1,2,0:0:0:0:
256,192,157510,1,0,0:0:0:0:
256,192,158367,1,2,0:0:0:0:
256,192,158795,1,0,0:0:0:0:
256,192,159117,1,6,0:0:0:0:
256,192,160081,1,2,0:0:0:0:
256,192,160510,1,2,0:0:0:0:
256,192,160831,1,2,0:0:0:0:
256,192,161795,1,0,0:0:0:0:
256,192,162117,1,0,0:0:0:0:
256,192,162653,1,2,0:0:0:0:
256,192,163081,1,2,0:0:0:0:
256,192,163510,1,0,0:0:0:0:
256,192,164260,1,4,0:0:0:0:
256,192,164581,1,6,0:0:0:0:
256,192,164903,1,6,0:0:0:0:
256,192,165224,1,2,0:0:0:0:
256,192,166938,1,0,0:0:0:0:
256,192,167795,1,2,0:0:0:0:
256,192,168117,1,2,0:0:0:0:
256,192,169081,1,0,0:0:0:0:
256,192,169510,1,2,0:0:0:0:
256,192,169938,1,2,0:0:0:0:
256,192,170367,1,0,0:0:0:0:
256,192,171224,1,2,0:0:0:0:
256,192,172081,1,0,0:0:0:0:
256,192,172510,1,2,0:0:0:0:
256,192,173367,1,2,0:0:0:0:
256,192,173795,1,0,0:0:0:0:
256,192,174653,1,2,0:0:0:0:
256,192,175510,1,0,0:0:0:0:
256,192,175938,1,0,0:0:0:0:
256,192,176367,1,2,0:0:0:0:
256,192,176795,1,2,0:0:0:0:
256,192,177224,1,0,0:0:0:0:
256,192,177974,1,2,0:0:0:0:
256,192,178295,1,2,0:0:0:0:
256,192,178617,1,2,0:0:0:0:
256,192,178938,1,0,0:0:0:0:
256,192,180653,1,4,0:0:0:0:
256,192,181510,1,2,0:0:0:0:
256,192,182367,1,0,0:0:0:0:
256,192,182795,1,0,0:0:0:0:
256,192,183117,1,2,0:0:0:0:
256,192,183974,1,0,0:0:0:0:
256,192,184938,1,2,0:0:0:0:
256,192,185795,1,2,0:0:0:0:
256,192,186438,1,2,0:0:0:0:
256,192,186974,1,2,0:0:0:0:
256,192,187510,1,0,0:0:0:0:
256,192,188367,1,0,0:0:0:0:
256,192,188795,1,2,0:0:0:0:
256,192,189224,1,0,0:0:0:0:
256,192,190188,1,2,0:0:0:0:
256,192,190617,1,2,0:0:0:0:
256,192,191045,1,0,0:0:0:0:
256,192,191903,1,0,0:0:0:0:
256,192,192331,1,2,0:0:0:0:
256,192,192867,1,4,0:0:0:0:
256,192,193188,1,6,0:0:0:0:
256,192,193510,1,4,0:0:0:0:
256,192,194367,5,6,0:0:0:0:
256,192,194795,1,2,0:0:0:0:
256,192,195224,1,2,0:0:0:0:
256,192,196081,1,2,0:0:0:0:
256,192,196510,1,2,0:0:0:0:
256,192,196938,1,2,0:0:0:0:
256,192,197474,1,0,0:0:0:0:
256,192,197795,1,2,0:0:0:0:
256,192,198224,1,2,0:0:0:0:
256,192,198653,1,2,0:0:0:0:
256,192,199510,1,2,0:0:0:0:
256,192,199938,1,2,0:0:0:0:
256,192,200260,1,2,0:0:0:0:
256,192,200795,1,0,0:0:0:0:
256,192,201224,1,6,0:0:0:0:
256,192,201653,1,2,0:0:0:0:
256,192,202081,1,2,0:0:0:0:
256,192,202938,1,2,0:0:0:0:
256,192,203367,1,2,0:0:0:0:
256,192,203795,1,2,0:0:0:0:
256,192,204331,1,0,0:0:0:0:
256,192,204653,1,2,0:0:0:0:
256,192,205081,1,2,0:0:0:0:
256,192,205510,1,2,0:0:0:0:
256,192,206367,1,2,0:0:0:0:
256,192,206688,1,0,0:0:0:0:
256,192,207010,1,0,0:0:0:0:
256,192,208081,1,0,0:0:0:0:
256,192,208831,1,0,0:0:0:0:
256,192,209045,1,0,0:0:0:0:
256,192,209260,1,0,0:0:0:0:
256,192,209795,1,2,0:0:0:0:
256,192,210545,1,2,0:0:0:0:
256,192,210760,1,2,0:0:0:0:
256,192,210974,1,2,0:0:0:0:
256,192,211510,1,4,0:0:0:0:
256,192,211831,12,0,215653,0:0:0:0:
