osu file format v14

[General]
AudioFilename: audio.mp3
AudioLeadIn: 0
PreviewTime: 6650
Countdown: 0
SampleSet: Soft
StackLeniency: 0.7
Mode: 2
LetterboxInBreaks: 0
WidescreenStoryboard: 1

[Editor]
Bookmarks: 7250,20050,32850,45650,58450,71250,79650
DistanceSpacing: 1.1
BeatDivisor: 4
GridSize: 4
TimelineZoom: 1.4

[Metadata]
Title:Streak
TitleUnicode:Streak
Artist:ARM
ArtistUnicode:ARM
Creator:JBHyperion
Version:Wild's Rain
Source:HALFPIPE TOKYO
Tags:IOSYS Youhei Kimura 木村洋平 Joypolis Original Soundtrack OST SEGA maimai plus Raiin SangKrazFinale SangKrazF1nal3 WildOne94 Sinnoh Kukkai Salchow MBomb JBH
BeatmapID:1809826
BeatmapSetID:865565

[Difficulty]
HPDrainRate:6
CircleSize:3.8
OverallDifficulty:9
ApproachRate:9
SliderMultiplier:1.8
SliderTickRate:1

[Events]
//Background and Video events
0,0,"TechnoNeonPipe-thing.jpg",0,0
//Break Periods
//Storyboard Layer 0 (Background)
//Storyboard Layer 1 (Fail)
//Storyboard Layer 2 (Pass)
//Storyboard Layer 3 (Foreground)
//Storyboard Sound Samples

[TimingPoints]
2450,400,4,2,0,10,1,0
2850,-100,4,2,0,15,0,0
3250,-100,4,2,0,20,0,0
3650,-100,4,2,0,25,0,0
4050,-100,4,2,0,40,0,0
4450,-100,4,2,0,35,0,0
4850,-100,4,2,0,40,0,0
5250,-100,4,2,0,45,0,0
5650,-100,4,2,0,50,0,0
6050,-100,4,2,0,55,0,0
6450,-100,4,3,1,60,0,0
6750,-100,4,3,1,20,0,0
6850,-100,4,3,1,45,0,0
7250,-100,4,2,2,60,0,0
7350,-100,4,2,1,60,0,0
9650,-100,4,2,1,60,0,0
9950,-100,4,2,1,60,0,0
12050,-100,4,2,77,60,0,0
12850,-100,4,2,1,60,0,0
13650,-100,4,2,2,60,0,0
13850,-100,4,2,1,60,0,0
16850,-100,4,2,2,60,0,0
18450,-100,4,3,1,30,0,0
19250,-100,4,2,1,60,0,0
19550,-100,4,2,2,70,0,0
19650,-100,4,2,1,70,0,0
20050,-71.4285714285714,4,2,1,70,0,0
20250,-71.4285714285714,4,2,1,60,0,0
20650,-83.3333333333333,4,2,1,60,0,0
20850,-83.3333333333333,4,2,77,60,0,0
21050,-83.3333333333333,4,2,77,40,0,0
21250,-83.3333333333333,4,2,1,60,0,0
21650,-71.4285714285714,4,2,77,60,0,0
21850,-71.4285714285714,4,2,1,60,0,0
22250,-83.3333333333333,4,2,1,60,0,0
23650,-66.6666666666667,4,2,77,60,0,0
23850,-66.6666666666667,4,2,0,60,0,0
24150,-66.6666666666667,4,2,1,60,0,0
24450,-66.6666666666667,4,2,77,40,0,0
24650,-83.3333333333333,4,2,1,60,0,0
24850,-83.3333333333333,4,2,2,50,0,0
25050,-83.3333333333333,4,2,1,60,0,0
25650,-83.3333333333333,4,2,0,60,0,0
25750,-83.3333333333333,4,2,1,60,0,0
26450,-71.4285714285714,4,2,77,60,0,0
26650,-71.4285714285714,4,2,1,60,0,0
27050,-83.3333333333333,4,2,1,60,0,0
27250,-83.3333333333333,4,2,77,60,0,0
27450,-83.3333333333333,4,2,77,40,0,0
27650,-83.3333333333333,4,2,1,60,0,0
28050,-71.4285714285714,4,2,77,60,0,0
28250,-71.4285714285714,4,2,1,60,0,0
28650,-83.3333333333333,4,2,1,60,0,0
30050,-83.3333333333333,4,2,77,60,0,0
30250,-83.3333333333333,4,2,0,60,0,0
30550,-83.3333333333333,4,2,1,60,0,0
30850,-66.6666666666667,4,2,77,60,0,0
31050,-83.3333333333333,4,2,1,60,0,0
31250,-71.4285714285714,4,2,77,50,0,0
31650,-83.3333333333333,4,2,1,50,0,0
32050,-83.3333333333333,4,2,77,30,0,0
32450,-83.3333333333333,4,2,1,50,0,0
32583,-83.3333333333333,4,2,77,40,0,0
32850,-71.4285714285714,4,2,2,50,0,0
33050,-71.4285714285714,4,2,1,50,0,0
33450,-83.3333333333333,4,2,1,50,0,0
33650,-83.3333333333333,4,2,77,50,0,0
33850,-83.3333333333333,4,2,77,40,0,0
34050,-83.3333333333333,4,2,1,60,0,0
34450,-71.4285714285714,4,2,77,60,0,0
34650,-71.4285714285714,4,2,1,60,0,0
35050,-83.3333333333333,4,2,1,60,0,0
36450,-66.6666666666667,4,2,77,60,0,0
36750,-66.6666666666667,4,2,1,40,0,0
36850,-66.6666666666667,4,2,0,60,0,0
37150,-66.6666666666667,4,2,1,40,0,0
37250,-66.6666666666667,4,2,77,40,0,0
37450,-83.3333333333333,4,2,77,40,0,0
37550,-83.3333333333333,4,2,1,40,0,0
37650,-83.3333333333333,4,2,2,50,0,0
37850,-83.3333333333333,4,2,1,60,0,0
38450,-83.3333333333333,4,2,0,60,0,0
38550,-83.3333333333333,4,2,1,60,0,0
39250,-71.4285714285714,4,2,77,60,0,0
39450,-71.4285714285714,4,2,1,60,0,0
39850,-83.3333333333333,4,2,1,60,0,0
40050,-83.3333333333333,4,2,77,60,0,0
40250,-83.3333333333333,4,2,77,40,0,0
40450,-83.3333333333333,4,2,1,60,0,0
40850,-71.4285714285714,4,2,77,60,0,0
41050,-71.4285714285714,4,2,1,60,0,0
41450,-83.3333333333333,4,2,1,60,0,0
42450,-66.6666666666667,4,2,1,60,0,0
43250,-66.6666666666667,4,2,0,60,0,0
43350,-66.6666666666667,4,2,1,60,0,0
43650,-66.6666666666667,4,2,0,50,0,0
44050,-100,4,2,0,50,0,0
44350,-100,4,2,1,30,0,0
45650,-58.8235294117647,4,2,99,70,0,1
45950,-58.8235294117647,4,2,1,70,0,1
46450,-58.8235294117647,4,2,0,90,0,1
46550,-58.8235294117647,4,2,1,70,0,1
46850,-58.8235294117647,4,2,77,50,0,1
47250,-83.3333333333333,4,2,1,70,0,1
48050,-83.3333333333333,4,2,4,70,0,1
48850,-83.3333333333333,4,2,1,70,0,1
50450,-83.3333333333333,4,3,2,70,0,0
50650,-83.3333333333333,4,2,1,50,0,0
51050,-83.3333333333333,4,3,2,70,0,0
51150,-83.3333333333333,4,2,1,50,0,0
51650,-83.3333333333333,4,2,1,70,0,0
52050,-58.8235294117647,4,2,2,90,0,1
52350,-58.8235294117647,4,2,1,70,0,1
52650,-66.6666666666667,4,2,1,70,0,1
52850,-58.8235294117647,4,2,0,90,0,1
52950,-58.8235294117647,4,2,1,70,0,1
53250,-58.8235294117647,4,2,77,50,0,1
53550,-58.8235294117647,4,2,1,70,0,1
53650,-83.3333333333333,4,2,1,70,0,1
54450,-83.3333333333333,4,2,4,70,0,1
55250,-83.3333333333333,4,3,2,90,0,1
55450,-83.3333333333333,4,2,1,70,0,1
56050,-83.3333333333333,4,2,77,40,0,1
56450,-83.3333333333333,4,2,1,60,0,1
56583,-83.3333333333333,4,2,77,50,0,1
56850,-83.3333333333333,4,2,2,60,0,0
57050,-83.3333333333333,4,2,0,80,0,0
57350,-83.3333333333333,4,2,2,20,0,0
57450,-83.3333333333333,4,2,2,60,0,0
57850,-83.3333333333333,4,2,1,40,0,0
58050,-83.3333333333333,4,2,0,50,0,0
58150,-83.3333333333333,4,2,1,70,0,0
58250,-83.3333333333333,4,2,0,60,0,0
58350,-83.3333333333333,4,2,1,80,0,0
58450,-83.3333333333333,4,2,2,70,0,1
58650,-83.3333333333333,4,2,1,70,0,1
58850,-83.3333333333333,4,2,4,70,0,1
59850,-83.3333333333333,4,2,1,70,0,1
60050,-76.9230769230769,4,2,2,70,0,1
60250,-76.9230769230769,4,2,1,70,0,1
60450,-76.9230769230769,4,2,4,70,0,1
60950,-76.9230769230769,4,2,0,50,0,1
61150,-76.9230769230769,4,2,4,70,0,1
61650,-76.9230769230769,4,2,2,70,0,1
61850,-76.9230769230769,4,2,1,70,0,1
62050,-76.9230769230769,4,2,4,70,0,1
62550,-76.9230769230769,4,2,4,50,0,1
62750,-76.9230769230769,4,2,4,70,0,1
63250,-58.8235294117647,4,2,2,70,0,0
63550,-58.8235294117647,4,2,1,70,0,0
63650,-83.3333333333333,4,2,1,70,0,0
64050,-83.3333333333333,4,2,0,70,0,0
64150,-83.3333333333333,4,2,1,70,0,0
64450,-66.6666666666667,4,2,4,80,0,0
64750,-66.6666666666667,4,2,1,60,0,0
64850,-83.3333333333333,4,2,2,70,0,1
65050,-83.3333333333333,4,2,1,70,0,1
65250,-83.3333333333333,4,2,4,70,0,1
66250,-83.3333333333333,4,2,1,70,0,1
66450,-83.3333333333333,4,2,2,80,0,1
66650,-83.3333333333333,4,2,1,70,0,1
66850,-83.3333333333333,4,2,4,70,0,1
67350,-83.3333333333333,4,2,0,50,0,1
67550,-83.3333333333333,4,2,4,70,0,1
68050,-83.3333333333333,4,2,2,70,0,1
68250,-83.3333333333333,4,2,1,70,0,1
68450,-83.3333333333333,4,2,4,70,0,1
68950,-83.3333333333333,4,2,4,50,0,1
69150,-83.3333333333333,4,2,4,70,0,1
69650,-100,4,2,2,70,0,0
69950,-100,4,2,4,60,0,0
70950,-100,4,2,1,60,0,0
71250,-100,4,2,2,70,0,0
71450,-100,4,2,1,60,0,0
71650,-100,4,2,0,60,0,0
71750,-100,4,2,1,60,0,0
72050,-100,4,2,77,70,0,0
72250,-100,4,2,77,50,0,0
72450,-100,4,2,1,60,0,0
72850,-100,4,2,77,70,0,0
73650,-100,4,2,1,60,0,0
74450,-100,4,2,77,70,0,0
75250,-100,4,2,1,60,0,0
76050,-100,4,2,0,60,0,0
76250,-100,4,2,1,60,0,0
77150,-100,4,2,0,60,0,0
77450,-100,4,2,1,60,0,0
77650,-100,4,2,2,70,0,0
78050,-100,4,2,0,70,0,0
78450,-100,4,2,0,60,0,0
78850,-100,4,2,0,50,0,0
79250,-100,4,2,0,40,0,0
79650,-100,4,2,0,30,0,0

[Colours]
Combo1 : 175,75,255
Combo2 : 255,75,75
Combo3 : 255,175,75
Combo4 : 255,255,75
Combo5 : 75,255,75
Combo6 : 75,255,255
Combo7 : 75,175,255
Combo8 : 175,175,255

[HitObjects]
256,192,2450,12,0,6250,0:0:0:0:
256,192,6450,5,4,0:0:0:0:
80,208,6850,2,0,P|36:164|96:132,1,135,2|0,0:0|0:0,0:0:0:0:
256,120,7250,6,0,L|356:120,1,90,4|0,0:0|0:0,0:0:0:0:
151,117,7650,1,2,0:0:0:0:
83,117,7750,1,0,0:0:0:0:
151,117,7850,1,0,0:0:0:0:
256,120,7950,1,0,0:0:0:0:
429,121,8050,2,0,B|532:119|401:121,1,90,8|0,0:0|0:0,0:0:0:0:
256,120,8450,2,0,L|360:120,1,90,2|0,0:0|0:0,0:0:0:0:
276,120,8750,1,0,0:0:0:0:
116,120,8850,6,0,L|-8:120,1,90,8|0,0:0|0:0,0:0:0:0:
108,120,9150,1,0,0:0:0:0:
200,120,9250,2,0,L|92:120,1,90,8|0,0:0|0:0,0:0:0:0:
389,148,9650,2,0,P|433:128|369:92,1,135,4|0,0:0|0:0,0:0:0:0:
325,80,10050,1,2,0:0:0:0:
461,84,10250,1,2,0:0:0:0:
92,76,10450,6,0,L|216:76,1,90,8|0,0:0|0:0,0:0:0:0:
248,76,10750,1,0,0:0:0:0:
316,80,10850,2,0,L|216:80,1,90,8|0,0:0|0:0,0:0:0:0:
496,88,11250,1,4,0:0:0:0:
272,104,11650,2,0,L|180:104,1,90,2|2,0:0|0:0,0:0:0:0:
472,108,12050,5,10,0:0:0:0:
404,108,12150,1,0,0:0:0:0:
404,56,12250,1,2,0:0:0:0:
472,56,12350,1,0,0:0:0:0:
256,44,12450,1,2,0:0:0:0:
204,44,12550,1,0,0:0:0:0:
316,44,12650,1,10,0:0:0:0:
368,44,12750,1,8,0:0:0:0:
128,48,12850,2,0,L|8:48,1,90,4|8,0:0|0:0,0:0:0:0:
384,56,13450,1,2,0:0:0:0:
32,64,13650,6,0,L|144:64,1,90,4|0,0:0|0:0,0:0:0:0:
300,64,14050,2,0,L|196:64,1,90,2|8,0:0|0:0,0:0:0:0:
484,72,14450,2,0,L|388:72,1,90,4|0,0:0|0:0,0:0:0:0:
340,72,14750,1,2,0:0:0:0:
48,80,15050,1,2,0:0:0:0:
328,80,15250,6,0,L|444:80,2,90,8|0|2,0:0|0:0|0:0,0:0:0:0:
452,84,15850,1,8,0:0:0:0:
96,92,16050,2,0,L|232:60,1,135,4|2,0:0|0:0,0:0:0:0:
292,60,16450,1,0,0:0:0:0:
476,56,16650,1,2,0:0:0:0:
144,56,16850,6,0,P|88:92|176:132,1,180,12|0,0:0|0:0,0:0:0:0:
404,148,17650,2,0,L|220:148,1,180,12|0,0:0|0:0,0:0:0:0:
412,148,18350,1,0,0:0:0:0:
252,144,18450,1,8,0:0:0:0:
188,144,18550,1,8,0:0:0:0:
188,80,18650,1,8,0:0:0:0:
252,80,18750,1,8,0:0:0:0:
424,80,18850,1,8,0:0:0:0:
476,80,18950,1,8,0:0:0:0:
476,132,19050,1,8,0:0:0:0:
424,132,19150,1,8,0:0:0:0:
256,188,19250,5,8,0:0:0:0:
8,192,19650,1,4,0:0:0:0:
472,192,20050,6,0,P|484:156|408:112,1,125.999996154785,4|0,0:0|0:0,0:0:0:0:
360,108,20350,1,8,0:0:0:0:
176,192,20450,2,0,L|48:192,1,125.999996154785,4|0,0:0|0:0,0:0:0:0:
416,192,20850,1,2,0:0:0:0:
480,192,20950,1,0,0:0:0:0:
480,128,21050,1,4,0:0:0:0:
416,128,21150,1,0,0:0:0:0:
192,128,21250,2,0,L|276:128,1,53.9999983520508,4|0,0:0|0:0,0:0:0:0:
352,128,21450,2,0,L|288:128,1,53.9999983520508,2|0,0:0|0:0,0:0:0:0:
87,191,21650,6,0,P|43:191|131:191,1,125.999996154785,2|0,0:0|0:0,0:0:0:0:
195,191,21950,1,8,0:0:0:0:
464,192,22050,2,0,L|348:144,1,125.999996154785,4|0,0:0|0:0,0:0:0:0:
83,220,22450,1,10,0:0:0:0:
139,203,22550,1,2,0:0:0:0:
107,152,22650,1,10,0:0:0:0:
47,146,22750,1,2,0:0:0:0:
210,149,22850,2,0,L|346:149,1,107.999996704102,4|2,0:0|0:0,0:0:0:0:
8,172,23250,5,8,0:0:0:0:
136,172,23450,1,2,0:0:0:0:
396,208,23650,2,0,P|496:208|368:208,1,202.500007724762,2|0,0:0|0:0,0:0:0:0:
192,208,24050,2,0,P|104:200|136:96,1,202.500007724762,2|0,0:0|0:0,0:0:0:0:
352,184,24450,2,0,P|425:184|464:128,1,135.000005149842,12|0,0:0|0:0,0:0:0:0:
136,188,24850,6,0,P|84:188|152:188,1,107.999996704102,4|0,0:0|0:0,0:0:0:0:
356,192,25250,1,4,0:0:0:0:
476,192,25450,1,8,0:0:0:0:
100,116,25650,1,2,0:0:0:0:
48,116,25750,1,2,0:0:0:0:
48,172,25850,1,2,0:0:0:0:
100,168,25950,1,2,0:0:0:0:
291,171,26050,1,4,0:0:0:0:
381,148,26150,1,2,0:0:0:0:
461,96,26250,1,10,0:0:0:0:
380,42,26350,1,2,0:0:0:0:
52,192,26450,6,0,P|8:192|96:192,1,125.999996154785,2|0,0:0|0:0,0:0:0:0:
156,192,26750,1,8,0:0:0:0:
316,192,26850,2,0,L|184:192,1,125.999996154785,4|0,0:0|0:0,0:0:0:0:
450,188,27250,1,2,0:0:0:0:
496,148,27350,1,0,0:0:0:0:
476,84,27450,1,4,0:0:0:0:
412,72,27550,1,0,0:0:0:0:
232,72,27650,2,0,L|140:72,1,53.9999983520508,4|0,0:0|0:0,0:0:0:0:
52,72,27850,2,0,L|116:72,1,53.9999983520508,2|0,0:0|0:0,0:0:0:0:
400,76,28050,6,0,P|472:76|396:76,1,125.999996154785,2|0,0:0|0:0,0:0:0:0:
352,80,28350,1,8,0:0:0:0:
108,76,28450,2,0,P|40:76|112:76,1,125.999996154785,4|0,0:0|0:0,0:0:0:0:
256,80,28850,1,10,0:0:0:0:
320,80,28950,1,2,0:0:0:0:
320,144,29050,1,10,0:0:0:0:
256,144,29150,1,2,0:0:0:0:
480,64,29250,2,0,L|375:114,1,107.999996704102,4|0,0:0|0:0,0:0:0:0:
100,88,29650,6,0,P|44:100|108:136,1,161.999995056153,8|8,0:0|0:0,0:0:0:0:
256,160,30050,2,0,L|392:160,1,107.999996704102,2|2,0:0|0:0,0:0:0:0:
164,160,30450,1,2,0:0:0:0:
32,160,30650,1,2,0:0:0:0:
424,188,30850,2,0,P|492:188|408:188,1,135.000005149842,4|2,0:0|0:0,0:0:0:0:
152,192,31250,6,0,P|28:192|168:192,1,251.999992309571,2|2,0:0|0:0,0:0:0:0:
324,116,32050,1,2,0:0:0:0:
408,116,32183,1,2,0:0:0:0:
300,116,32316,1,2,0:0:0:0:
156,120,32450,1,4,0:0:0:0:
48,120,32583,1,2,0:0:0:0:
192,120,32716,1,2,0:0:0:0:
436,128,32850,6,0,P|496:128|392:128,1,125.999996154785,4|0,0:0|0:0,0:0:0:0:
356,128,33150,1,8,0:0:0:0:
196,128,33250,2,0,L|316:80,1,125.999996154785,4|0,0:0|0:0,0:0:0:0:
52,40,33650,1,2,0:0:0:0:
8,80,33750,1,0,0:0:0:0:
18,138,33850,1,4,0:0:0:0:
75,154,33950,1,0,0:0:0:0:
256,156,34050,2,0,L|320:156,1,53.9999983520508,4|0,0:0|0:0,0:0:0:0:
424,156,34250,2,0,L|424:88,1,53.9999983520508,2|0,0:0|0:0,0:0:0:0:
232,156,34450,6,0,L|100:156,1,125.999996154785,2|0,0:0|0:0,0:0:0:0:
168,156,34750,1,2,0:0:0:0:
364,168,34850,2,0,L|496:168,1,125.999996154785,8|0,0:0|0:0,0:0:0:0:
288,184,35250,1,10,0:0:0:0:
224,184,35350,1,2,0:0:0:0:
224,248,35450,1,10,0:0:0:0:
288,248,35550,1,2,0:0:0:0:
64,252,35650,2,0,P|8:252|92:252,1,107.999996704102,4|2,0:0|0:0,0:0:0:0:
384,252,36050,5,8,0:0:0:0:
512,256,36250,1,2,0:0:0:0:
252,192,36450,2,0,P|172:168|252:96,1,202.500007724762,2|0,0:0|0:0,0:0:0:0:
472,92,36850,2,0,P|404:176|280:176,1,202.500007724762,2|0,0:0|0:0,0:0:0:0:
96,192,37250,2,0,P|68:132|176:100,1,202.500007724762,12|0,0:0|0:0,0:0:0:0:
404,188,37650,6,0,P|456:188|388:188,1,107.999996704102,4|0,0:0|0:0,0:0:0:0:
200,192,38050,1,4,0:0:0:0:
72,192,38250,1,0,0:0:0:0:
388,200,38450,1,2,0:0:0:0:
452,200,38550,1,2,0:0:0:0:
452,136,38650,1,2,0:0:0:0:
388,136,38750,1,2,0:0:0:0:
174,200,38850,1,6,0:0:0:0:
97,200,38950,1,2,0:0:0:0:
32,200,39050,1,10,0:0:0:0:
32,135,39150,1,2,0:0:0:0:
256,192,39250,6,0,L|392:192,1,125.999996154785,2|0,0:0|0:0,0:0:0:0:
308,192,39550,1,8,0:0:0:0:
124,192,39650,2,0,P|40:192|136:192,1,125.999996154785,4|0,0:0|0:0,0:0:0:0:
382,192,40050,1,2,0:0:0:0:
448,192,40150,1,0,0:0:0:0:
512,192,40250,1,4,0:0:0:0:
448,192,40350,1,0,0:0:0:0:
256,192,40450,2,0,L|184:192,1,53.9999983520508,4|0,0:0|0:0,0:0:0:0:
84,192,40650,2,0,L|84:104,1,53.9999983520508,2|0,0:0|0:0,0:0:0:0:
256,192,40850,6,0,L|388:192,1,125.999996154785,2|0,0:0|0:0,0:0:0:0:
440,196,41150,1,8,0:0:0:0:
256,192,41250,2,0,L|116:192,1,125.999996154785,4|0,0:0|0:0,0:0:0:0:
256,192,41650,1,10,0:0:0:0:
320,192,41750,1,2,0:0:0:0:
320,128,41850,1,10,0:0:0:0:
256,128,41950,1,2,0:0:0:0:
40,136,42050,2,0,L|41:23,1,107.999996704102,4|0,0:0|0:0,0:0:0:0:
256,80,42450,6,0,P|324:100|248:152,1,202.500007724762,8|8,0:0|0:0,0:0:0:0:
50,177,42850,2,0,P|89:272|202:265,1,202.500007724762,4|0,0:0|0:0,0:0:0:0:
464,261,43250,2,0,P|468:209|372:177,1,135.000005149842,2|2,0:0|0:0,0:0:0:0:
112,188,43650,2,0,L|90:213,6,33.7500012874604,2|2|0|0|0|0|0,0:0|0:0|0:0|0:0|0:0|0:0|0:0,0:0:0:0:
366,192,44050,5,2,0:0:0:0:
256,192,44450,1,2,0:0:0:0:
148,192,44650,1,2,0:0:0:0:
96,192,44750,1,2,0:0:0:0:
96,140,44850,1,10,0:0:0:0:
148,144,44950,1,0,0:0:0:0:
343,194,45050,2,4,L|407:194,1,45,14|4,0:0|0:0,0:0:0:0:
164,192,45250,1,4,0:0:0:0:
96,192,45350,2,4,B|32:192|32:192|96:192,1,90,12|4,0:0|0:0,0:0:0:0:
264,200,45650,6,0,P|360:192|412:60,1,229.500004377365,12|8,0:0|0:0,0:0:0:0:
368,36,46050,1,4,0:0:0:0:
308,24,46150,1,0,0:0:0:0:
72,208,46250,2,0,P|36:136|204:80,1,306.000005836487,2|2,0:0|0:0,0:0:0:0:
138,59,46750,1,0,0:0:0:0:
364,102,46850,2,0,P|377:176|313:192,1,153.000002918243,6|0,0:0|0:0,0:0:0:0:
24,192,47250,5,8,0:0:0:0:
152,192,47450,1,8,0:0:0:0:
412,196,47650,1,4,0:0:0:0:
256,192,47850,2,0,L|168:192,1,53.9999983520508,2|0,0:0|0:0,0:0:0:0:
496,196,48050,2,0,L|496:132,1,53.9999983520508,10|0,0:0|0:0,0:0:0:0:
392,128,48250,2,0,L|320:128,1,53.9999983520508,10|0,0:0|0:0,0:0:0:0:
176,120,48450,2,0,L|108:120,1,53.9999983520508,6|0,0:0|0:0,0:0:0:0:
328,120,48650,2,0,L|388:120,1,53.9999983520508,10|0,0:0|0:0,0:0:0:0:
96,132,48850,5,10,0:0:0:0:
32,132,48950,1,2,0:0:0:0:
32,196,49050,1,2,0:0:0:0:
96,196,49150,1,2,0:0:0:0:
256,192,49250,1,6,0:0:0:0:
320,192,49350,1,2,0:0:0:0:
376,160,49450,1,2,0:0:0:0:
397,98,49550,1,2,0:0:0:0:
220,192,49650,5,10,0:0:0:0:
284,160,49750,1,2,0:0:0:0:
284,100,49850,1,2,0:0:0:0:
220,80,49950,1,2,0:0:0:0:
420,72,50050,1,6,0:0:0:0:
484,72,50150,1,2,0:0:0:0:
484,136,50250,1,2,0:0:0:0:
420,140,50350,1,2,0:0:0:0:
256,128,50450,6,0,P|196:88|248:40,1,161.999995056153,4|8,0:0|0:0,0:0:0:0:
312,40,50850,1,2,0:0:0:0:
20,48,51050,2,0,L|140:48,1,107.999996704102,4|2,0:0|0:0,0:0:0:0:
20,48,51450,1,8,0:0:0:0:
400,44,51650,2,0,P|484:68|444:144,1,161.999995056153,4|0,0:0|0:0,0:0:0:0:
256,160,52050,6,0,P|204:232|344:252,1,229.500004377365,4|8,0:0|0:0,0:0:0:0:
232,248,52450,1,4,0:0:0:0:
168,192,52550,1,0,0:0:0:0:
443,192,52650,2,0,P|437:286|288:300,1,270.000010299683,2|2,0:0|0:0,0:0:0:0:
364,280,53150,1,0,0:0:0:0:
112,316,53250,2,0,B|-44:312|124:316,1,153.000002918243,4|0,0:0|0:0,0:0:0:0:
460,316,53650,5,2,0:0:0:0:
320,316,53850,2,0,L|456:316,2,107.999996704102,8|4|2,0:0|0:0|0:0,0:0:0:0:
32,320,54450,2,0,L|104:320,1,53.9999983520508,10|0,0:0|0:0,0:0:0:0:
188,320,54650,2,0,L|188:232,1,53.9999983520508,10|0,0:0|0:0,0:0:0:0:
60,320,54850,2,0,L|58:224,1,53.9999983520508,6|0,0:0|0:0,0:0:0:0:
164,320,55050,2,0,L|264:320,1,53.9999983520508,10|0,0:0|0:0,0:0:0:0:
436,320,55250,5,4,0:0:0:0:
320,316,55450,1,8,0:0:0:0:
488,320,55650,1,4,0:0:0:0:
488,320,55850,1,2,0:0:0:0:
108,192,56050,1,2,0:0:0:0:
208,192,56183,1,2,0:0:0:0:
324,192,56316,1,2,0:0:0:0:
208,192,56450,1,4,0:0:0:0:
80,192,56583,1,2,0:0:0:0:
244,192,56716,1,2,0:0:0:0:
444,204,56850,6,0,P|492:168|408:128,1,161.999995056153,4|2,0:0|0:0,0:0:0:0:
44,120,57450,1,4,0:0:0:0:
368,120,57850,1,8,0:0:0:0:
88,184,58050,1,2,0:0:0:0:
36,168,58150,1,2,0:0:0:0:
20,116,58250,1,2,0:0:0:0:
60,76,58350,1,2,0:0:0:0:
256,48,58450,6,0,P|308:80|248:132,1,161.999995056153,4|8,0:0|0:0,0:0:0:0:
168,132,58850,1,6,0:0:0:0:
28,132,59050,1,2,0:0:0:0:
328,56,59250,2,0,L|440:56,1,107.999996704102,2|8,0:0|0:0,0:0:0:0:
348,61,59550,1,10,0:0:0:0:
260,60,59650,1,8,0:0:0:0:
440,64,59850,2,0,L|508:64,1,53.9999983520508,2|2,0:0|0:0,0:0:0:0:
256,144,60050,6,0,P|168:136|128:64,1,175.499991966248,4|8,0:0|0:0,0:0:0:0:
212,64,60450,1,6,0:0:0:0:
376,64,60650,1,2,0:0:0:0:
72,68,60850,2,0,L|0:68,1,58.4999973220826,2|2,0:0|0:0,0:0:0:0:
96,68,61050,1,2,0:0:0:0:
180,68,61150,1,2,0:0:0:0:
340,68,61250,1,4,0:0:0:0:
420,68,61350,1,8,0:0:0:0:
316,68,61450,1,8,0:0:0:0:
32,72,61650,6,0,L|160:72,1,116.999994644165,4|8,0:0|0:0,0:0:0:0:
368,76,62050,1,6,0:0:0:0:
488,80,62250,1,2,0:0:0:0:
212,80,62450,1,2,0:0:0:0:
140,80,62550,1,2,0:0:0:0:
140,152,62650,1,0,0:0:0:0:
212,152,62750,1,8,0:0:0:0:
96,156,62850,1,4,0:0:0:0:
24,156,62950,1,8,0:0:0:0:
24,84,63050,1,8,0:0:0:0:
96,84,63150,1,8,0:0:0:0:
256,88,63250,6,0,P|360:80|320:204,1,229.500004377365,4|8,0:0|0:0,0:0:0:0:
300,188,63650,1,8,0:0:0:0:
16,196,63850,2,0,L|140:176,1,107.999996704102,4|2,0:0|0:0,0:0:0:0:
188,176,64150,1,2,0:0:0:0:
122,178,64250,1,2,0:0:0:0:
188,176,64350,1,2,0:0:0:0:
376,184,64450,2,0,P|448:180|460:48,1,202.500007724762,2|8,0:0|0:0,0:0:0:0:
256,80,64850,6,0,L|76:80,1,161.999995056153,4|8,0:0|0:0,0:0:0:0:
148,80,65250,1,6,0:0:0:0:
276,80,65450,1,2,0:0:0:0:
16,88,65650,2,0,L|136:88,1,107.999996704102,2|8,0:0|0:0,0:0:0:0:
210,88,65950,1,8,0:0:0:0:
296,88,66050,1,4,0:0:0:0:
132,88,66250,2,0,L|40:88,1,53.9999983520508,8|8,0:0|0:0,0:0:0:0:
256,96,66450,6,0,P|336:96|232:96,1,161.999995056153,4|8,0:0|0:0,0:0:0:0:
188,100,66850,1,6,0:0:0:0:
60,104,67050,1,2,0:0:0:0:
444,68,67250,2,0,L|500:68,1,53.9999983520508,2|0,0:0|0:0,0:0:0:0:
424,68,67450,1,2,0:0:0:0:
344,68,67550,1,2,0:0:0:0:
172,68,67650,1,4,0:0:0:0:
92,68,67750,1,8,0:0:0:0:
28,68,67850,1,8,0:0:0:0:
292,80,68050,6,0,L|412:80,2,107.999996704102,4|8|6,0:0|0:0|0:0,0:0:0:0:
164,80,68650,1,10,0:0:0:0:
428,72,68850,1,2,0:0:0:0:
364,72,68950,1,0,0:0:0:0:
492,72,69150,1,0,0:0:0:0:
284,80,69250,1,4,0:0:0:0:
224,80,69350,1,0,0:0:0:0:
224,144,69450,1,0,0:0:0:0:
288,144,69550,1,0,0:0:0:0:
448,152,69650,6,0,P|448:228|356:272,1,180,4|2,0:0|0:0,0:0:0:0:
256,276,70250,1,2,0:0:0:0:
76,280,70450,1,2,0:0:0:0:
24,280,70550,1,2,0:0:0:0:
128,280,70650,1,8,0:0:0:0:
444,280,70850,2,0,L|516:280,1,45,4|8,0:0|0:0,0:0:0:0:
489,280,71050,1,0,0:0:0:0:
368,280,71150,1,8,0:0:0:0:
104,280,71250,6,0,P|16:280|112:280,1,180,4|2,0:0|0:0,0:0:0:0:
228,280,71850,1,0,0:0:0:0:
488,296,72050,2,0,P|484:236|396:208,1,135,2|0,0:0|0:0,0:0:0:0:
300,200,72450,2,0,L|200:200,1,90,8|8,0:0|0:0,0:0:0:0:
380,200,72850,5,2,0:0:0:0:
488,200,73050,1,0,0:0:0:0:
312,196,73250,1,2,0:0:0:0:
420,196,73450,1,0,0:0:0:0:
124,192,73650,2,0,P|140:256|200:248,1,135,4|0,0:0|0:0,0:0:0:0:
312,248,74050,2,0,L|416:248,1,90,8|0,0:0|0:0,0:0:0:0:
52,244,74450,6,0,L|180:248,1,90,2|0,0:0|0:0,0:0:0:0:
227,249,74750,1,0,0:0:0:0:
312,248,74850,2,0,L|416:248,1,90,2|0,0:0|0:0,0:0:0:0:
60,268,75250,1,4,0:0:0:0:
215,264,75450,2,0,L|323:264,1,90,0|2,0:0|0:0,0:0:0:0:
412,267,75850,1,2,0:0:0:0:
256,268,76050,6,0,L|152:268,1,90,2|2,0:0|0:0,0:0:0:0:
248,268,76350,1,0,0:0:0:0:
328,268,76450,2,0,L|204:268,1,90,2|8,0:0|0:0,0:0:0:0:
184,264,76750,1,8,0:0:0:0:
376,264,76850,1,4,0:0:0:0:
484,268,77050,1,8,0:0:0:0:
20,196,77450,2,0,L|104:196,1,45,2|0,0:0|0:0,0:0:0:0:
256,192,77650,5,12,0:0:0:0:
256,192,77850,12,0,79750,0:0:0:0:
