osu file format v14

[General]
AudioFilename: audio.mp3
AudioLeadIn: 0
PreviewTime: 6650
Countdown: 0
SampleSet: Soft
StackLeniency: 0.7
Mode: 2
LetterboxInBreaks: 0
WidescreenStoryboard: 1

[Editor]
Bookmarks: 7250,20050,32850,58450,71250,79650
DistanceSpacing: 1.2
BeatDivisor: 4
GridSize: 4
TimelineZoom: 2.2

[Metadata]
Title:Streak
TitleUnicode:Streak
Artist:ARM
ArtistUnicode:ARM
Creator:JBHyperion
Version:Sinnoh's Overdose
Source:HALFPIPE TOKYO
Tags:IOSYS Youhei Kimura 木村洋平 Joypolis Original Soundtrack OST SEGA maimai plus Raiin SangKrazFinale SangKrazF1nal3 WildOne94 Sinnoh Kukkai Salchow MBomb JBH
BeatmapID:1847248
BeatmapSetID:865565

[Difficulty]
HPDrainRate:6
CircleSize:4
OverallDifficulty:8.6
ApproachRate:8.6
SliderMultiplier:2.2
SliderTickRate:1

[Events]
//Background and Video events
0,0,"TechnoNeonPipe-thing.jpg",0,0
//Break Periods
//Storyboard Layer 0 (Background)
//Storyboard Layer 1 (Fail)
//Storyboard Layer 2 (Pass)
//Storyboard Layer 3 (Foreground)
//Storyboard Sound Samples

[TimingPoints]
2450,400,4,2,0,10,1,0
2850,-100,4,2,0,15,0,0
3250,-100,4,2,0,20,0,0
3650,-100,4,2,0,25,0,0
4050,-100,4,2,0,40,0,0
4450,-100,4,2,0,35,0,0
4850,-100,4,2,0,40,0,0
5250,-100,4,2,0,45,0,0
5650,-100,4,2,0,50,0,0
6050,-100,4,2,0,55,0,0
6450,-100,4,3,1,60,0,0
6750,-100,4,3,1,20,0,0
6850,-100,4,3,1,45,0,0
7250,-100,4,2,2,60,0,0
7350,-100,4,2,1,60,0,0
9650,-100,4,2,1,60,0,0
9950,-100,4,2,1,60,0,0
10850,-100,4,2,1,60,0,0
11050,-100,4,2,1,60,0,0
12050,-100,4,2,77,60,0,0
12550,-100,4,2,77,60,0,0
12850,-100,4,2,1,60,0,0
13650,-100,4,2,2,60,0,0
13850,-100,4,2,1,60,0,0
16850,-100,4,2,2,60,0,0
18450,-100,4,3,1,30,0,0
19250,-100,4,2,1,60,0,0
19550,-100,4,2,2,70,0,0
19650,-100,4,2,1,70,0,0
20250,-100,4,2,1,60,0,0
20850,-100,4,2,77,60,0,0
21050,-100,4,2,77,40,0,0
21250,-100,4,2,1,60,0,0
21650,-100,4,2,77,60,0,0
21850,-100,4,2,1,60,0,0
23650,-100,4,2,77,60,0,0
23850,-100,4,2,0,60,0,0
24150,-100,4,2,1,60,0,0
24450,-33.3333333333333,4,2,77,40,0,0
24650,-100,4,2,1,60,0,0
24850,-100,4,2,2,50,0,0
25050,-100,4,2,1,60,0,0
25650,-100,4,2,0,60,0,0
25750,-100,4,2,1,60,0,0
26450,-100,4,2,77,60,0,0
26650,-100,4,2,1,60,0,0
27250,-100,4,2,77,60,0,0
27450,-100,4,2,77,40,0,0
27650,-100,4,2,1,60,0,0
28050,-100,4,2,77,60,0,0
28250,-100,4,2,1,60,0,0
30050,-100,4,2,77,60,0,0
30250,-100,4,2,0,60,0,0
30550,-100,4,2,1,60,0,0
30850,-100,4,2,77,60,0,0
31050,-100,4,2,1,60,0,0
31250,-100,4,2,77,50,0,0
31650,-100,4,2,1,50,0,0
32050,-100,4,2,77,30,0,0
32450,-100,4,2,1,50,0,0
32583,-100,4,2,77,40,0,0
32850,-100,4,2,2,50,0,0
33050,-100,4,2,1,50,0,0
33650,-100,4,2,77,50,0,0
33850,-100,4,2,77,40,0,0
34050,-100,4,2,1,60,0,0
34450,-100,4,2,77,60,0,0
34650,-100,4,2,1,60,0,0
36450,-100,4,2,77,60,0,0
36750,-100,4,2,1,40,0,0
36850,-100,4,2,0,60,0,0
37150,-100,4,2,1,40,0,0
37250,-33.3333333333333,4,2,77,40,0,0
37550,-100,4,2,1,40,0,0
37650,-100,4,2,2,50,0,0
37850,-100,4,2,1,60,0,0
38450,-100,4,2,0,60,0,0
38550,-100,4,2,1,60,0,0
39250,-100,4,2,77,60,0,0
39450,-100,4,2,1,60,0,0
40050,-100,4,2,77,60,0,0
40250,-100,4,2,77,40,0,0
40450,-100,4,2,1,60,0,0
40850,-100,4,2,77,60,0,0
41050,-100,4,2,1,60,0,0
43250,-100,4,2,0,60,0,0
43350,-100,4,2,1,60,0,0
43650,-100,4,2,0,50,0,0
44050,-100,4,2,0,50,0,0
44350,-100,4,2,1,30,0,0
45650,-100,4,2,99,70,0,1
45950,-100,4,2,1,70,0,1
46450,-100,4,2,0,90,0,1
46550,-100,4,2,1,70,0,1
46850,-100,4,2,77,50,0,1
47250,-100,4,2,1,70,0,1
48050,-100,4,2,4,70,0,1
48850,-100,4,2,1,70,0,1
50450,-100,4,3,2,70,0,0
50650,-100,4,2,1,50,0,0
51050,-100,4,3,2,70,0,0
51150,-100,4,2,1,50,0,0
51650,-33.3333333333333,4,2,1,70,0,0
52050,-100,4,2,2,90,0,1
52350,-100,4,2,1,70,0,1
52850,-100,4,2,0,90,0,1
52950,-100,4,2,1,70,0,1
53250,-100,4,2,77,50,0,1
53550,-100,4,2,1,70,0,1
54450,-100,4,2,4,70,0,1
55250,-100,4,3,2,90,0,1
55450,-100,4,2,1,70,0,1
56050,-100,4,2,77,40,0,1
56450,-100,4,2,1,60,0,1
56583,-100,4,2,77,50,0,1
56850,-100,4,2,2,60,0,0
57050,-100,4,2,0,80,0,0
57350,-100,4,2,2,20,0,0
57450,-100,4,2,2,60,0,0
57850,-100,4,2,1,40,0,0
58050,-100,4,2,0,50,0,0
58150,-100,4,2,1,70,0,0
58250,-100,4,2,0,60,0,0
58350,-100,4,2,1,80,0,0
58450,-100,4,2,2,70,0,1
58650,-100,4,2,1,70,0,1
58850,-100,4,2,4,70,0,1
59850,-100,4,2,1,70,0,1
60050,-100,4,2,2,70,0,1
60250,-100,4,2,1,70,0,1
60450,-100,4,2,4,70,0,1
60950,-100,4,2,0,50,0,1
61150,-100,4,2,4,70,0,1
61650,-100,4,2,2,70,0,1
61850,-100,4,2,1,70,0,1
62050,-100,4,2,4,70,0,1
62550,-100,4,2,4,50,0,1
62750,-100,4,2,4,70,0,1
63250,-100,4,2,2,70,0,1
63550,-100,4,2,1,70,0,1
64050,-100,4,2,0,70,0,1
64150,-100,4,2,1,70,0,1
64450,-33.3333333333333,4,2,4,80,0,1
64750,-100,4,2,1,60,0,0
64850,-100,4,2,2,70,0,1
65050,-100,4,2,1,70,0,1
65250,-100,4,2,4,70,0,1
66250,-100,4,2,1,70,0,1
66450,-100,4,2,2,80,0,1
66650,-100,4,2,1,70,0,1
66850,-100,4,2,4,70,0,1
67350,-100,4,2,0,50,0,1
67550,-100,4,2,4,70,0,1
68050,-100,4,2,2,70,0,1
68250,-100,4,2,1,70,0,1
68450,-100,4,2,4,70,0,1
68950,-100,4,2,4,50,0,1
69150,-100,4,2,4,70,0,1
69650,-100,4,2,2,70,0,0
69950,-100,4,2,4,60,0,0
70950,-100,4,2,1,60,0,0
71250,-100,4,2,2,70,0,0
71450,-100,4,2,1,60,0,0
71650,-100,4,2,0,60,0,0
71750,-100,4,2,1,60,0,0
72050,-100,4,2,77,70,0,0
72250,-100,4,2,77,50,0,0
72450,-100,4,2,1,60,0,0
72850,-100,4,2,77,70,0,0
73650,-100,4,2,1,60,0,0
74450,-100,4,2,77,70,0,0
75250,-100,4,2,1,60,0,0
76050,-100,4,2,0,60,0,0
76250,-100,4,2,1,60,0,0
77150,-100,4,2,0,60,0,0
77450,-100,4,2,1,60,0,0
77650,-100,4,2,2,70,0,0
78050,-100,4,2,0,70,0,0
78450,-100,4,2,0,60,0,0
78850,-100,4,2,0,50,0,0
79250,-100,4,2,0,40,0,0
79650,-100,4,2,0,30,0,0

[Colours]
Combo1 : 175,75,255
Combo2 : 255,75,75
Combo3 : 255,175,75
Combo4 : 255,255,75
Combo5 : 75,255,75
Combo6 : 75,255,255
Combo7 : 75,175,255
Combo8 : 125,125,255

[HitObjects]
256,192,2450,12,4,6450,0:0:0:0:
350,144,7150,5,0,0:0:0:0:
155,240,7250,6,0,P|95:212|159:112,1,220,4|2,0:0|0:0,0:0:0:0:
325,124,7850,2,0,L|383:100,1,55,0|0,0:0|0:0,0:0:0:0:
288,71,8050,2,0,L|117:34,1,165,8|0,0:0|0:0,0:0:0:0:
189,129,8450,2,0,L|308:125,1,110,2|0,0:0|0:0,0:0:0:0:
156,272,8850,6,0,L|149:141,1,110,8|0,0:0|0:0,0:0:0:0:
318,264,9250,2,0,L|384:152,1,110,8|0,0:0|0:0,0:0:0:0:
161,97,9650,2,0,L|-9:56,2,165,4|0|2,0:0|0:0|0:0,0:0:0:0:
427,288,10450,5,8,0:0:0:0:
465,250,10550,1,0,0:0:0:0:
467,196,10650,1,0,0:0:0:0:
433,155,10750,1,0,0:0:0:0:
380,148,10850,2,0,L|244:137,1,110,8|0,0:0|0:0,0:0:0:0:
124,125,11250,2,0,L|241:107,1,110,4|0,0:0|0:0,0:0:0:0:
284,97,11550,2,0,L|112:67,1,165,0|2,0:0|0:0,0:0:0:0:
450,262,12050,6,0,L|440:186,1,55,10|0,0:0|0:0,0:0:0:0:
348,232,12250,2,0,L|340:164,1,55,2|0,0:0|0:0,0:0:0:0:
251,208,12450,2,0,L|243:140,1,55,2|0,0:0|0:0,0:0:0:0:
417,105,12650,2,0,L|356:85,1,55,10|8,0:0|0:0,0:0:0:0:
145,228,12850,2,0,L|136:96,1,110,4|8,0:0|0:0,0:0:0:0:
306,228,13250,2,0,L|315:75,1,110,0|2,0:0|0:0,0:0:0:0:
259,115,13550,1,0,0:0:0:0:
75,155,13650,6,0,L|215:132,1,110,4|0,0:0|0:0,0:0:0:0:
328,137,14050,2,0,L|188:114,1,110,2|8,0:0|0:0,0:0:0:0:
363,212,14450,2,0,L|419:201,2,55,4|0|0,0:0|0:0|0:0,0:0:0:0:
297,205,14750,2,0,L|128:183,1,165,2|2,0:0|0:0,0:0:0:0:
290,264,15250,6,0,L|297:149,1,110,8|0,0:0|0:0,0:0:0:0:
144,202,15650,2,0,L|136:92,1,110,2|8,0:0|0:0,0:0:0:0:
337,101,16050,2,0,L|511:90,2,165,4|2|2,0:0|0:0|0:0,0:0:0:0:
69,296,16850,6,0,P|132:258|35:173,1,220,12|0,0:0|0:0,0:0:0:0:
415,297,17650,2,0,P|352:259|449:174,1,220,12|0,0:0|0:0,0:0:0:0:
209,232,18450,6,0,L|202:188,14,27.5,8|8|8|8|8|8|8|8|8|8|8|8|8|8|8,0:0|0:0|0:0|0:0|0:0|0:0|0:0|0:0|0:0|0:0|0:0|0:0|0:0|0:0|0:0,0:0:0:0:
292,228,19250,2,0,P|338:176|270:104,1,165,8|0,0:0|0:0,0:0:0:0:
67,141,19650,5,4,0:0:0:0:
407,229,20050,6,0,L|218:209,1,165,4|8,0:0|0:0,0:0:0:0:
438,140,20450,2,0,L|255:124,1,165,4|0,0:0|0:0,0:0:0:0:
103,202,20850,2,0,L|117:102,1,55,2|0,0:0|0:0,0:0:0:0:
276,160,21050,2,0,L|292:75,1,55,4|0,0:0|0:0,0:0:0:0:
117,103,21250,2,0,L|79:93,1,27.5,4|0,0:0|0:0,0:0:0:0:
280,220,21450,2,0,L|242:210,1,27.5,2|0,0:0|0:0,0:0:0:0:
407,229,21650,6,0,L|218:209,1,165,2|8,0:0|0:0,0:0:0:0:
438,140,22050,2,0,L|255:124,1,165,4|0,0:0|0:0,0:0:0:0:
68,169,22450,2,0,L|136:161,1,55,10|2,0:0|0:0,0:0:0:0:
282,165,22650,2,0,L|372:153,1,55,10|2,0:0|0:0,0:0:0:0:
496,253,22850,1,4,0:0:0:0:
490,184,23050,1,2,0:0:0:0:
197,183,23250,6,0,L|45:156,1,110,8|2,0:0|0:0,0:0:0:0:
138,114,23550,1,8,0:0:0:0:
344,158,23650,2,0,L|384:157,6,27.5,2|0|0|0|0|0|0,0:0|0:0|0:0|0:0|0:0|0:0|0:0,0:0:0:0:
162,265,24050,2,0,P|139:211|227:148,1,165,2|0,0:0|0:0,0:0:0:0:
491,243,24450,2,0,L|30:38,1,495.000018882752,12|0,0:0|0:0,0:0:0:0:
112,162,24850,6,0,L|312:147,1,165,4|8,0:0|0:0,0:0:0:0:
92,232,25250,2,0,L|96:110,1,110,4|8,0:0|0:0,0:0:0:0:
356,150,25650,2,2,L|280:134,3,55
131,153,26050,2,0,L|55:137,3,55,4|2|10|2,0:0|0:0|0:0|0:0,0:0:0:0:
290,208,26450,6,0,L|472:171,1,165,2|8,0:0|0:0,0:0:0:0:
269,119,26850,2,0,L|83:87,1,165,4|0,0:0|0:0,0:0:0:0:
304,246,27250,2,0,L|298:191,1,55,2|0,0:0|0:0,0:0:0:0:
138,196,27450,2,0,L|128:127,1,55,4|0,0:0|0:0,0:0:0:0:
306,123,27650,2,0,L|351:119,1,27.5,4|0,0:0|0:0,0:0:0:0:
174,96,27850,2,0,L|219:92,1,27.5,2|0,0:0|0:0,0:0:0:0:
58,210,28050,6,0,L|241:189,1,165,2|8,0:0|0:0,0:0:0:0:
465,169,28450,2,0,L|289:147,1,165,4|0,0:0|0:0,0:0:0:0:
137,132,28850,2,0,L|222:117,1,55,10|2,0:0|0:0,0:0:0:0:
351,71,29050,2,0,L|270:61,1,55,10|2,0:0|0:0,0:0:0:0:
109,264,29250,1,4,0:0:0:0:
94,181,29450,1,0,0:0:0:0:
231,207,29650,6,0,L|225:16,1,165,8|8,0:0|0:0,0:0:0:0:
394,107,30050,2,0,L|530:80,1,110,2|2,0:0|0:0,0:0:0:0:
284,203,30450,2,0,L|103:175,1,165,2|0,0:0|0:0,0:0:0:0:
447,212,30850,2,0,L|313:198,1,110,4|2,0:0|0:0,0:0:0:0:
70,166,31250,5,2,0:0:0:0:
293,98,31650,1,2,0:0:0:0:
129,168,32050,1,2,0:0:0:0:
154,124,32183,1,2,0:0:0:0:
240,113,32316,1,2,0:0:0:0:
386,102,32450,1,4,0:0:0:0:
249,78,32583,1,2,0:0:0:0:
104,66,32716,1,2,0:0:0:0:
389,279,32850,6,0,P|430:219|331:180,1,165,4|8,0:0|0:0,0:0:0:0:
186,203,33250,2,0,P|145:143|244:104,1,165,4|0,0:0|0:0,0:0:0:0:
409,202,33650,2,0,L|395:102,1,55,2|0,0:0|0:0,0:0:0:0:
236,160,33850,2,0,L|220:75,1,55,4|0,0:0|0:0,0:0:0:0:
395,103,34050,2,0,L|433:93,1,27.5,4|0,0:0|0:0,0:0:0:0:
232,220,34250,2,0,L|270:210,1,27.5,2|0,0:0|0:0,0:0:0:0:
100,165,34450,6,0,L|303:133,1,165,2|2,0:0|0:0,0:0:0:0:
83,79,34850,2,0,L|286:47,1,165,8|0,0:0|0:0,0:0:0:0:
426,165,35250,2,0,L|342:155,1,55,10|2,0:0|0:0,0:0:0:0:
207,151,35450,2,0,L|123:137,1,55,10|2,0:0|0:0,0:0:0:0:
348,264,35650,1,4,0:0:0:0:
208,241,35850,1,2,0:0:0:0:
478,231,36050,6,0,L|456:107,1,110,8|2,0:0|0:0,0:0:0:0:
388,115,36350,1,8,0:0:0:0:
194,244,36450,2,0,L|154:243,6,27.5,2|0|0|0|0|0|0,0:0|0:0|0:0|0:0|0:0|0:0|0:0,0:0:0:0:
375,255,36850,2,0,P|365:161|281:126,1,165,2|0,0:0|0:0,0:0:0:0:
33,41,37250,2,0,L|486:243,1,495.000018882752,12|0,0:0|0:0,0:0:0:0:
422,250,37650,6,0,L|218:242,1,165,4|8,0:0|0:0,0:0:0:0:
453,188,38050,2,0,L|437:57,1,110,4|0,0:0|0:0,0:0:0:0:
156,201,38450,2,0,L|86:175,1,55,2|2,0:0|0:0,0:0:0:0:
187,140,38650,2,0,L|194:66,1,55,2|2,0:0|0:0,0:0:0:0:
367,205,38850,2,0,L|437:179,1,55,6|2,0:0|0:0,0:0:0:0:
336,144,39050,2,0,L|329:70,1,55,10|2,0:0|0:0,0:0:0:0:
117,267,39250,6,0,P|62:222|132:178,1,165,2|8,0:0|0:0,0:0:0:0:
302,260,39650,2,0,P|357:215|287:171,1,165,4|0,0:0|0:0,0:0:0:0:
112,160,40050,2,0,L|128:96,1,55,2|0,0:0|0:0,0:0:0:0:
320,104,40250,2,0,L|336:40,1,55,4|0,0:0|0:0,0:0:0:0:
160,160,40450,2,0,L|115:156,1,27.5,4|0,0:0|0:0,0:0:0:0:
292,133,40650,2,0,L|247:129,1,27.5,2|0,0:0|0:0,0:0:0:0:
400,212,40850,6,0,L|200:184,1,165,2|8,0:0|0:0,0:0:0:0:
424,120,41250,2,0,L|224:92,1,165,4|0,0:0|0:0,0:0:0:0:
454,222,41650,2,0,L|370:206,1,55,10|2,0:0|0:0,0:0:0:0:
224,204,41850,2,0,L|148:188,1,55,10|2,0:0|0:0,0:0:0:0:
352,144,42050,1,4,0:0:0:0:
408,100,42250,1,0,0:0:0:0:
288,280,42450,6,0,L|284:112,1,165,8|8,0:0|0:0,0:0:0:0:
212,128,42850,2,0,L|80:112,1,110,4|2,0:0|0:0,0:0:0:0:
476,148,43250,2,0,L|280:112,1,165,2|0,0:0|0:0,0:0:0:0:
108,148,43650,2,0,L|96:116,6,27.5,2|2|2|2|2|2|2,0:0|0:0|0:0|0:0|0:0|0:0|0:0,0:0:0:0:
196,132,44050,5,2,0:0:0:0:
384,188,45050,1,10,0:0:0:0:
220,168,45250,2,0,L|148:160,1,55,4|8,0:0|0:0,0:0:0:0:
296,84,45550,1,4,0:0:0:0:
120,96,45650,6,0,L|84:96,6,27.5,12|0|0|0|0|0|8,0:0|0:0|0:0|0:0|0:0|0:0|0:0,0:0:0:0:
292,152,46050,6,0,L|368:144,1,55,4|0,0:0|0:0,0:0:0:0:
160,256,46250,2,0,B|84:220|84:220|104:134|172:100,1,220,2|2,0:0|0:0,0:0:0:0:
424,112,46850,2,0,L|212:104,1,165,6|0,0:0|0:0,0:0:0:0:
448,224,47250,6,0,L|436:92,1,110,8|8,0:0|0:0,0:0:0:0:
360,104,47550,1,8,0:0:0:0:
264,112,47650,2,0,L|148:100,1,110,4|2,0:0|0:0,0:0:0:0:
448,176,48050,6,0,L|376:164,1,55,10|0,0:0|0:0,0:0:0:0:
234,168,48250,2,0,L|162:156,1,55,10|0,0:0|0:0,0:0:0:0:
340,112,48450,2,0,L|268:100,1,55,6|0,0:0|0:0,0:0:0:0:
126,96,48650,2,0,L|54:84,1,55,10|0,0:0|0:0,0:0:0:0:
310,229,48850,6,0,L|316:164,1,55,10|2,0:0|0:0,0:0:0:0:
217,182,49050,2,0,L|217:114,1,55,2|2,0:0|0:0,0:0:0:0:
99,137,49250,2,0,L|95:65,1,55,6|2,0:0|0:0,0:0:0:0:
186,70,49450,2,0,L|186:11,1,55,2|2,0:0|0:0,0:0:0:0:
284,106,49650,6,0,L|366:103,3,55,10|2|2|2,0:0|0:0|0:0|0:0,0:0:0:0:
440,118,50050,2,0,L|522:115,3,55,6|2|2|2,0:0|0:0|0:0|0:0,0:0:0:0:
280,260,50450,6,0,P|220:213|226:160,1,110,4|2,0:0|0:0,0:0:0:0:
246,155,50750,1,8,0:0:0:0:
309,136,50850,1,2,0:0:0:0:
48,234,51050,2,0,P|40:161|160:100,1,220,4|8,0:0|0:0,0:0:0:0:
488,252,51650,2,0,L|28:40,1,495.000018882752,4|0,0:0|0:0,0:0:0:0:
244,196,52050,6,0,L|280:196,6,27.5,4|0|0|0|0|0|8,0:0|0:0|0:0|0:0|0:0|0:0|0:0,0:0:0:0:
84,112,52450,2,0,L|16:92,1,55,4|0,0:0|0:0,0:0:0:0:
248,268,52650,2,0,P|256:184|140:132,1,220,2|2,0:0|0:0,0:0:0:0:
416,228,53250,2,0,P|464:200|412:96,1,165,4|0,0:0|0:0,0:0:0:0:
252,120,53650,6,0,L|120:84,1,110,2|8,0:0|0:0,0:0:0:0:
228,64,53950,1,8,0:0:0:0:
304,120,54050,2,0,L|412:148,1,110,4|2,0:0|0:0,0:0:0:0:
131,224,54450,6,0,L|155:164,1,55,10|0,0:0|0:0,0:0:0:0:
311,163,54650,2,0,L|335:103,1,55,10|0,0:0|0:0,0:0:0:0:
171,111,54850,2,0,L|195:51,1,55,6|0,0:0|0:0,0:0:0:0:
350,184,55050,2,0,L|374:124,1,55,10|0,0:0|0:0,0:0:0:0:
132,240,55250,5,4,0:0:0:0:
255,199,55450,1,8,0:0:0:0:
93,157,55650,1,4,0:0:0:0:
217,116,55850,1,2,0:0:0:0:
488,206,56050,5,2,0:0:0:0:
354,190,56183,1,2,0:0:0:0:
238,176,56316,1,2,0:0:0:0:
342,114,56450,1,4,0:0:0:0:
246,98,56583,1,2,0:0:0:0:
150,79,56716,1,2,0:0:0:0:
383,284,56850,6,0,L|385:159,1,110,4|0,0:0|0:0,0:0:0:0:
296,156,57150,2,0,L|163:134,1,110,2|0,0:0|0:0,0:0:0:0:
368,289,57450,2,0,P|432:237|333:168,1,220,4|8,0:0|0:0,0:0:0:0:
81,141,58050,5,2,0:0:0:0:
156,113,58150,1,2,0:0:0:0:
350,106,58250,1,2,0:0:0:0:
278,84,58350,1,2,0:0:0:0:
80,261,58450,6,0,P|31:227|97:149,1,165,4|8,0:0|0:0,0:0:0:0:
288,196,58850,1,6,0:0:0:0:
154,129,59050,1,2,0:0:0:0:
335,116,59250,1,2,0:0:0:0:
166,119,59450,2,0,L|180:63,1,55,8|10,0:0|0:0,0:0:0:0:
262,41,59650,1,8,0:0:0:0:
391,158,59850,2,0,L|330:144,1,55,2|2,0:0|0:0,0:0:0:0:
146,185,60050,6,0,L|298:159,1,110,4|8,0:0|0:0,0:0:0:0:
323,153,60350,1,8,0:0:0:0:
122,257,60450,2,0,L|117:170,1,55,6|0,0:0|0:0,0:0:0:0:
331,219,60650,2,0,L|323:147,1,55,2|0,0:0|0:0,0:0:0:0:
126,128,60850,6,0,L|206:109,2,55,2|2|2,0:0|0:0|0:0,0:0:0:0:
291,120,61150,2,0,L|371:101,2,55,2|4|8,0:0|0:0|0:0,0:0:0:0:
195,194,61450,2,0,L|254:171,1,55,8|0,0:0|0:0,0:0:0:0:
453,206,61650,6,0,L|445:84,1,110,4|8,0:0|0:0,0:0:0:0:
372,86,61950,1,8,0:0:0:0:
214,190,62050,2,0,L|231:95,1,55,6|0,0:0|0:0,0:0:0:0:
315,116,62250,2,0,L|382:109,1,55,2|0,0:0|0:0,0:0:0:0:
201,282,62450,5,2,0:0:0:0:
126,254,62550,2,0,L|55:229,1,55,2|0,0:0|0:0,0:0:0:0:
277,203,62750,1,8,0:0:0:0:
359,187,62850,2,0,L|359:123|359:123,1,55,4|8,0:0|0:0,0:0:0:0:
198,98,63050,2,0,L|275:75,1,55,8|8,0:0|0:0,0:0:0:0:
89,232,63250,6,0,P|48:150|124:112,1,165,4|8,0:0|0:0,0:0:0:0:
160,104,63650,1,8,0:0:0:0:
394,153,63850,1,4,0:0:0:0:
265,223,64050,2,0,L|194:214,1,55,2|2,0:0|0:0,0:0:0:0:
277,153,64250,2,0,L|218:140,1,55,2|2,0:0|0:0,0:0:0:0:
24,252,64450,2,0,L|484:40,1,495.000018882752,2|8,0:0|0:0,0:0:0:0:
293,289,64850,6,0,P|217:256|205:160,1,165,4|8,0:0|0:0,0:0:0:0:
369,181,65250,2,0,L|361:66,1,110,6|2,0:0|0:0,0:0:0:0:
201,94,65650,2,0,L|81:51,1,110,2|8,0:0|0:0,0:0:0:0:
167,138,65950,1,8,0:0:0:0:
335,207,66050,2,0,P|361:133|321:82,1,110,4|8,0:0|0:0,0:0:0:0:
279,101,66350,1,8,0:0:0:0:
70,223,66450,6,0,P|80:148|186:125,1,165,4|8,0:0|0:0,0:0:0:0:
229,133,66850,2,0,L|108:104,1,110,6|2,0:0|0:0,0:0:0:0:
405,120,67250,2,0,L|326:112,2,55,2|2|2,0:0|0:0|0:0,0:0:0:0:
230,180,67550,2,0,L|144:160,2,55,2|4|8,0:0|0:0|0:0,0:0:0:0:
397,214,67850,2,0,L|384:147,1,55,8|0,0:0|0:0,0:0:0:0:
209,259,68050,6,0,P|136:218|163:118,1,165,4|8,0:0|0:0,0:0:0:0:
303,104,68450,2,0,L|441:66,1,110,6|10,0:0|0:0,0:0:0:0:
134,250,68850,1,2,0:0:0:0:
127,185,68950,2,0,L|221:177,1,55,2|0,0:0|0:0,0:0:0:0:
346,178,69150,2,0,L|342:82,1,55,0|4,0:0|0:0,0:0:0:0:
273,116,69350,2,0,L|195:92,2,55,8|8|8,0:0|0:0|0:0,0:0:0:0:
439,219,69650,5,4,0:0:0:0:
199,295,70050,2,0,L|192:156,1,110,2|2,0:0|0:0,0:0:0:0:
338,146,70450,2,0,L|333:83,1,55,2|2,0:0|0:0,0:0:0:0:
126,83,70650,1,8,0:0:0:0:
421,220,70850,2,0,L|411:135,1,55,4|8,0:0|0:0,0:0:0:0:
260,118,71150,1,8,0:0:0:0:
76,218,71250,6,0,P|62:170|154:103,1,165,4|2,0:0|0:0,0:0:0:0:
206,101,71650,1,2,0:0:0:0:
333,136,71850,2,0,L|272:130,1,55,0|0,0:0|0:0,0:0:0:0:
92,228,72050,2,0,L|87:154,1,55,2|0,0:0|0:0,0:0:0:0:
253,148,72250,2,0,L|247:79,1,55,4|0,0:0|0:0,0:0:0:0:
425,85,72450,2,0,L|463:75,1,27.5,8|0,0:0|0:0,0:0:0:0:
294,208,72650,2,0,L|332:198,1,27.5,8|0,0:0|0:0,0:0:0:0:
161,265,72850,6,0,L|153:136,1,110,2|0,0:0|0:0,0:0:0:0:
330,231,73250,2,0,L|322:102,1,110,2|0,0:0|0:0,0:0:0:0:
60,178,73650,2,0,L|68:96,1,55,4|0,0:0|0:0,0:0:0:0:
161,95,73850,2,0,L|230:92,1,55,0|0,0:0|0:0,0:0:0:0:
144,248,74050,1,8,0:0:0:0:
86,159,74250,1,0,0:0:0:0:
346,266,74450,6,0,P|397:209|321:163,1,165,2|0,0:0|0:0,0:0:0:0:
178,266,74850,2,0,P|127:209|203:163,1,165,2|0,0:0|0:0,0:0:0:0:
281,121,75250,2,0,L|403:92,1,110,4|0,0:0|0:0,0:0:0:0:
319,173,75550,2,0,L|150:137,1,165,0|2,0:0|0:0,0:0:0:0:
310,274,76050,6,0,L|322:161,1,110,2|2,0:0|0:0,0:0:0:0:
244,176,76350,1,0,0:0:0:0:
168,191,76450,1,2,0:0:0:0:
315,100,76650,2,0,L|375:88,1,55,8|8,0:0|0:0,0:0:0:0:
133,208,76850,2,0,P|114:140|167:111,1,110,4|8,0:0|0:0,0:0:0:0:
294,138,77250,2,0,L|436:104,1,110,0|2,0:0|0:0,0:0:0:0:
74,90,77650,1,12,0:0:0:0:
256,192,77850,12,0,79750,0:0:0:0:
