osu file format v14

[General]
AudioFilename: audio.mp3
AudioLeadIn: 0
PreviewTime: 6650
Countdown: 0
SampleSet: Soft
StackLeniency: 0.7
Mode: 2
LetterboxInBreaks: 0
WidescreenStoryboard: 1

[Editor]
Bookmarks: 20050,32850,45050,45650,58450,71250,79750
DistanceSpacing: 1.4
BeatDivisor: 4
GridSize: 4
TimelineZoom: 1.9

[Metadata]
Title:Streak
TitleUnicode:Streak
Artist:ARM
ArtistUnicode:ARM
Creator:JBHyperion
Version:Sang's Platter
Source:HALFPIPE TOKYO
Tags:IOSYS Youhei Kimura 木村洋平 Joypolis Original Soundtrack OST SEGA maimai plus Raiin SangKrazFinale SangKrazF1nal3 WildOne94 Sinnoh Kukkai Salchow MBomb JBH
BeatmapID:1870417
BeatmapSetID:865565

[Difficulty]
HPDrainRate:5
CircleSize:3
OverallDifficulty:8
ApproachRate:8
SliderMultiplier:1.6
SliderTickRate:1

[Events]
//Background and Video events
0,0,"TechnoNeonPipe-thing.jpg",0,0
//Break Periods
//Storyboard Layer 0 (Background)
//Storyboard Layer 1 (Fail)
//Storyboard Layer 2 (Pass)
//Storyboard Layer 3 (Foreground)
//Storyboard Sound Samples

[TimingPoints]
2450,400,4,2,0,10,1,0
2850,-100,4,2,0,15,0,0
3250,-100,4,2,0,20,0,0
3650,-100,4,2,0,25,0,0
4050,-100,4,2,0,40,0,0
4450,-100,4,2,0,35,0,0
4850,-100,4,2,0,40,0,0
5250,-100,4,2,0,45,0,0
5650,-100,4,2,0,50,0,0
6050,-100,4,2,0,55,0,0
6450,-100,4,3,1,60,0,0
6750,-100,4,3,1,20,0,0
6850,-100,4,3,1,45,0,0
7250,-100,4,2,2,60,0,0
7350,-100,4,2,1,60,0,0
9650,-100,4,2,1,60,0,0
9950,-100,4,2,1,60,0,0
10250,-100,4,2,1,60,0,0
11050,-100,4,2,1,60,0,0
11250,-100,4,2,1,60,0,0
12050,-100,4,2,77,60,0,0
12850,-100,4,2,1,60,0,0
13050,-100,4,2,1,60,0,0
13650,-100,4,2,2,60,0,0
13850,-100,4,2,1,60,0,0
13950,-100,4,2,1,60,0,0
14450,-100,4,2,1,60,0,0
14750,-100,4,2,1,60,0,0
16850,-100,4,2,2,60,0,0
18450,-100,4,3,1,30,0,0
19250,-100,4,2,1,60,0,0
19550,-100,4,2,2,70,0,0
19650,-100,4,2,1,70,0,0
20050,-100,4,2,1,70,0,0
20250,-100,4,2,1,60,0,0
20850,-100,4,2,77,60,0,0
21050,-100,4,2,77,40,0,0
21250,-100,4,2,1,60,0,0
21650,-100,4,2,77,60,0,0
21850,-100,4,2,1,60,0,0
23650,-100,4,2,77,60,0,0
23850,-100,4,2,0,60,0,0
24050,-100,4,2,0,60,0,0
24150,-100,4,2,1,60,0,0
24450,-100,4,2,77,40,0,0
24650,-100,4,2,1,60,0,0
24850,-100,4,2,2,50,0,0
25050,-100,4,2,1,60,0,0
25150,-100,4,2,1,60,0,0
25650,-100,4,2,0,60,0,0
25750,-100,4,2,1,60,0,0
26450,-100,4,2,77,60,0,0
26650,-100,4,2,1,60,0,0
26850,-100,4,2,1,60,0,0
27250,-100,4,2,77,60,0,0
27450,-100,4,2,77,40,0,0
27650,-100,4,2,1,60,0,0
28050,-100,4,2,77,60,0,0
28250,-100,4,2,1,60,0,0
30050,-100,4,2,77,60,0,0
30250,-100,4,2,0,60,0,0
30550,-100,4,2,1,60,0,0
30850,-100,4,2,77,60,0,0
31050,-100,4,2,1,60,0,0
31250,-100,4,2,77,50,0,0
31650,-100,4,2,1,50,0,0
32050,-100,4,2,77,30,0,0
32450,-100,4,2,1,50,0,0
32583,-100,4,2,77,40,0,0
32850,-100,4,2,2,50,0,0
33050,-100,4,2,1,50,0,0
33650,-100,4,2,77,50,0,0
33850,-100,4,2,77,40,0,0
34050,-100,4,2,1,60,0,0
34450,-100,4,2,77,60,0,0
34650,-100,4,2,1,60,0,0
36450,-100,4,2,77,60,0,0
36750,-100,4,2,1,40,0,0
36850,-100,4,2,0,60,0,0
37150,-100,4,2,1,40,0,0
37250,-100,4,2,77,40,0,0
37550,-100,4,2,1,40,0,0
37650,-100,4,2,2,50,0,0
37850,-100,4,2,1,60,0,0
38450,-100,4,2,0,60,0,0
38550,-100,4,2,1,60,0,0
39250,-100,4,2,77,60,0,0
39450,-100,4,2,1,60,0,0
40050,-100,4,2,77,60,0,0
40250,-100,4,2,77,40,0,0
40450,-100,4,2,1,60,0,0
40850,-100,4,2,77,60,0,0
41050,-100,4,2,1,60,0,0
43250,-100,4,2,0,60,0,0
43350,-100,4,2,1,60,0,0
43650,-100,4,2,0,50,0,0
44350,-100,4,2,1,30,0,0
45650,-80,4,2,99,70,0,1
45950,-100,4,2,1,70,0,1
46450,-100,4,2,0,90,0,1
46550,-100,4,2,1,70,0,1
46850,-100,4,2,77,50,0,1
47250,-100,4,2,1,70,0,1
48050,-100,4,2,4,70,0,1
48850,-100,4,2,1,70,0,1
50450,-100,4,3,2,70,0,0
50650,-100,4,2,1,50,0,0
51050,-100,4,3,2,70,0,0
51150,-100,4,2,1,50,0,0
51650,-100,4,2,1,70,0,0
52050,-80,4,2,2,90,0,1
52350,-100,4,2,1,70,0,1
52850,-100,4,2,0,90,0,1
52950,-100,4,2,1,70,0,1
53250,-100,4,2,77,50,0,1
53550,-100,4,2,1,70,0,1
54450,-100,4,2,4,70,0,1
55250,-100,4,3,2,90,0,1
55450,-100,4,2,1,70,0,1
56050,-100,4,2,77,40,0,1
56450,-100,4,2,1,60,0,1
56583,-100,4,2,77,50,0,1
56850,-100,4,2,2,60,0,0
57050,-100,4,2,0,80,0,0
57350,-100,4,2,2,20,0,0
57450,-80,4,2,2,60,0,0
57850,-100,4,2,1,40,0,0
58050,-100,4,2,0,50,0,0
58150,-100,4,2,1,70,0,0
58250,-100,4,2,0,60,0,0
58350,-100,4,2,1,80,0,0
58450,-66.6666666666667,4,2,2,70,0,1
58650,-100,4,2,1,70,0,1
58850,-100,4,2,4,70,0,1
59850,-100,4,2,1,70,0,1
60050,-80,4,2,2,70,0,1
60250,-80,4,2,1,70,0,1
60350,-100,4,2,1,70,0,1
60450,-100,4,2,4,70,0,1
60950,-100,4,2,0,50,0,1
61150,-100,4,2,4,70,0,1
61650,-100,4,2,2,70,0,1
61850,-100,4,2,1,70,0,1
62050,-100,4,2,4,70,0,1
62550,-100,4,2,4,50,0,1
62750,-100,4,2,4,70,0,1
63250,-80,4,2,2,70,0,1
63550,-100,4,2,1,70,0,1
64050,-100,4,2,0,70,0,1
64150,-100,4,2,1,70,0,1
64450,-100,4,2,4,80,0,1
64750,-100,4,2,1,60,0,0
64850,-66.6666666666667,4,2,2,70,0,1
65050,-66.6666666666667,4,2,1,70,0,1
65150,-100,4,2,1,70,0,1
65250,-100,4,2,4,70,0,1
66250,-100,4,2,1,70,0,1
66450,-80,4,2,2,80,0,1
66650,-80,4,2,1,70,0,1
66750,-100,4,2,1,70,0,1
66850,-100,4,2,4,70,0,1
67350,-100,4,2,0,50,0,1
67550,-100,4,2,4,70,0,1
68050,-100,4,2,2,70,0,1
68250,-100,4,2,1,70,0,1
68450,-100,4,2,4,70,0,1
68950,-100,4,2,4,50,0,1
69150,-100,4,2,4,70,0,1
69650,-100,4,2,2,70,0,0
69950,-100,4,2,4,60,0,0
70950,-100,4,2,1,60,0,0
71250,-66.6666666666667,4,2,2,70,0,0
71450,-100,4,2,1,60,0,0
71650,-100,4,2,0,60,0,0
71750,-100,4,2,1,60,0,0
72050,-100,4,2,77,70,0,0
72250,-100,4,2,77,50,0,0
72450,-100,4,2,1,60,0,0
72850,-100,4,2,77,70,0,0
73650,-100,4,2,1,60,0,0
74450,-100,4,2,77,70,0,0
75250,-100,4,2,1,60,0,0
76050,-100,4,2,0,60,0,0
76250,-100,4,2,1,60,0,0
77150,-100,4,2,0,60,0,0
77450,-100,4,2,1,60,0,0
77650,-100,4,2,2,70,0,0
78050,-100,4,2,0,70,0,0
78450,-100,4,2,0,60,0,0
78850,-100,4,2,0,50,0,0
79250,-100,4,2,0,40,0,0
79650,-100,4,2,0,30,0,0

[Colours]
Combo1 : 175,75,255
Combo2 : 255,75,75
Combo3 : 255,175,75
Combo4 : 255,255,75
Combo5 : 75,255,75
Combo6 : 75,255,255
Combo7 : 75,175,255
Combo8 : 125,125,255

[HitObjects]
256,192,2450,12,0,6450,0:0:0:0:
388,198,6850,5,2,0:0:0:0:
158,201,7250,2,0,L|287:192,2,120,4|0|0,0:0|0:0|0:0,0:0:0:0:
349,128,8050,2,0,P|409:109|359:33,1,160,8|0,0:0|0:0,0:0:0:0:
190,52,8850,5,8,0:0:0:0:
192,147,9050,1,0,0:0:0:0:
303,149,9250,1,8,0:0:0:0:
414,153,9450,1,0,0:0:0:0:
210,182,9650,2,0,L|330:183,2,120,4|0|2,0:0|0:0|0:0,0:0:0:0:
42,153,10450,6,0,L|46:58,1,80,8|0,0:0|0:0,0:0:0:0:
90,55,10750,1,0,0:0:0:0:
138,55,10850,1,8,0:0:0:0:
45,73,11050,1,0,0:0:0:0:
249,124,11250,2,0,L|129:132,1,120,4|0,0:0|0:0,0:0:0:0:
88,133,11650,1,2,0:0:0:0:
327,137,12050,6,0,L|328:98,4,40,10|0|2|0|2,0:0|0:0|0:0|0:0|0:0,0:0:0:0:
232,120,12650,5,10,0:0:0:0:
32,131,12850,1,4,0:0:0:0:
128,120,13050,1,8,0:0:0:0:
223,118,13250,2,0,L|322:154,1,80,0|2,0:0|0:0,0:0:0:0:
81,185,13650,6,0,P|41:120|86:69,1,120,4|0,0:0|0:0,0:0:0:0:
104,76,14050,1,2,0:0:0:0:
414,173,14450,2,0,P|430:95|410:34,1,120,4|2,0:0|0:0,0:0:0:0:
357,50,14850,1,2,0:0:0:0:
229,39,15050,1,2,0:0:0:0:
357,50,15250,6,0,L|470:53,1,80,8|0,0:0|0:0,0:0:0:0:
357,64,15650,2,0,L|274:71,1,80,2|8,0:0|0:0,0:0:0:0:
461,185,16050,2,0,L|309:216,2,120,4|2|2,0:0|0:0|0:0,0:0:0:0:
188,127,16850,5,12,0:0:0:0:
92,121,17050,2,0,L|62:86,2,40,0|2|0,0:0|0:0|0:0,0:0:0:0:
188,127,17450,1,0,0:0:0:0:
397,131,17650,1,12,0:0:0:0:
76,121,18050,1,0,0:0:0:0:
382,128,18450,5,8,0:0:0:0:
256,192,18650,12,4,19250,0:0:0:0:
117,118,19650,5,4,0:0:0:0:
308,182,20050,6,0,L|188:155,1,120,4|8,0:0|0:0,0:0:0:0:
228,125,20450,2,0,L|330:127,1,80,4|0,0:0|0:0,0:0:0:0:
131,94,20850,5,2,0:0:0:0:
84,100,20950,1,0,0:0:0:0:
37,103,21050,1,4,0:0:0:0:
214,126,21250,1,4,0:0:0:0:
323,131,21450,1,2,0:0:0:0:
51,217,21650,6,0,L|172:214,1,120,2|8,0:0|0:0,0:0:0:0:
131,191,22050,2,0,L|28:188,1,80,4|0,0:0|0:0,0:0:0:0:
171,191,22450,5,10,0:0:0:0:
219,189,22550,1,2,0:0:0:0:
267,189,22650,1,10,0:0:0:0:
155,120,22850,1,4,0:0:0:0:
60,131,23050,1,2,0:0:0:0:
233,134,23250,6,0,L|313:134,1,80,8|2,0:0|0:0,0:0:0:0:
233,134,23550,1,8,0:0:0:0:
155,133,23650,2,0,L|141:47,1,80,2|0,0:0|0:0,0:0:0:0:
238,56,24050,5,2,0:0:0:0:
191,53,24150,1,2,0:0:0:0:
143,52,24250,1,2,0:0:0:0:
334,52,24450,1,12,0:0:0:0:
381,54,24550,1,0,0:0:0:0:
428,57,24650,1,0,0:0:0:0:
156,220,24850,6,0,L|154:315,1,80,4|0,0:0|0:0,0:0:0:0:
214,299,25150,1,8,0:0:0:0:
273,299,25250,2,0,L|383:306,1,80,4|8,0:0|0:0,0:0:0:0:
214,299,25650,5,2,0:0:0:0:
166,294,25750,1,2,0:0:0:0:
118,293,25850,1,2,0:0:0:0:
297,222,26050,1,4,0:0:0:0:
355,224,26150,1,2,0:0:0:0:
412,224,26250,1,10,0:0:0:0:
140,160,26450,6,0,L|58:84,1,80,2|0,0:0|0:0,0:0:0:0:
283,82,26850,2,0,L|379:55,1,80,4|0,0:0|0:0,0:0:0:0:
164,180,27250,5,2,0:0:0:0:
124,179,27350,1,0,0:0:0:0:
84,177,27450,1,4,0:0:0:0:
182,123,27650,1,4,0:0:0:0:
83,122,27850,1,2,0:0:0:0:
356,254,28050,6,0,L|469:254,1,80,2|0,0:0|0:0,0:0:0:0:
395,227,28350,1,8,0:0:0:0:
349,211,28450,2,0,L|268:208,1,80,4|0,0:0|0:0,0:0:0:0:
383,192,28850,5,10,0:0:0:0:
428,177,28950,1,2,0:0:0:0:
447,132,29050,1,10,0:0:0:0:
431,86,29150,1,2,0:0:0:0:
386,67,29250,1,4,0:0:0:0:
290,61,29450,1,0,0:0:0:0:
176,60,29650,5,8,0:0:0:0:
303,64,29850,1,2,0:0:0:0:
341,74,29950,1,8,0:0:0:0:
377,91,30050,2,0,B|382:170,1,80,2|2,0:0|0:0,0:0:0:0:
249,202,30450,6,0,L|361:203,1,80,2|2,0:0|0:0,0:0:0:0:
272,160,30750,1,8,0:0:0:0:
216,160,30850,2,0,L|204:80,1,80,4|2,0:0|0:0,0:0:0:0:
478,61,31250,5,2,0:0:0:0:
312,60,31650,1,2,0:0:0:0:
150,192,32050,1,2,0:0:0:0:
220,196,32183,1,2,0:0:0:0:
276,193,32316,1,2,0:0:0:0:
120,119,32450,1,4,0:0:0:0:
56,115,32583,1,2,0:0:0:0:
115,91,32716,1,2,0:0:0:0:
320,192,32850,6,0,L|328:88,1,80,4|0,0:0|0:0,0:0:0:0:
264,104,33150,1,8,0:0:0:0:
201,97,33250,2,0,L|296:92,1,80,4|0,0:0|0:0,0:0:0:0:
108,80,33650,5,2,0:0:0:0:
156,84,33750,1,0,0:0:0:0:
204,88,33850,1,4,0:0:0:0:
256,92,33950,1,0,0:0:0:0:
303,112,34050,2,0,L|376:196,1,80,4|2,0:0|0:0,0:0:0:0:
84,194,34450,6,0,L|80:109,1,80,2|0,0:0|0:0,0:0:0:0:
128,110,34750,1,2,0:0:0:0:
175,115,34850,2,0,L|197:204,1,80,8|0,0:0|0:0,0:0:0:0:
315,209,35250,5,10,0:0:0:0:
355,209,35350,1,2,0:0:0:0:
402,210,35450,1,10,0:0:0:0:
449,207,35550,1,2,0:0:0:0:
451,159,35650,2,0,L|342:155,1,80,4|2,0:0|0:0,0:0:0:0:
235,138,36050,6,0,L|243:251,1,80,8|2,0:0|0:0,0:0:0:0:
193,211,36350,1,8,0:0:0:0:
145,214,36450,2,0,L|146:323,1,80,2|0,0:0|0:0,0:0:0:0:
312,290,36850,6,0,L|410:287,1,80,2|0,0:0|0:0,0:0:0:0:
280,204,37250,2,0,L|359:203,1,80,12|0,0:0|0:0,0:0:0:0:
88,104,37650,5,4,0:0:0:0:
183,116,37850,2,0,L|248:127,1,40,0|8,0:0|0:0,0:0:0:0:
253,159,38050,2,0,L|261:255,1,80,4|0,0:0|0:0,0:0:0:0:
138,241,38450,5,2,0:0:0:0:
185,238,38550,1,2,0:0:0:0:
232,239,38650,1,2,0:0:0:0:
422,301,38850,1,6,0:0:0:0:
375,300,38950,1,2,0:0:0:0:
327,300,39050,1,10,0:0:0:0:
52,232,39250,6,0,P|36:176|60:120,1,120,2|8,0:0|0:0,0:0:0:0:
112,108,39650,2,0,L|201:108,1,80,4|0,0:0|0:0,0:0:0:0:
351,112,40050,5,2,0:0:0:0:
352,175,40150,1,0,0:0:0:0:
309,217,40250,1,4,0:0:0:0:
257,228,40350,1,0,0:0:0:0:
201,225,40450,1,4,0:0:0:0:
97,230,40650,1,2,0:0:0:0:
369,173,40850,6,0,P|359:237|317:271,1,120,2|8,0:0|0:0,0:0:0:0:
266,273,41250,2,0,L|169:273,1,80,4|0,0:0|0:0,0:0:0:0:
290,266,41650,5,10,0:0:0:0:
338,266,41750,1,2,0:0:0:0:
357,214,41850,1,10,0:0:0:0:
315,186,41950,1,2,0:0:0:0:
271,185,42050,2,0,L|372:185,1,80,4|0,0:0|0:0,0:0:0:0:
166,192,42450,6,0,P|117:171|99:110,1,120,8|8,0:0|0:0,0:0:0:0:
158,96,42850,2,0,L|284:97,1,106.666666666667,4|0,0:0|0:0,0:0:0:0:
229,89,43250,2,0,B|56:86,1,160,2|2,0:0|0:0,0:0:0:0:
55,132,43750,1,0,0:0:0:0:
55,182,43850,1,0,0:0:0:0:
259,184,44050,1,2,0:0:0:0:
419,206,44450,5,2,0:0:0:0:
440,240,44550,1,2,0:0:0:0:
431,278,44650,1,2,0:0:0:0:
398,299,44750,1,2,0:0:0:0:
350,297,44850,2,0,L|274:297,2,40,10|0|10,0:0|0:0|0:0,0:0:0:0:
446,278,45250,2,0,L|449:211,1,40,4|8,0:0|0:0,0:0:0:0:
175,80,45550,1,4,0:0:0:0:
115,81,45650,6,0,P|71:142|115:203,1,150,12|8,0:0|0:0,0:0:0:0:
153,199,46050,2,0,L|259:198,1,80,4|2,0:0|0:0,0:0:0:0:
128,219,46450,2,0,B|135:314,1,80,2|2,0:0|0:0,0:0:0:0:
358,194,46850,2,0,L|361:87,1,80,6|0,0:0|0:0,0:0:0:0:
257,104,47250,5,8,0:0:0:0:
161,108,47450,1,8,0:0:0:0:
257,104,47650,1,4,0:0:0:0:
163,123,47850,1,2,0:0:0:0:
326,126,48050,6,0,L|327:221,1,80,10|10,0:0|0:0,0:0:0:0:
434,217,48450,2,0,L|434:303,1,80,6|10,0:0|0:0,0:0:0:0:
169,194,48850,6,0,L|83:194,1,80,10|2,0:0|0:0,0:0:0:0:
8,116,49250,1,6,0:0:0:0:
49,118,49350,1,2,0:0:0:0:
89,118,49450,1,2,0:0:0:0:
218,118,49650,6,0,L|310:117,1,80,10|2,0:0|0:0,0:0:0:0:
116,138,50050,2,0,L|39:138,2,40,6|2|2,0:0|0:0|0:0,0:0:0:0:
387,133,50450,6,0,L|521:109,2,120,4|8|4,0:0|0:0|0:0,0:0:0:0:
254,130,51250,1,2,0:0:0:0:
266,241,51450,1,8,0:0:0:0:
394,249,51650,2,0,L|398:173,2,40,4|0|2,0:0|0:0|0:0,0:0:0:0:
127,155,52050,6,0,L|-6:153,1,100,4|0,0:0|0:0,0:0:0:0:
89,122,52350,1,8,0:0:0:0:
132,69,52450,2,0,L|15:68,1,80,4|2,0:0|0:0,0:0:0:0:
163,192,52850,2,0,L|68:231,1,80,2|2,0:0|0:0,0:0:0:0:
250,290,53250,2,0,L|329:291,1,80,4|0,0:0|0:0,0:0:0:0:
222,255,53650,5,2,0:0:0:0:
126,261,53850,1,8,0:0:0:0:
222,255,54050,1,4,0:0:0:0:
127,237,54250,1,2,0:0:0:0:
393,184,54450,6,0,L|392:112,1,40,10|0,0:0|0:0,0:0:0:0:
310,192,54650,2,0,L|311:120,1,40,10|0,0:0|0:0,0:0:0:0:
392,198,54850,2,0,L|393:272,1,40,6|0,0:0|0:0,0:0:0:0:
310,192,55050,1,10,0:0:0:0:
142,90,55250,6,0,L|74:154,1,80,4|8,0:0|0:0,0:0:0:0:
188,192,55650,2,0,L|270:192,1,80,4|2,0:0|0:0,0:0:0:0:
88,244,56050,2,0,L|25:244,2,53.3333333333333,2|2|2,0:0|0:0|0:0,0:0:0:0:
168,193,56450,2,0,L|235:193,2,53.3333333333333,4|2|2,0:0|0:0|0:0,0:0:0:0:
372,193,56850,6,0,L|492:193,2,120,4|2|4,0:0|0:0|0:0,0:0:0:0:
252,112,57850,1,8,0:0:0:0:
347,123,58050,1,2,0:0:0:0:
383,153,58150,1,2,0:0:0:0:
388,200,58250,1,2,0:0:0:0:
35,254,58450,6,0,L|22:132,1,120.000004577637,4|8,0:0|0:0,0:0:0:0:
85,134,58750,1,8,0:0:0:0:
148,136,58850,2,0,L|38:124,1,80,6|2,0:0|0:0,0:0:0:0:
244,75,59250,6,0,L|334:68,1,80,2|8,0:0|0:0,0:0:0:0:
268,75,59550,1,10,0:0:0:0:
212,79,59650,1,8,0:0:0:0:
104,188,59850,1,2,0:0:0:0:
371,71,60050,6,0,L|371:198,1,100,4|8,0:0|0:0,0:0:0:0:
418,172,60350,1,8,0:0:0:0:
465,172,60450,2,0,L|464:281,1,80,6|2,0:0|0:0,0:0:0:0:
288,252,60850,6,0,L|176:254,1,80,2|2,0:0|0:0,0:0:0:0:
200,205,61150,1,2,0:0:0:0:
248,205,61250,1,4,0:0:0:0:
359,205,61450,1,8,0:0:0:0:
88,188,61650,5,4,0:0:0:0:
192,185,61850,1,8,0:0:0:0:
239,184,61950,1,8,0:0:0:0:
182,185,62050,2,0,L|102:185,1,80,6|2,0:0|0:0,0:0:0:0:
273,180,62450,5,2,0:0:0:0:
320,182,62550,2,0,L|410:182,1,80,2|8,0:0|0:0,0:0:0:0:
447,177,62850,1,4,0:0:0:0:
441,129,62950,1,8,0:0:0:0:
393,127,63050,1,8,0:0:0:0:
112,280,63250,6,0,L|105:168,1,100,4|0,0:0|0:0,0:0:0:0:
153,176,63550,1,8,0:0:0:0:
200,177,63650,2,0,L|304:178,1,80,8|4,0:0|0:0,0:0:0:0:
96,172,64050,5,2,0:0:0:0:
96,132,64150,1,2,0:0:0:0:
97,92,64250,1,2,0:0:0:0:
192,94,64450,2,0,L|85:91,1,80,2|8,0:0|0:0,0:0:0:0:
413,159,64850,6,0,B|450:104|450:104|412:158,1,120.000004577637,4|8,0:0|0:0,0:0:0:0:
371,159,65150,1,8,0:0:0:0:
323,166,65250,2,0,L|323:74,1,80,6|2,0:0|0:0,0:0:0:0:
146,84,65650,6,0,L|145:182,1,80,2|8,0:0|0:0,0:0:0:0:
97,168,65950,1,8,0:0:0:0:
49,171,66050,2,0,L|49:282,1,80,4|8,0:0|0:0,0:0:0:0:
328,65,66450,6,0,L|327:170,1,100,4|8,0:0|0:0,0:0:0:0:
375,163,66750,1,8,0:0:0:0:
425,163,66850,2,0,L|425:266,1,80,6|2,0:0|0:0,0:0:0:0:
309,244,67250,6,0,L|305:181,2,40,2|2|2,0:0|0:0|0:0,0:0:0:0:
416,240,67650,2,0,L|483:226,2,40,4|8|8,0:0|0:0|0:0,0:0:0:0:
124,312,68050,6,0,L|118:233,1,80,4|10,0:0|0:0,0:0:0:0:
212,218,68450,2,0,L|129:215,1,80,6|10,0:0|0:0,0:0:0:0:
297,222,68850,5,2,0:0:0:0:
319,189,68950,1,2,0:0:0:0:
326,150,69050,1,0,0:0:0:0:
316,111,69150,1,0,0:0:0:0:
290,80,69250,1,4,0:0:0:0:
195,64,69450,1,8,0:0:0:0:
460,168,69650,1,4,0:0:0:0:
256,64,70050,6,0,L|160:64,1,80,2|2,0:0|0:0,0:0:0:0:
282,135,70450,1,2,0:0:0:0:
325,133,70550,1,2,0:0:0:0:
369,136,70650,1,8,0:0:0:0:
460,164,70850,6,0,L|452:217,1,40,4|8,0:0|0:0,0:0:0:0:
151,85,71150,1,0,0:0:0:0:
111,85,71250,6,0,P|26:155|61:266,1,240.000009155274,4|2,0:0|0:0,0:0:0:0:
127,293,71850,1,0,0:0:0:0:
340,160,72050,5,2,0:0:0:0:
376,176,72150,1,0,0:0:0:0:
392,211,72250,1,4,0:0:0:0:
382,249,72350,1,0,0:0:0:0:
350,271,72450,1,8,0:0:0:0:
444,270,72650,1,8,0:0:0:0:
177,123,72850,6,0,L|169:202,1,80,2|0,0:0|0:0,0:0:0:0:
54,122,73250,2,0,L|50:201,1,80,2|0,0:0|0:0,0:0:0:0:
220,160,73650,5,4,0:0:0:0:
256,176,73750,1,0,0:0:0:0:
272,211,73850,1,0,0:0:0:0:
262,249,73950,1,0,0:0:0:0:
230,271,74050,1,8,0:0:0:0:
121,268,74250,1,0,0:0:0:0:
397,92,74450,6,0,L|501:94,1,80,2|0,0:0|0:0,0:0:0:0:
439,105,74750,1,0,0:0:0:0:
380,287,74850,2,0,L|484:285,1,80,2|0,0:0|0:0,0:0:0:0:
266,206,75250,6,0,L|89:203,1,160,4|0,0:0|0:0,0:0:0:0:
202,203,75850,1,2,0:0:0:0:
106,194,76050,6,0,L|94:84,1,80,2|2,0:0|0:0,0:0:0:0:
172,116,76350,1,0,0:0:0:0:
248,115,76450,2,0,L|345:96,1,80,2|8,0:0|0:0,0:0:0:0:
126,50,76850,6,0,L|-11:44,1,120,4|2,0:0|0:0,0:0:0:0:
161,79,77450,1,2,0:0:0:0:
435,22,77650,1,12,0:0:0:0:
256,192,78050,12,0,79750,0:0:0:0:
