osu file format v14

[General]
AudioFilename: audio.mp3
AudioLeadIn: 0
PreviewTime: 6650
Countdown: 0
SampleSet: Soft
StackLeniency: 0.7
Mode: 2
LetterboxInBreaks: 0
WidescreenStoryboard: 0

[Editor]
Bookmarks: 7250,20050,32850,45650,58450,71250,79650
DistanceSpacing: 0.7
BeatDivisor: 4
GridSize: 4
TimelineZoom: 1

[Metadata]
Title:Streak
TitleUnicode:Streak
Artist:ARM
ArtistUnicode:ARM
Creator:JBHyperion
Version:Rain
Source:HALFPIPE TOKYO
Tags:IOSYS Youhei Kimura 木村洋平 Joypolis Original Soundtrack OST SEGA maimai plus Raiin SangKrazFinale SangKrazF1nal3 WildOne94 Sinnoh Kukkai Salchow MBomb JBH
BeatmapID:1809824
BeatmapSetID:865565

[Difficulty]
HPDrainRate:6
CircleSize:3.6
OverallDifficulty:9
ApproachRate:9
SliderMultiplier:1.8
SliderTickRate:1

[Events]
//Background and Video events
0,0,"TechnoNeonPipe-thing.jpg",0,0
//Break Periods
//Storyboard Layer 0 (Background)
//Storyboard Layer 1 (Fail)
//Storyboard Layer 2 (Pass)
//Storyboard Layer 3 (Foreground)
//Storyboard Sound Samples

[TimingPoints]
2450,400,4,2,0,10,1,0
2850,-100,4,2,0,15,0,0
3250,-100,4,2,0,20,0,0
3650,-100,4,2,0,25,0,0
4050,-100,4,2,0,40,0,0
4450,-100,4,2,0,35,0,0
4850,-100,4,2,0,40,0,0
5250,-100,4,2,0,45,0,0
5650,-100,4,2,0,50,0,0
6050,-100,4,2,0,55,0,0
6450,-80,4,3,1,60,0,0
6750,-100,4,3,1,20,0,0
6850,-100,4,3,1,45,0,0
7250,-100,4,2,2,60,0,0
7350,-100,4,2,1,60,0,0
9650,-80,4,2,1,60,0,0
9950,-100,4,2,1,60,0,0
12050,-100,4,2,77,60,0,0
12850,-100,4,2,1,60,0,0
13650,-100,4,2,2,60,0,0
13850,-100,4,2,1,60,0,0
16850,-100,4,2,2,60,0,0
18450,-100,4,3,1,30,0,0
19250,-100,4,2,1,60,0,0
19550,-100,4,2,2,70,0,0
19650,-100,4,2,1,70,0,0
20250,-100,4,2,1,60,0,0
20850,-100,4,2,77,60,0,0
21050,-100,4,2,77,40,0,0
21250,-100,4,2,1,60,0,0
21650,-100,4,2,77,60,0,0
21850,-100,4,2,1,60,0,0
23650,-100,4,2,77,60,0,0
23850,-100,4,2,0,60,0,0
24150,-100,4,2,1,60,0,0
24450,-66.6666666666667,4,2,77,40,0,0
24650,-100,4,2,1,60,0,0
24850,-100,4,2,2,50,0,0
25050,-100,4,2,1,60,0,0
25650,-100,4,2,0,60,0,0
25750,-100,4,2,1,60,0,0
26450,-100,4,2,77,60,0,0
26650,-100,4,2,1,60,0,0
27250,-100,4,2,77,60,0,0
27450,-100,4,2,77,40,0,0
27650,-100,4,2,1,60,0,0
28050,-100,4,2,77,60,0,0
28250,-100,4,2,1,60,0,0
30050,-100,4,2,77,60,0,0
30250,-100,4,2,0,60,0,0
30550,-100,4,2,1,60,0,0
30850,-66.6666666666667,4,2,77,60,0,0
31050,-100,4,2,1,60,0,0
31250,-100,4,2,77,50,0,0
31650,-100,4,2,1,50,0,0
32050,-100,4,2,77,30,0,0
32450,-100,4,2,1,50,0,0
32583,-100,4,2,77,40,0,0
32850,-100,4,2,2,50,0,0
33050,-100,4,2,1,50,0,0
33650,-100,4,2,77,50,0,0
33850,-100,4,2,77,40,0,0
34050,-100,4,2,1,60,0,0
34450,-100,4,2,77,60,0,0
34650,-100,4,2,1,60,0,0
36450,-80,4,2,77,60,0,0
36750,-80,4,2,1,40,0,0
36850,-66.6666666666667,4,2,0,60,0,0
37150,-80,4,2,1,40,0,0
37250,-80,4,2,77,40,0,0
37550,-100,4,2,1,40,0,0
37650,-100,4,2,2,50,0,0
37850,-100,4,2,1,60,0,0
38450,-100,4,2,0,60,0,0
38550,-100,4,2,1,60,0,0
39250,-100,4,2,77,60,0,0
39450,-100,4,2,1,60,0,0
40050,-100,4,2,77,60,0,0
40250,-100,4,2,77,40,0,0
40450,-100,4,2,1,60,0,0
40850,-100,4,2,77,60,0,0
41050,-100,4,2,1,60,0,0
43250,-100,4,2,0,60,0,0
43350,-100,4,2,1,60,0,0
43650,-100,4,2,0,50,0,0
44050,-66.6666666666667,4,2,0,50,0,0
44350,-100,4,2,1,30,0,0
45650,-80,4,2,99,70,0,1
45950,-80,4,2,1,70,0,1
46450,-80,4,2,0,90,0,1
46550,-80,4,2,1,70,0,1
46850,-80,4,2,77,50,0,1
47250,-80,4,2,1,70,0,1
48050,-80,4,2,4,70,0,1
48850,-80,4,2,1,70,0,1
50450,-80,4,3,2,70,0,0
50650,-80,4,2,1,50,0,0
51050,-80,4,3,2,70,0,0
51150,-80,4,2,1,50,0,0
51650,-66.6666666666667,4,2,1,70,0,0
52050,-66.6666666666667,4,2,2,90,0,1
52350,-80,4,2,1,70,0,1
52850,-80,4,2,0,90,0,1
52950,-80,4,2,1,70,0,1
53250,-66.6666666666667,4,2,77,50,0,1
53550,-80,4,2,1,70,0,1
54450,-80,4,2,4,70,0,1
55250,-80,4,3,2,90,0,1
55450,-80,4,2,1,70,0,1
56050,-80,4,2,77,40,0,1
56450,-80,4,2,1,60,0,1
56583,-80,4,2,77,50,0,1
56850,-66.6666666666667,4,2,2,60,0,0
57050,-66.6666666666667,4,2,0,80,0,0
57350,-66.6666666666667,4,2,2,20,0,0
57450,-80,4,2,2,60,0,0
57850,-100,4,2,1,40,0,0
58050,-100,4,2,0,50,0,0
58150,-100,4,2,1,70,0,0
58250,-100,4,2,0,60,0,0
58350,-100,4,2,1,80,0,0
58450,-66.6666666666667,4,2,2,70,0,1
58650,-80,4,2,1,70,0,1
58850,-80,4,2,4,70,0,1
59850,-80,4,2,1,70,0,1
60050,-66.6666666666667,4,2,2,70,0,1
60250,-80,4,2,1,70,0,1
60450,-80,4,2,4,70,0,1
60950,-80,4,2,0,50,0,1
61150,-80,4,2,4,70,0,1
61650,-80,4,2,2,70,0,1
61850,-80,4,2,1,70,0,1
62050,-80,4,2,4,70,0,1
62550,-80,4,2,4,50,0,1
62750,-80,4,2,4,70,0,1
63250,-66.6666666666667,4,2,2,70,0,1
63550,-80,4,2,1,70,0,1
64050,-80,4,2,0,70,0,1
64150,-80,4,2,1,70,0,1
64450,-66.6666666666667,4,2,4,80,0,1
64750,-100,4,2,1,60,0,0
64850,-66.6666666666667,4,2,2,70,0,1
65050,-80,4,2,1,70,0,1
65250,-80,4,2,4,70,0,1
66250,-80,4,2,1,70,0,1
66450,-66.6666666666667,4,2,2,80,0,1
66650,-80,4,2,1,70,0,1
66850,-80,4,2,4,70,0,1
67350,-80,4,2,0,50,0,1
67550,-80,4,2,4,70,0,1
68050,-66.6666666666667,4,2,2,70,0,1
68250,-80,4,2,1,70,0,1
68450,-80,4,2,4,70,0,1
68950,-80,4,2,4,50,0,1
69150,-80,4,2,4,70,0,1
69650,-80,4,2,2,70,0,0
69950,-100,4,2,4,60,0,0
70950,-100,4,2,1,60,0,0
71250,-100,4,2,2,70,0,0
71450,-100,4,2,1,60,0,0
71650,-100,4,2,0,60,0,0
71750,-100,4,2,1,60,0,0
72050,-100,4,2,77,70,0,0
72250,-100,4,2,77,50,0,0
72450,-100,4,2,1,60,0,0
72850,-100,4,2,77,70,0,0
73650,-100,4,2,1,60,0,0
74450,-100,4,2,77,70,0,0
75250,-100,4,2,1,60,0,0
76050,-100,4,2,0,60,0,0
76250,-100,4,2,1,60,0,0
77150,-100,4,2,0,60,0,0
77450,-100,4,2,1,60,0,0
77650,-100,4,2,2,70,0,0
78050,-100,4,2,0,70,0,0
78450,-100,4,2,0,60,0,0
78850,-100,4,2,0,50,0,0
79250,-100,4,2,0,40,0,0
79650,-100,4,2,0,30,0,0

[Colours]
Combo1 : 175,75,255
Combo2 : 255,75,75
Combo3 : 255,175,75
Combo4 : 255,255,75
Combo5 : 75,255,75
Combo6 : 75,255,255
Combo7 : 75,175,255
Combo8 : 125,125,255

[HitObjects]
256,192,2450,12,0,6250,0:0:0:0:
104,192,6450,6,0,L|272:192,1,168.75,4|0,0:0|0:0,0:0:0:0:
140,192,6850,2,0,L|132:96,1,90,2|0,0:0|0:0,0:0:0:0:
404,96,7250,6,0,P|436:140|388:192,1,135,4|0,0:0|0:0,0:0:0:0:
336,192,7650,1,2,0:0:0:0:
156,192,7850,1,0,0:0:0:0:
356,280,8050,2,0,L|224:320,2,135,8|0|0,0:0|0:0|0:0,0:0:0:0:
176,320,8850,6,0,L|80:320,1,90,8|0,0:0|0:0,0:0:0:0:
148,268,9150,1,0,0:0:0:0:
212,216,9250,2,0,L|116:216,1,90,8|0,0:0|0:0,0:0:0:0:
320,216,9650,2,0,P|388:212|400:124,1,168.75,4|0,0:0|0:0,0:0:0:0:
224,128,10250,1,2,0:0:0:0:
16,127,10450,6,0,L|96:82,1,90,8|0,0:0|0:0,0:0:0:0:
156,84,10750,1,0,0:0:0:0:
94,83,10850,1,8,0:0:0:0:
256,84,11050,1,0,0:0:0:0:
48,204,11250,2,0,L|178:164,2,135,4|0|2,0:0|0:0|0:0,0:0:0:0:
320,164,12050,6,0,L|356:192,3,45,10|0|2|0,0:0|0:0|0:0|0:0,0:0:0:0:
264,224,12450,2,0,L|220:224,1,45,2|0,0:0|0:0,0:0:0:0:
320,164,12650,2,0,L|380:164,1,45,10|8,0:0|0:0,0:0:0:0:
204,224,12850,2,0,L|100:224,1,90,4|8,0:0|0:0,0:0:0:0:
238,344,13250,2,0,L|330:344,1,90,0|2,0:0|0:0,0:0:0:0:
60,340,13650,6,0,L|160:340,1,90,4|0,0:0|0:0,0:0:0:0:
312,344,14050,2,0,L|232:298,1,90,2|8,0:0|0:0,0:0:0:0:
440,300,14450,2,0,L|492:300,2,45,4|0|0,0:0|0:0|0:0,0:0:0:0:
384,300,14750,2,0,L|248:300,1,135,2|2,0:0|0:0,0:0:0:0:
464,192,15250,6,0,L|468:92,1,90,8|0,0:0|0:0,0:0:0:0:
400,100,15550,1,0,0:0:0:0:
332,100,15650,2,0,L|436:100,1,90,2|8,0:0|0:0,0:0:0:0:
216,100,16050,2,0,P|176:144|216:196,1,135,4|2,0:0|0:0,0:0:0:0:
376,196,16650,1,2,0:0:0:0:
104,196,16850,6,0,P|97:290|136:368,1,180,12|0,0:0|0:0,0:0:0:0:
464,192,17650,2,0,L|472:372,1,180,12|0,0:0|0:0,0:0:0:0:
124,300,18450,6,0,L|96:272,15,22.5,8|8|8|8|8|8|8|8|8|8|8|8|8|8|8|8,0:0|0:0|0:0|0:0|0:0|0:0|0:0|0:0|0:0|0:0|0:0|0:0|0:0|0:0|0:0|0:0,0:0:0:0:
124,300,19250,2,0,L|264:300,1,135,8|0,0:0|0:0,0:0:0:0:
52,300,19650,5,4,0:0:0:0:
376,300,20050,6,0,L|468:300,1,90,4|0,0:0|0:0,0:0:0:0:
379,300,20350,1,8,0:0:0:0:
292,300,20450,2,0,L|212:254,1,90,4|0,0:0|0:0,0:0:0:0:
484,192,20850,2,0,L|440:192,1,45,2|0,0:0|0:0,0:0:0:0:
376,192,21050,2,0,L|320:192,1,45,4|0,0:0|0:0,0:0:0:0:
140,192,21250,1,4,0:0:0:0:
312,192,21450,1,2,0:0:0:0:
40,192,21650,6,0,L|132:192,1,90,2|0,0:0|0:0,0:0:0:0:
219,152,21950,1,8,0:0:0:0:
308,92,22050,2,0,L|228:46,1,90,4|0,0:0|0:0,0:0:0:0:
24,44,22450,1,10,0:0:0:0:
15,116,22550,1,2,0:0:0:0:
58,176,22650,1,10,0:0:0:0:
130,192,22750,1,2,0:0:0:0:
320,192,22850,2,0,L|420:192,1,90,4|2,0:0|0:0,0:0:0:0:
196,192,23250,6,0,L|275:238,1,90,8|2,0:0|0:0,0:0:0:0:
212,236,23550,1,8,0:0:0:0:
32,236,23650,2,0,L|136:236,1,90,2|0,0:0|0:0,0:0:0:0:
328,240,24050,2,0,L|380:240,2,45,2|2|2,0:0|0:0|0:0,0:0:0:0:
40,240,24450,2,0,P|4:192|56:156,1,135.000005149842,12|0,0:0|0:0,0:0:0:0:
352,140,24850,6,0,L|448:140,1,90,4|0,0:0|0:0,0:0:0:0:
388,140,25150,1,8,0:0:0:0:
260,140,25250,1,4,0:0:0:0:
396,140,25450,1,8,0:0:0:0:
124,140,25650,2,0,L|120:96,1,45,2|2,0:0|0:0,0:0:0:0:
228,96,25850,2,0,L|232:52,1,45,2|2,0:0|0:0,0:0:0:0:
52,48,26050,1,4,0:0:0:0:
16,100,26150,1,2,0:0:0:0:
24,160,26250,1,10,0:0:0:0:
75,194,26350,1,2,0:0:0:0:
264,196,26450,6,0,L|356:196,1,90,2|0,0:0|0:0,0:0:0:0:
408,168,26750,1,8,0:0:0:0:
300,168,26850,2,0,L|380:122,1,90,4|0,0:0|0:0,0:0:0:0:
108,124,27250,2,0,L|64:124,1,45,2|0,0:0|0:0,0:0:0:0:
136,192,27450,2,0,L|192:192,1,45,4|0,0:0|0:0,0:0:0:0:
352,192,27650,1,4,0:0:0:0:
200,192,27850,1,2,0:0:0:0:
472,192,28050,6,0,L|380:192,1,90,2|0,0:0|0:0,0:0:0:0:
293,192,28350,1,8,0:0:0:0:
204,192,28450,2,0,L|133:132,1,90,4|0,0:0|0:0,0:0:0:0:
354,60,28850,1,10,0:0:0:0:
363,132,28950,1,2,0:0:0:0:
320,192,29050,1,10,0:0:0:0:
248,208,29150,1,2,0:0:0:0:
440,192,29250,2,0,L|448:288,1,90,4|0,0:0|0:0,0:0:0:0:
240,280,29650,6,0,L|148:280,1,90,8|2,0:0|0:0,0:0:0:0:
220,280,29950,1,8,0:0:0:0:
400,280,30050,2,0,L|492:280,1,90,2|2,0:0|0:0,0:0:0:0:
324,192,30450,2,0,L|432:192,1,90,2|2,0:0|0:0,0:0:0:0:
88,192,30850,2,0,P|48:144|88:96,1,135.000005149842,4|2,0:0|0:0,0:0:0:0:
360,96,31250,6,0,L|472:96,1,90,2|0,0:0|0:0,0:0:0:0:
244,96,31650,2,0,L|152:96,1,90,2|0,0:0|0:0,0:0:0:0:
344,180,32050,2,0,L|420:180,2,60,2|2|2,0:0|0:0|0:0,0:0:0:0:
196,180,32450,1,4,0:0:0:0:
284,180,32583,1,2,0:0:0:0:
372,180,32716,1,0,0:0:0:0:
132,180,32850,6,0,L|40:180,1,90,4|0,0:0|0:0,0:0:0:0:
129,180,33150,1,8,0:0:0:0:
216,180,33250,2,0,L|296:134,1,90,4|0,0:0|0:0,0:0:0:0:
24,72,33650,2,0,L|16:128,1,45,2|0,0:0|0:0,0:0:0:0:
96,116,33850,2,0,L|152:116,1,45,4|0,0:0|0:0,0:0:0:0:
320,116,34050,1,4,0:0:0:0:
160,116,34250,1,2,0:0:0:0:
448,116,34450,6,0,L|356:116,1,90,2|0,0:0|0:0,0:0:0:0:
267,116,34750,1,2,0:0:0:0:
176,192,34850,2,0,L|276:192,1,90,8|0,0:0|0:0,0:0:0:0:
48,340,35250,1,10,0:0:0:0:
39,268,35350,1,2,0:0:0:0:
82,208,35450,1,10,0:0:0:0:
154,192,35550,1,2,0:0:0:0:
324,192,35650,2,0,L|224:192,1,90,4|2,0:0|0:0,0:0:0:0:
36,156,36050,6,0,L|115:110,1,90,8|2,0:0|0:0,0:0:0:0:
176,112,36350,1,8,0:0:0:0:
356,112,36450,2,0,P|400:152|344:224,1,168.75,2|0,0:0|0:0,0:0:0:0:
228,224,36850,2,0,P|140:284|184:344,1,202.500007724762,2|0,0:0|0:0,0:0:0:0:
384,344,37250,2,0,B|468:344|468:344|488:256,1,168.75,12|0,0:0|0:0,0:0:0:0:
296,224,37650,6,0,L|200:224,1,90,4|0,0:0|0:0,0:0:0:0:
152,224,37950,1,8,0:0:0:0:
280,224,38050,1,4,0:0:0:0:
144,224,38250,1,0,0:0:0:0:
416,224,38450,2,0,L|428:180,1,45,2|2,0:0|0:0,0:0:0:0:
344,180,38650,2,0,L|328:136,1,45,2|2,0:0|0:0,0:0:0:0:
412,140,38850,2,0,L|348:140,1,45,6|2,0:0|0:0,0:0:0:0:
284,140,39050,2,0,L|216:140,1,45,10|2,0:0|0:0,0:0:0:0:
408,40,39250,6,0,L|500:40,1,90,2|0,0:0|0:0,0:0:0:0:
408,40,39550,1,8,0:0:0:0:
318,40,39650,2,0,L|224:40,1,90,4|0,0:0|0:0,0:0:0:0:
496,148,40050,2,0,L|452:148,1,45,2|0,0:0|0:0,0:0:0:0:
380,148,40250,2,0,L|312:148,1,45,4|0,0:0|0:0,0:0:0:0:
496,236,40450,2,0,L|404:236,1,90,4|2,0:0|0:0,0:0:0:0:
136,236,40850,6,0,L|228:236,1,90,2|0,0:0|0:0,0:0:0:0:
154,236,41150,1,8,0:0:0:0:
82,236,41250,2,0,L|172:236,1,90,4|0,0:0|0:0,0:0:0:0:
352,240,41650,1,10,0:0:0:0:
361,168,41750,1,2,0:0:0:0:
318,108,41850,1,10,0:0:0:0:
246,92,41950,1,2,0:0:0:0:
80,92,42050,2,0,L|180:92,1,90,4|0,0:0|0:0,0:0:0:0:
376,92,42450,6,0,L|380:188,1,90,8|2,0:0|0:0,0:0:0:0:
292,180,42750,1,8,0:0:0:0:
202,180,42850,2,0,L|302:180,1,90,4|2,0:0|0:0,0:0:0:0:
92,180,43250,2,0,L|88:276,1,90,2|2,0:0|0:0,0:0:0:0:
380,272,43650,2,0,L|388:252,7,22.5,2|2|2|2|2|2|2|2,0:0|0:0|0:0|0:0|0:0|0:0|0:0|0:0,0:0:0:0:
380,272,44050,6,0,P|324:268|244:156,1,202.500007724762,2|0,0:0|0:0,0:0:0:0:
352,160,44450,1,2,0:0:0:0:
397,123,44550,1,2,0:0:0:0:
397,65,44650,1,2,0:0:0:0:
353,28,44750,1,2,0:0:0:0:
264,20,44850,2,0,L|208:20,1,45,10|0,0:0|0:0,0:0:0:0:
337,20,45050,2,0,L|340:72,1,45,10|0,0:0|0:0,0:0:0:0:
172,20,45250,2,0,L|120:20,1,45,4|8,0:0|0:0,0:0:0:0:
244,116,45550,1,4,0:0:0:0:
60,108,45650,6,0,P|11:169|63:227,1,168.75,12|8,0:0|0:0,0:0:0:0:
148,228,46050,1,4,0:0:0:0:
420,232,46250,2,0,L|312:196,2,112.5,2|2|2,0:0|0:0|0:0,0:0:0:0:
126,228,46850,2,0,L|250:228,1,112.5,6|0,0:0|0:0,0:0:0:0:
52,120,47250,6,0,L|159:58,1,112.5,8|8,0:0|0:0,0:0:0:0:
205,64,47550,1,8,0:0:0:0:
149,63,47650,2,0,L|37:63,1,112.5,4|2,0:0|0:0,0:0:0:0:
297,63,48050,2,0,L|301:119,1,56.25,10|0,0:0|0:0,0:0:0:0:
188,124,48250,2,0,L|192:180,1,56.25,10|0,0:0|0:0,0:0:0:0:
305,211,48450,2,0,L|301:267,1,56.25,6|0,0:0|0:0,0:0:0:0:
188,268,48650,2,0,L|184:324,1,56.25,10|0,0:0|0:0,0:0:0:0:
360,324,48850,5,10,0:0:0:0:
416,279,48950,1,2,0:0:0:0:
413,207,49050,1,2,0:0:0:0:
352,168,49150,1,2,0:0:0:0:
176,268,49250,1,6,0:0:0:0:
120,223,49350,1,2,0:0:0:0:
123,151,49450,1,2,0:0:0:0:
184,112,49550,1,2,0:0:0:0:
360,72,49650,6,0,L|416:72,1,56.25,10|2,0:0|0:0,0:0:0:0:
484,140,49850,2,0,L|412:140,1,56.25,2|2,0:0|0:0,0:0:0:0:
252,140,50050,2,0,L|184:140,1,56.25,6|2,0:0|0:0,0:0:0:0:
276,72,50250,2,0,L|344:72,1,56.25,2|2,0:0|0:0,0:0:0:0:
132,72,50450,6,0,P|84:104|68:156,1,112.5,4|2,0:0|0:0,0:0:0:0:
124,192,50750,1,8,0:0:0:0:
428,72,51050,2,0,P|484:104|500:148,2,112.5,4|2|8,0:0|0:0|0:0,0:0:0:0:
52,192,51650,2,0,P|8:236|52:276,1,135.000005149842,4|2,0:0|0:0,0:0:0:0:
356,324,52050,6,0,P|444:288|476:192,1,202.500007724762,4|8,0:0|0:0,0:0:0:0:
392,192,52450,1,4,0:0:0:0:
132,192,52650,2,0,L|240:228,2,112.5,2|2|2,0:0|0:0|0:0,0:0:0:0:
404,192,53250,2,0,P|388:108|284:96,1,202.500007724762,4|0,0:0|0:0,0:0:0:0:
60,300,53650,6,0,L|167:362,1,112.5,2|8,0:0|0:0,0:0:0:0:
224,356,53950,1,8,0:0:0:0:
392,356,54050,2,0,L|504:356,1,112.5,4|2,0:0|0:0,0:0:0:0:
244,356,54450,2,0,L|240:300,1,56.25,10|0,0:0|0:0,0:0:0:0:
352,296,54650,2,0,L|352:240,1,56.25,10|0,0:0|0:0,0:0:0:0:
240,224,54850,2,0,L|236:168,1,56.25,6|0,0:0|0:0,0:0:0:0:
376,168,55050,2,0,L|376:112,1,56.25,10|0,0:0|0:0,0:0:0:0:
200,56,55250,6,0,L|80:56,1,112.5,4|8,0:0|0:0,0:0:0:0:
178,56,55550,1,8,0:0:0:0:
268,56,55650,2,0,L|368:112,1,112.5,4|2,0:0|0:0,0:0:0:0:
72,192,56050,2,0,L|0:150,2,75,2|2|2,0:0|0:0|0:0,0:0:0:0:
224,272,56450,2,0,L|300:272,2,75,4|2|2,0:0|0:0|0:0,0:0:0:0:
420,272,56850,6,0,P|444:196|348:160,1,202.500007724762,4|2,0:0|0:0,0:0:0:0:
76,160,57450,2,0,P|12:88|88:8,1,225,4|8,0:0|0:0,0:0:0:0:
348,8,58050,1,2,0:0:0:0:
420,8,58150,2,0,L|476:8,2,45,2|2|2,0:0|0:0|0:0,0:0:0:0:
124,160,58450,6,0,P|68:180|36:244,1,135.000005149842,4|8,0:0|0:0,0:0:0:0:
116,244,58750,1,8,0:0:0:0:
296,244,58850,1,6,0:0:0:0:
160,244,59050,1,2,0:0:0:0:
452,244,59250,2,0,L|496:208,2,56.25,2|0|8,0:0|0:0|0:0,0:0:0:0:
372,244,59550,1,10,0:0:0:0:
192,244,59650,1,8,0:0:0:0:
44,240,59850,2,0,L|100:240,1,56.25,2|2,0:0|0:0,0:0:0:0:
328,244,60050,6,0,P|389:271|413:333,1,135.000005149842,4|8,0:0|0:0,0:0:0:0:
335,332,60350,1,8,0:0:0:0:
144,332,60450,1,6,0:0:0:0:
308,332,60650,1,2,0:0:0:0:
28,276,60850,1,2,0:0:0:0:
76,248,60950,1,2,0:0:0:0:
124,220,61050,1,2,0:0:0:0:
304,192,61150,1,2,0:0:0:0:
256,164,61250,1,4,0:0:0:0:
208,136,61350,1,8,0:0:0:0:
28,136,61450,2,0,L|83:104,1,56.25,8|0,0:0|0:0,0:0:0:0:
256,64,61650,6,0,L|376:64,1,112.5,4|8,0:0|0:0,0:0:0:0:
300,64,61950,1,8,0:0:0:0:
120,64,62050,2,0,L|216:120,1,112.5,6|2,0:0|0:0,0:0:0:0:
60,192,62450,1,2,0:0:0:0:
248,192,62550,2,0,L|368:192,1,112.5,2|8,0:0|0:0,0:0:0:0:
172,192,62850,2,0,L|168:136,1,56.25,4|8,0:0|0:0,0:0:0:0:
268,240,63050,2,0,L|299:193,1,56.25,8|8,0:0|0:0,0:0:0:0:
96,192,63250,6,0,P|76:280|168:320,1,202.500007724762,4|8,0:0|0:0,0:0:0:0:
248,320,63650,1,8,0:0:0:0:
68,320,63850,1,4,0:0:0:0:
256,320,64050,2,0,L|312:320,1,56.25,2|2,0:0|0:0,0:0:0:0:
384,320,64250,2,0,L|316:320,1,56.25,2|2,0:0|0:0,0:0:0:0:
112,320,64450,2,0,P|68:284|112:240,1,135.000005149842,2|8,0:0|0:0,0:0:0:0:
176,240,64750,1,8,0:0:0:0:
360,240,64850,6,0,P|416:220|448:156,1,135.000005149842,4|8,0:0|0:0,0:0:0:0:
368,156,65150,1,8,0:0:0:0:
188,156,65250,1,6,0:0:0:0:
334,156,65450,1,2,0:0:0:0:
54,156,65650,1,2,0:0:0:0:
58,292,65850,1,8,0:0:0:0:
124,323,65950,1,8,0:0:0:0:
304,324,66050,1,4,0:0:0:0:
156,324,66250,2,0,L|212:324,1,56.25,8|8,0:0|0:0,0:0:0:0:
436,324,66450,6,0,P|404:264|340:240,1,135.000005149842,4|8,0:0|0:0,0:0:0:0:
268,240,66750,1,8,0:0:0:0:
80,240,66850,1,6,0:0:0:0:
204,240,67050,1,2,0:0:0:0:
487,240,67250,1,2,0:0:0:0:
439,212,67350,1,2,0:0:0:0:
391,184,67450,1,2,0:0:0:0:
204,240,67550,1,2,0:0:0:0:
156,212,67650,1,4,0:0:0:0:
108,184,67750,1,8,0:0:0:0:
292,240,67850,2,0,L|347:208,1,56.25,8|0,0:0|0:0,0:0:0:0:
156,212,68050,6,0,P|96:208|60:144,1,135.000005149842,4|8,0:0|0:0,0:0:0:0:
124,124,68350,1,8,0:0:0:0:
296,124,68450,2,0,L|172:124,1,112.5,6|10,0:0|0:0,0:0:0:0:
375,124,68850,1,2,0:0:0:0:
192,124,68950,2,0,L|72:124,1,112.5,2|0,0:0|0:0,0:0:0:0:
261,124,69250,2,0,L|265:68,1,56.25,4|8,0:0|0:0,0:0:0:0:
79,124,69450,2,0,L|48:77,1,56.25,8|8,0:0|0:0,0:0:0:0:
228,200,69650,6,0,B|396:200,1,168.75,4|0,0:0|0:0,0:0:0:0:
304,284,70050,2,0,L|208:284,1,90,2|2,0:0|0:0,0:0:0:0:
420,284,70450,2,0,L|428:228,1,45,2|2,0:0|0:0,0:0:0:0:
348,200,70650,1,8,0:0:0:0:
80,192,70850,2,0,L|28:192,1,45,4|8,0:0|0:0,0:0:0:0:
132,192,71150,1,8,0:0:0:0:
293,104,71250,6,0,L|433:104,1,135,4|2,0:0|0:0,0:0:0:0:
220,192,71750,2,0,L|168:192,1,45,0|0,0:0|0:0,0:0:0:0:
444,104,72050,1,2,0:0:0:0:
500,150,72150,1,0,0:0:0:0:
496,222,72250,1,4,0:0:0:0:
436,264,72350,1,0,0:0:0:0:
344,264,72450,1,8,0:0:0:0:
488,264,72650,1,8,0:0:0:0:
216,264,72850,6,0,L|112:264,1,90,2|0,0:0|0:0,0:0:0:0:
224,264,73150,1,0,0:0:0:0:
322,264,73250,2,0,L|418:264,1,90,2|0,0:0|0:0,0:0:0:0:
142,264,73650,1,4,0:0:0:0:
148,204,73750,1,0,0:0:0:0:
184,160,73850,1,0,0:0:0:0:
248,152,73950,1,0,0:0:0:0:
156,112,74050,2,0,L|64:112,1,90,8|0,0:0|0:0,0:0:0:0:
352,36,74450,6,0,L|400:36,1,45,2|0,0:0|0:0,0:0:0:0:
340,112,74650,2,0,L|292:112,1,45,0|0,0:0|0:0,0:0:0:0:
205,112,74850,2,0,L|297:112,1,90,2|0,0:0|0:0,0:0:0:0:
20,200,75250,2,0,L|137:132,2,135,4|0|2,0:0|0:0|0:0,0:0:0:0:
92,200,75950,1,2,0:0:0:0:
316,200,76050,6,0,L|412:200,1,90,2|2,0:0|0:0,0:0:0:0:
316,200,76350,1,0,0:0:0:0:
226,200,76450,1,2,0:0:0:0:
424,116,76650,2,0,L|428:64,1,45,8|8,0:0|0:0,0:0:0:0:
264,72,76850,2,0,L|168:72,1,90,4|8,0:0|0:0,0:0:0:0:
120,72,77150,1,2,0:0:0:0:
324,160,77450,1,2,0:0:0:0:
24,160,77650,5,12,0:0:0:0:
256,192,77850,12,0,79750,0:0:0:0:
