osu file format v14

[General]
AudioFilename: audio.mp3
AudioLeadIn: 0
PreviewTime: 6650
Countdown: 0
SampleSet: Soft
StackLeniency: 0.7
Mode: 2
LetterboxInBreaks: 0
WidescreenStoryboard: 1

[Editor]
Bookmarks: 7250,20050,32850,45650,58450,71250,79650
DistanceSpacing: 1.2
BeatDivisor: 4
GridSize: 8
TimelineZoom: 1

[Metadata]
Title:Streak
TitleUnicode:Streak
Artist:ARM
ArtistUnicode:ARM
Creator:JBHyperion
Version:Raiin's Cup
Source:HALFPIPE TOKYO
Tags:IOSYS Youhei Kimura 木村洋平 Joypolis Original Soundtrack OST SEGA maimai plus Raiin SangKrazFinale SangKrazF1nal3 WildOne94 Sinnoh Kukkai Salchow MBomb JBH
BeatmapID:1847247
BeatmapSetID:865565

[Difficulty]
HPDrainRate:3
CircleSize:2
OverallDifficulty:5.5
ApproachRate:5.5
SliderMultiplier:1
SliderTickRate:1

[Events]
//Background and Video events
0,0,"TechnoNeonPipe-thing.jpg",0,0
//Break Periods
//Storyboard Layer 0 (Background)
//Storyboard Layer 1 (Fail)
//Storyboard Layer 2 (Pass)
//Storyboard Layer 3 (Foreground)
//Storyboard Sound Samples

[TimingPoints]
2450,400,4,2,0,10,1,0
2850,-100,4,2,0,15,0,0
3250,-100,4,2,0,20,0,0
3650,-100,4,2,0,25,0,0
4050,-100,4,2,0,40,0,0
4450,-100,4,2,0,35,0,0
4850,-100,4,2,0,40,0,0
5250,-100,4,2,0,45,0,0
5650,-100,4,2,0,50,0,0
6050,-100,4,2,0,55,0,0
6450,-100,4,3,1,60,0,0
6750,-100,4,3,1,20,0,0
6850,-100,4,3,1,45,0,0
7250,-100,4,2,2,60,0,0
7350,-100,4,2,1,60,0,0
12050,-100,4,2,77,60,0,0
12850,-100,4,2,1,60,0,0
13650,-100,4,2,2,60,0,0
13850,-100,4,2,1,60,0,0
16850,-100,4,2,2,60,0,0
18450,-100,4,3,1,30,0,0
19250,-100,4,2,1,60,0,0
19550,-100,4,2,2,70,0,0
19650,-100,4,2,1,70,0,0
20250,-100,4,2,1,60,0,0
20850,-100,4,2,77,60,0,0
21050,-100,4,2,77,40,0,0
21250,-100,4,2,1,60,0,0
21650,-100,4,2,77,60,0,0
21850,-100,4,2,1,60,0,0
23650,-100,4,2,77,60,0,0
23850,-100,4,2,0,60,0,0
24150,-100,4,2,1,60,0,0
24450,-100,4,2,77,40,0,0
24650,-100,4,2,1,60,0,0
24850,-100,4,2,2,50,0,0
25050,-100,4,2,1,60,0,0
25650,-100,4,2,0,60,0,0
25750,-100,4,2,1,60,0,0
26450,-100,4,2,77,60,0,0
26650,-100,4,2,1,60,0,0
27250,-100,4,2,77,60,0,0
27450,-100,4,2,77,40,0,0
27650,-100,4,2,1,60,0,0
28050,-100,4,2,77,60,0,0
28250,-100,4,2,1,60,0,0
30050,-100,4,2,77,60,0,0
30250,-100,4,2,0,60,0,0
30550,-100,4,2,1,60,0,0
30850,-100,4,2,77,60,0,0
31050,-100,4,2,1,60,0,0
31250,-100,4,2,77,50,0,0
31650,-100,4,2,1,50,0,0
32050,-100,4,2,77,30,0,0
32450,-100,4,2,1,50,0,0
32583,-100,4,2,77,40,0,0
32850,-100,4,2,2,50,0,0
33050,-100,4,2,1,50,0,0
33650,-100,4,2,77,50,0,0
33850,-100,4,2,77,40,0,0
34050,-100,4,2,1,60,0,0
34450,-100,4,2,77,60,0,0
34650,-100,4,2,1,60,0,0
36450,-100,4,2,77,60,0,0
36750,-100,4,2,1,40,0,0
36850,-100,4,2,0,60,0,0
37150,-100,4,2,1,40,0,0
37250,-100,4,2,77,40,0,0
37550,-100,4,2,1,40,0,0
37650,-100,4,2,2,50,0,0
37850,-100,4,2,1,60,0,0
38450,-100,4,2,0,60,0,0
38550,-100,4,2,1,60,0,0
39250,-100,4,2,77,60,0,0
39450,-100,4,2,1,60,0,0
40050,-100,4,2,77,60,0,0
40250,-100,4,2,77,40,0,0
40450,-100,4,2,1,60,0,0
40850,-100,4,2,77,60,0,0
41050,-100,4,2,1,60,0,0
43250,-100,4,2,0,60,0,0
43350,-100,4,2,1,60,0,0
43650,-100,4,2,0,50,0,0
44350,-100,4,2,1,30,0,0
45650,-100,4,2,99,70,0,1
45950,-100,4,2,1,70,0,1
46450,-100,4,2,0,90,0,1
46550,-100,4,2,1,70,0,1
46850,-100,4,2,77,50,0,1
47250,-100,4,2,1,70,0,1
48050,-100,4,2,4,70,0,1
48850,-100,4,2,1,70,0,1
50450,-100,4,3,2,70,0,0
50650,-100,4,2,1,50,0,0
51050,-100,4,3,2,70,0,0
51150,-100,4,2,1,50,0,0
51650,-100,4,2,1,70,0,0
52050,-100,4,2,2,90,0,1
52350,-100,4,2,1,70,0,1
52850,-100,4,2,0,90,0,1
52950,-100,4,2,1,70,0,1
53250,-100,4,2,77,50,0,1
53550,-100,4,2,1,70,0,1
54450,-100,4,2,4,70,0,1
55250,-100,4,3,2,90,0,1
55450,-100,4,2,1,70,0,1
56050,-100,4,2,77,40,0,1
56450,-100,4,2,1,60,0,1
56583,-100,4,2,77,50,0,1
56850,-100,4,2,2,60,0,0
57050,-100,4,2,0,80,0,0
57350,-100,4,2,2,20,0,0
57450,-100,4,2,2,60,0,0
57850,-100,4,2,1,40,0,0
58050,-100,4,2,0,50,0,0
58150,-100,4,2,1,70,0,0
58250,-100,4,2,0,60,0,0
58350,-100,4,2,1,80,0,0
58450,-100,4,2,2,70,0,1
58650,-100,4,2,1,70,0,1
58850,-100,4,2,4,70,0,1
59850,-100,4,2,1,70,0,1
60050,-100,4,2,2,70,0,1
60250,-100,4,2,1,70,0,1
60450,-100,4,2,4,70,0,1
60950,-100,4,2,0,50,0,1
61150,-100,4,2,4,70,0,1
61650,-100,4,2,2,70,0,1
61850,-100,4,2,1,70,0,1
62050,-100,4,2,4,70,0,1
62550,-100,4,2,4,50,0,1
62750,-100,4,2,4,70,0,1
63250,-100,4,2,2,70,0,1
63550,-100,4,2,1,70,0,1
64050,-100,4,2,0,70,0,1
64150,-100,4,2,1,70,0,1
64450,-100,4,2,4,80,0,1
64750,-100,4,2,1,60,0,0
64850,-100,4,2,2,70,0,1
65050,-100,4,2,1,70,0,1
65250,-100,4,2,4,70,0,1
66250,-100,4,2,1,70,0,1
66450,-100,4,2,2,80,0,1
66650,-100,4,2,1,70,0,1
66850,-100,4,2,4,70,0,1
67350,-100,4,2,0,50,0,1
67550,-100,4,2,4,70,0,1
68050,-100,4,2,2,70,0,1
68250,-100,4,2,1,70,0,1
68450,-100,4,2,4,70,0,1
68950,-100,4,2,4,50,0,1
69150,-100,4,2,4,70,0,1
69650,-100,4,2,2,70,0,0
69950,-100,4,2,4,60,0,0
70950,-100,4,2,1,60,0,0
71250,-100,4,2,2,70,0,0
71450,-100,4,2,1,60,0,0
71650,-100,4,2,0,60,0,0
71750,-100,4,2,1,60,0,0
72050,-100,4,2,77,70,0,0
72250,-100,4,2,77,50,0,0
72450,-100,4,2,1,60,0,0
72850,-100,4,2,77,70,0,0
73650,-100,4,2,1,60,0,0
74450,-100,4,2,77,70,0,0
75250,-100,4,2,1,60,0,0
76050,-100,4,2,0,60,0,0
76250,-100,4,2,1,60,0,0
77150,-100,4,2,0,60,0,0
77450,-100,4,2,1,60,0,0
77650,-100,4,2,2,70,0,0
78050,-100,4,2,0,70,0,0
78450,-100,4,2,0,60,0,0
78850,-100,4,2,0,50,0,0
79250,-100,4,2,0,40,0,0
79650,-100,4,2,0,30,0,0

[Colours]
Combo1 : 175,75,255
Combo2 : 255,75,75
Combo3 : 255,175,75
Combo4 : 255,255,75
Combo5 : 75,255,75
Combo6 : 75,255,255
Combo7 : 75,175,255
Combo8 : 125,125,255

[HitObjects]
256,192,2450,12,4,6450,0:0:0:0:
360,192,6850,5,0,0:0:0:0:
224,192,7250,6,0,L|120:192,1,100,4|2,0:0|0:0,0:0:0:0:
64,104,8050,2,0,L|168:104,1,100,8|2,0:0|0:0,0:0:0:0:
288,112,8850,6,0,L|392:112,2,100,8|8|4,0:0|0:0|0:0,0:0:0:0:
192,112,10050,1,2,0:0:0:0:
80,112,10450,6,0,L|96:216,1,100,8|8,0:0|0:0,0:0:0:0:
144,312,11250,1,4,0:0:0:0:
240,312,11650,1,2,0:0:0:0:
336,320,12050,6,0,L|352:216,1,100,10|2,0:0|0:0,0:0:0:0:
400,120,12850,1,4,0:0:0:0:
304,120,13250,1,0,0:0:0:0:
144,120,13650,6,0,L|176:320,1,200
292,316,14850,1,0,0:0:0:0:
408,320,15250,6,0,L|440:120,1,200
256,192,16850,12,8,19250,0:0:0:0:
304,240,19650,5,4,0:0:0:0:
144,240,20050,5,4,0:0:0:0:
104,152,20450,1,4,0:0:0:0:
256,136,20850,2,8,L|360:136,1,100,2|4,0:0|0:0,0:0:0:0:
408,136,21450,1,0,0:0:0:0:
456,136,21650,5,2,0:0:0:0:
408,224,22050,1,4,0:0:0:0:
312,224,22450,2,0,L|208:224,1,100,10|4,0:0|0:0,0:0:0:0:
160,224,23050,1,0,0:0:0:0:
212,224,23250,5,8,0:0:0:0:
312,224,23650,1,2,0:0:0:0:
408,224,24050,2,0,L|392:120,1,100,2|12,0:0|0:0,0:0:0:0:
384,80,24650,1,0,0:0:0:0:
320,80,24850,5,4,0:0:0:0:
240,80,25250,2,8,L|136:80,1,100,4|2,0:0|0:0,0:0:0:0:
72,80,25850,1,2,0:0:0:0:
140,80,26050,1,4,0:0:0:0:
40,200,26450,5,2,0:0:0:0:
96,296,26850,1,4,0:0:0:0:
224,296,27250,2,0,L|328:296,1,100,2|4,0:0|0:0,0:0:0:0:
376,296,27850,1,0,0:0:0:0:
424,296,28050,5,2,0:0:0:0:
392,200,28450,1,4,0:0:0:0:
296,200,28850,2,0,L|192:200,1,100,10|4,0:0|0:0,0:0:0:0:
144,200,29450,1,0,0:0:0:0:
96,200,29650,6,0,L|80:96,1,100,8|2,0:0|0:0,0:0:0:0:
184,104,30450,1,2,0:0:0:0:
280,104,30850,1,4,0:0:0:0:
152,104,31250,5,2,0:0:0:0:
120,200,31650,1,2,0:0:0:0:
96,296,32050,2,0,L|200:296,1,100,0|4,0:0|0:0,0:0:0:0:
328,296,32850,5,4,0:0:0:0:
392,248,33250,1,4,0:0:0:0:
456,200,33650,2,0,L|352:200,1,100,2|4,0:0|0:0,0:0:0:0:
304,200,34250,1,0,0:0:0:0:
256,200,34450,5,2,0:0:0:0:
184,296,34850,1,8,0:0:0:0:
264,296,35250,2,0,L|360:240,1,100,10|4,0:0|0:0,0:0:0:0:
296,220,35850,1,0,0:0:0:0:
240,192,36050,5,8,0:0:0:0:
352,192,36450,1,2,0:0:0:0:
240,192,36850,2,8,L|136:192,1,100,2|12,0:0|0:0,0:0:0:0:
88,192,37450,1,0,0:0:0:0:
24,192,37650,5,4,0:0:0:0:
152,192,38050,2,8,L|256:192,2,100,4|2|6,0:0|0:0|0:0,0:0:0:0:
104,192,39050,1,0,0:0:0:0:
56,192,39250,5,2,0:0:0:0:
88,288,39650,1,4,0:0:0:0:
184,288,40050,2,0,L|288:288,1,100,2|4,0:0|0:0,0:0:0:0:
336,288,40650,1,2,0:0:0:0:
384,288,40850,5,2,0:0:0:0:
320,192,41250,1,4,0:0:0:0:
224,192,41650,2,0,L|208:296,1,100,10|4,0:0|0:0,0:0:0:0:
280,292,42250,1,0,0:0:0:0:
348,292,42450,6,0,L|244:292,1,100,8|4,0:0|0:0,0:0:0:0:
144,288,43250,2,0,L|160:184,1,100,2|2,0:0|0:0,0:0:0:0:
272,192,44050,5,2,0:0:0:0:
384,192,44450,2,0,L|280:192,1,100
216,192,45050,1,10,0:0:0:0:
192,136,45250,1,4,0:0:0:0:
352,136,45650,6,0,L|504:136,2,150,12|2|6,0:0|0:0|0:0,0:0:0:0:
224,136,47250,6,0,L|240:240,1,100
392,136,48050,1,10,0:0:0:0:
392,232,48450,1,6,0:0:0:0:
296,232,48850,6,0,L|192:232,1,100,10|6,0:0|0:0,0:0:0:0:
144,232,49450,1,0,0:0:0:0:
96,232,49650,2,0,L|200:232,1,100,10|6,0:0|0:0,0:0:0:0:
296,232,50450,5,4,0:0:0:0:
144,232,51050,1,4,0:0:0:0:
296,232,51650,1,4,0:0:0:0:
456,232,52050,6,0,L|440:120,1,100,4|4,0:0|0:0,0:0:0:0:
384,136,52650,1,2,0:0:0:0:
320,136,52850,2,0,L|216:136,1,100,0|4,0:0|0:0,0:0:0:0:
80,136,53650,6,0,L|64:240,1,100,2|4,0:0|0:0,0:0:0:0:
192,232,54450,1,10,0:0:0:0:
48,232,54850,1,6,0:0:0:0:
192,336,55250,6,0,L|192:280,1,50,4|0,0:0|0:0,0:0:0:0:
248,288,55650,2,0,L|248:232,1,50,4|0,0:0|0:0,0:0:0:0:
304,192,56050,2,0,L|200:192,1,100,2|4,0:0|0:0,0:0:0:0:
352,192,56850,6,0,L|504:192,2,150
256,192,58450,5,4,0:0:0:0:
352,192,58850,1,6,0:0:0:0:
256,192,59250,2,0,L|248:80,1,100,2|8,0:0|0:0,0:0:0:0:
88,120,60050,5,4,0:0:0:0:
56,216,60450,1,6,0:0:0:0:
184,216,60850,1,2,0:0:0:0:
312,216,61250,1,2,0:0:0:0:
168,216,61650,5,4,0:0:0:0:
200,120,62050,1,6,0:0:0:0:
104,112,62450,2,0,L|96:56,2,50,2|0|4,0:0|0:0|0:0,0:0:0:0:
224,120,63250,6,0,L|208:224,1,100,4|8,0:0|0:0,0:0:0:0:
152,264,63850,1,4,0:0:0:0:
264,264,64050,2,0,L|368:264,1,100,2|2,0:0|0:0,0:0:0:0:
216,264,64850,6,0,L|112:264,1,100,4|6,0:0|0:0,0:0:0:0:
64,264,65450,1,2,0:0:0:0:
16,264,65650,2,0,L|120:264,1,100,2|0,0:0|0:0,0:0:0:0:
248,264,66450,5,4,0:0:0:0:
416,264,66850,2,0,L|312:264,2,100,6|2|0,0:0|0:0|0:0,0:0:0:0:
256,264,68050,5,4,0:0:0:0:
160,264,68450,2,0,L|56:264,2,100,6|2|4,0:0|0:0|0:0,0:0:0:0:
256,264,69650,5,4,0:0:0:0:
352,264,70050,2,2,L|336:160,1,100,0|0,0:0|0:0,0:0:0:0:
288,160,70650,1,8,0:0:0:0:
240,160,70850,1,4,0:0:0:0:
88,160,71250,6,0,L|72:264,1,100,4|2,0:0|0:0,0:0:0:0:
232,264,72050,2,0,L|216:160,1,100,2|0,0:0|0:0,0:0:0:0:
320,160,72850,5,2,0:0:0:0:
336,256,73250,1,2,0:0:0:0:
240,256,73650,2,0,L|136:256,1,100,4|0,0:0|0:0,0:0:0:0:
40,256,74450,6,0,L|144:256,3,100,2|2|4|0,0:0|0:0|0:0|0:0,0:0:0:0:
240,256,76050,6,0,L|344:256,3,100,2|2|4|0,0:0|0:0|0:0|0:0,0:0:0:0:
200,256,77650,5,12,0:0:0:0:
256,192,78050,12,0,79750,0:0:0:0:
