osu file format v14

[General]
AudioFilename: audio.mp3
AudioLeadIn: 0
PreviewTime: 6650
Countdown: 0
SampleSet: Soft
StackLeniency: 0.7
Mode: 2
LetterboxInBreaks: 0
WidescreenStoryboard: 0

[Editor]
Bookmarks: 7250,20050,32850,58450,71250,79650
DistanceSpacing: 1.2
BeatDivisor: 8
GridSize: 8
TimelineZoom: 1.5

[Metadata]
Title:Streak
TitleUnicode:Streak
Artist:ARM
ArtistUnicode:ARM
Creator:JBHyperion
Version:MBomb's Overdose
Source:HALFPIPE TOKYO
Tags:IOSYS Youhei Kimura 木村洋平 Joypolis Original Soundtrack OST SEGA maimai plus Raiin SangKrazFinale SangKrazF1nal3 WildOne94 Sinnoh Kukkai Salchow MBomb JBH
BeatmapID:1847246
BeatmapSetID:865565

[Difficulty]
HPDrainRate:6
CircleSize:3
OverallDifficulty:9.5
ApproachRate:9.5
SliderMultiplier:1.87
SliderTickRate:1

[Events]
//Background and Video events
0,0,"TechnoNeonPipe-thing.jpg",0,0
//Break Periods
//Storyboard Layer 0 (Background)
//Storyboard Layer 1 (Fail)
//Storyboard Layer 2 (Pass)
//Storyboard Layer 3 (Foreground)
//Storyboard Sound Samples

[TimingPoints]
2450,400,4,2,0,10,1,0
2850,-100,4,2,0,15,0,0
3250,-100,4,2,0,20,0,0
3650,-100,4,2,0,25,0,0
4050,-100,4,2,0,40,0,0
4450,-100,4,2,0,35,0,0
4850,-100,4,2,0,40,0,0
5250,-100,4,2,0,45,0,0
5650,-100,4,2,0,50,0,0
6050,-100,4,2,0,55,0,0
6450,-100,4,3,1,60,0,0
6750,-100,4,3,1,20,0,0
6850,-100,4,3,1,45,0,0
7250,-100,4,2,2,60,0,0
7350,-100,4,2,1,60,0,0
12050,-100,4,2,77,60,0,0
12850,-100,4,2,1,60,0,0
13650,-100,4,2,2,60,0,0
13850,-100,4,2,1,60,0,0
16850,-100,4,2,2,60,0,0
18450,-100,4,3,1,30,0,0
19250,-100,4,2,1,60,0,0
19550,-100,4,2,2,70,0,0
19650,-100,4,2,1,70,0,0
20250,-100,4,2,1,60,0,0
20850,-100,4,2,77,60,0,0
21050,-100,4,2,77,40,0,0
21250,-100,4,2,1,60,0,0
21650,-100,4,2,77,60,0,0
21850,-100,4,2,1,60,0,0
23650,-100,4,2,77,60,0,0
23850,-100,4,2,0,60,0,0
24150,-100,4,2,1,60,0,0
24450,-50,4,2,77,40,0,0
24650,-50,4,2,1,60,0,0
24850,-100,4,2,2,50,0,0
25050,-100,4,2,1,60,0,0
25650,-100,4,2,0,60,0,0
25750,-100,4,2,1,60,0,0
26450,-100,4,2,77,60,0,0
26650,-100,4,2,1,60,0,0
27250,-100,4,2,77,60,0,0
27450,-100,4,2,77,40,0,0
27650,-100,4,2,1,60,0,0
28050,-100,4,2,77,60,0,0
28250,-100,4,2,1,60,0,0
30050,-58.8235294117647,4,2,77,60,0,0
30250,-58.8235294117647,4,2,0,60,0,0
30550,-58.8235294117647,4,2,1,60,0,0
30850,-50,4,2,77,60,0,0
31050,-50,4,2,1,60,0,0
31250,-100,4,2,77,50,0,0
31650,-100,4,2,1,50,0,0
32050,-100,4,2,77,30,0,0
32450,-100,4,2,1,50,0,0
32583,-100,4,2,77,40,0,0
32850,-100,4,2,2,50,0,0
33050,-100,4,2,1,50,0,0
33650,-100,4,2,77,50,0,0
33850,-100,4,2,77,40,0,0
34050,-100,4,2,1,60,0,0
34450,-100,4,2,77,60,0,0
34650,-100,4,2,1,60,0,0
36450,-100,4,2,77,60,0,0
36750,-100,4,2,1,40,0,0
36850,-100,4,2,0,60,0,0
37150,-100,4,2,1,40,0,0
37250,-50,4,2,77,40,0,0
37550,-50,4,2,1,40,0,0
37650,-100,4,2,2,50,0,0
37850,-100,4,2,1,60,0,0
38450,-100,4,2,0,60,0,0
38550,-100,4,2,1,60,0,0
39250,-100,4,2,77,60,0,0
39450,-100,4,2,1,60,0,0
40050,-100,4,2,77,60,0,0
40250,-100,4,2,77,40,0,0
40450,-100,4,2,1,60,0,0
40850,-100,4,2,77,60,0,0
41050,-100,4,2,1,60,0,0
43250,-100,4,2,0,60,0,0
43350,-100,4,2,1,60,0,0
43650,-100,4,2,0,50,0,0
44350,-100,4,2,1,30,0,0
45650,-100,4,2,99,70,0,1
45950,-100,4,2,1,70,0,1
46450,-100,4,2,0,90,0,1
46550,-100,4,2,1,70,0,1
46850,-100,4,2,77,50,0,1
47250,-100,4,2,1,70,0,1
48050,-100,4,2,4,70,0,1
48850,-100,4,2,1,70,0,1
50450,-100,4,3,2,70,0,0
50650,-100,4,2,1,50,0,0
51050,-100,4,3,2,70,0,0
51150,-100,4,2,1,50,0,0
51650,-50,4,2,1,70,0,0
52050,-100,4,2,2,90,0,1
52350,-100,4,2,1,70,0,1
52850,-100,4,2,0,90,0,1
52950,-100,4,2,1,70,0,1
53250,-100,4,2,77,50,0,1
53550,-100,4,2,1,70,0,1
54450,-100,4,2,4,70,0,1
55250,-100,4,3,2,90,0,1
55450,-100,4,2,1,70,0,1
56050,-100,4,2,77,40,0,1
56450,-100,4,2,1,60,0,1
56583,-100,4,2,77,50,0,1
56850,-100,4,2,2,60,0,0
57050,-100,4,2,0,80,0,0
57350,-100,4,2,2,20,0,0
57450,-100,4,2,2,60,0,0
57850,-100,4,2,1,40,0,0
58050,-100,4,2,0,50,0,0
58150,-100,4,2,1,70,0,0
58250,-100,4,2,0,60,0,0
58350,-100,4,2,1,80,0,0
58450,-58.8235294117647,4,2,2,70,0,1
58650,-58.8235294117647,4,2,1,70,0,1
58850,-100,4,2,4,70,0,1
59850,-100,4,2,1,70,0,1
60050,-50,4,2,2,70,0,1
60250,-50,4,2,1,70,0,1
60450,-100,4,2,4,70,0,1
60950,-100,4,2,0,50,0,1
61150,-100,4,2,4,70,0,1
61650,-58.8235294117647,4,2,2,70,0,1
61850,-58.8235294117647,4,2,1,70,0,1
62050,-100,4,2,4,70,0,1
62550,-100,4,2,4,50,0,1
62750,-100,4,2,4,70,0,1
63250,-58.8235294117647,4,2,2,70,0,1
63550,-58.8235294117647,4,2,1,70,0,1
63650,-100,4,2,1,70,0,1
64050,-100,4,2,0,70,0,1
64150,-100,4,2,1,70,0,1
64450,-100,4,2,4,80,0,1
64750,-100,4,2,1,60,0,0
64850,-58.8235294117647,4,2,2,70,0,1
65050,-58.8235294117647,4,2,1,70,0,1
65250,-58.8235294117647,4,2,4,70,0,1
66250,-58.8235294117647,4,2,1,70,0,1
66450,-50,4,2,2,80,0,1
66650,-50,4,2,1,70,0,1
66850,-100,4,2,4,70,0,1
67350,-100,4,2,0,50,0,1
67550,-100,4,2,4,70,0,1
67850,-72.992700729927,4,2,4,70,0,1
68050,-58.8235294117647,4,2,2,70,0,1
68250,-58.8235294117647,4,2,1,70,0,1
68450,-100,4,2,4,70,0,1
68950,-100,4,2,4,50,0,1
69150,-100,4,2,4,70,0,1
69650,-100,4,2,2,70,0,0
69950,-100,4,2,4,60,0,0
70950,-100,4,2,1,60,0,0
71250,-100,4,2,2,70,0,0
71450,-100,4,2,1,60,0,0
71650,-100,4,2,0,60,0,0
71750,-100,4,2,1,60,0,0
72050,-100,4,2,77,70,0,0
72250,-100,4,2,77,50,0,0
72450,-100,4,2,1,60,0,0
72850,-100,4,2,77,70,0,0
73650,-100,4,2,1,60,0,0
74450,-100,4,2,77,70,0,0
75250,-100,4,2,1,60,0,0
76050,-100,4,2,0,60,0,0
76250,-100,4,2,1,60,0,0
77150,-100,4,2,0,60,0,0
77450,-100,4,2,1,60,0,0
77650,-100,4,2,2,70,0,0
78050,-100,4,2,0,70,0,0
78450,-100,4,2,0,60,0,0
78850,-100,4,2,0,50,0,0
79250,-100,4,2,0,40,0,0
79650,-100,4,2,0,30,0,0

[Colours]
Combo1 : 175,75,255
Combo2 : 255,75,75
Combo3 : 255,175,75
Combo4 : 255,255,75
Combo5 : 75,255,75
Combo6 : 75,255,255
Combo7 : 75,175,255
Combo8 : 125,125,255

[HitObjects]
256,192,2450,12,0,6250,0:0:0:0:
152,192,6450,6,0,L|152:48,1,140.25,4|0,0:0|0:0,0:0:0:0:
432,192,6850,2,0,L|432:96,1,93.5,2|0,0:0|0:0,0:0:0:0:
160,192,7250,6,0,P|104:168|88:128,1,93.5,4|0,0:0|0:0,0:0:0:0:
224,192,7550,2,0,L|344:192,1,93.5
192,192,7850,2,0,L|240:192,1,46.75
440,192,8050,2,0,L|328:192,1,93.5,8|0,0:0|0:0,0:0:0:0:
472,192,8350,2,0,L|472:88,1,93.5,0|0,0:0|0:0,0:0:0:0:
336,192,8650,1,0,0:0:0:0:
128,192,8850,6,0,L|192:104,1,93.5,8|0,0:0|0:0,0:0:0:0:
392,192,9250,2,0,L|328:104,1,93.5,8|0,0:0|0:0,0:0:0:0:
32,192,9650,2,0,L|128:192,1,93.5,4|0,0:0|0:0,0:0:0:0:
248,192,9950,2,0,L|136:192,1,93.5,0|2,0:0|0:0,0:0:0:0:
32,192,10250,1,2,0:0:0:0:
360,192,10450,5,8,0:0:0:0:
406,192,10550,1,0,0:0:0:0:
410,192,10650,1,0,0:0:0:0:
363,192,10750,1,0,0:0:0:0:
176,192,10850,1,8,0:0:0:0:
384,192,11050,1,0,0:0:0:0:
48,192,11250,2,0,L|136:152,1,93.5,4|0,0:0|0:0,0:0:0:0:
336,192,11550,2,0,L|192:192,1,140.25,0|2,0:0|0:0,0:0:0:0:
505,192,12050,5,10,0:0:0:0:
336,192,12150,1,0,0:0:0:0:
171,193,12250,1,2,0:0:0:0:
6,194,12350,1,0,0:0:0:0:
208,192,12450,1,2,0:0:0:0:
376,192,12550,1,0,0:0:0:0:
208,192,12650,1,10,0:0:0:0:
376,192,12750,1,8,0:0:0:0:
171,193,12850,1,4,0:0:0:0:
112,192,12950,1,0,0:0:0:0:
240,192,13050,1,8,0:0:0:0:
299,191,13150,1,2,0:0:0:0:
72,192,13250,2,0,B|24:192|24:192|72:192,1,93.5,0|2,0:0|0:0,0:0:0:0:
144,192,13550,1,0,0:0:0:0:
352,192,13650,5,4,0:0:0:0:
176,192,13850,1,0,0:0:0:0:
352,192,14050,1,2,0:0:0:0:
400,192,14100,1,0,0:0:0:0:
400,192,14150,1,0,0:0:0:0:
352,192,14200,1,0,0:0:0:0:
304,192,14250,1,8,0:0:0:0:
256,192,14300,1,0,0:0:0:0:
256,192,14350,1,0,0:0:0:0:
304,192,14400,1,0,0:0:0:0:
456,192,14450,2,0,P|488:160|448:136,1,93.5,4|0,0:0|0:0,0:0:0:0:
256,192,14750,2,0,L|152:192,1,93.5,2|0,0:0|0:0,0:0:0:0:
232,192,15050,1,2,0:0:0:0:
424,192,15250,5,8,0:0:0:0:
232,192,15450,1,0,0:0:0:0:
408,192,15650,1,2,0:0:0:0:
447,195,15700,1,0,0:0:0:0:
481,177,15750,1,0,0:0:0:0:
501,143,15800,1,0,0:0:0:0:
500,104,15850,1,8,0:0:0:0:
478,72,15900,1,0,0:0:0:0:
443,56,15950,1,0,0:0:0:0:
404,61,16000,1,0,0:0:0:0:
264,192,16050,2,0,P|214:185|184:136,1,93.5,4|0,0:0|0:0,0:0:0:0:
368,192,16350,2,0,L|464:192,1,93.5,2|0,0:0|0:0,0:0:0:0:
400,192,16650,1,2,0:0:0:0:
312,192,16750,1,2,0:0:0:0:
104,192,16850,5,12,0:0:0:0:
65,195,16900,1,0,0:0:0:0:
31,177,16950,1,0,0:0:0:0:
11,143,17000,1,0,0:0:0:0:
12,104,17050,1,0,0:0:0:0:
34,72,17100,1,0,0:0:0:0:
69,56,17150,1,0,0:0:0:0:
108,61,17200,1,0,0:0:0:0:
256,192,17250,2,0,L|288:192,4,23.375
112,192,17500,1,0,0:0:0:0:
72,192,17550,1,0,0:0:0:0:
112,192,17600,1,0,0:0:0:0:
256,192,17650,5,12,0:0:0:0:
295,193,17700,1,0,0:0:0:0:
335,188,17750,1,0,0:0:0:0:
373,177,17800,1,0,0:0:0:0:
408,159,17850,1,0,0:0:0:0:
440,136,17900,1,0,0:0:0:0:
468,107,17950,1,0,0:0:0:0:
490,74,18000,1,0,0:0:0:0:
352,192,18050,1,0,0:0:0:0:
313,183,18100,1,0,0:0:0:0:
278,165,18150,1,0,0:0:0:0:
250,136,18200,1,0,0:0:0:0:
231,102,18250,1,0,0:0:0:0:
223,63,18300,1,0,0:0:0:0:
352,192,18350,1,0,0:0:0:0:
392,192,18400,1,0,0:0:0:0:
160,192,18450,5,8,0:0:0:0:
126,183,18500,1,8,0:0:0:0:
102,163,18550,1,8,0:0:0:0:
130,143,18600,1,8,0:0:0:0:
164,133,18650,1,8,0:0:0:0:
198,125,18700,1,8,0:0:0:0:
233,120,18750,1,8,0:0:0:0:
268,117,18800,1,8,0:0:0:0:
303,115,18850,1,8,0:0:0:0:
338,116,18900,1,8,0:0:0:0:
368,120,18950,1,8,0:0:0:0:
392,128,19000,1,8,0:0:0:0:
416,144,19050,1,8,0:0:0:0:
408,168,19100,1,8,0:0:0:0:
376,184,19150,1,8,0:0:0:0:
336,192,19200,1,8,0:0:0:0:
184,192,19250,5,8,0:0:0:0:
496,192,19650,1,4,0:0:0:0:
24,192,20050,6,0,L|24:96,1,93.5,4|0,0:0|0:0,0:0:0:0:
312,192,20450,2,0,L|312:96,1,93.5,4|0,0:0|0:0,0:0:0:0:
120,192,20850,2,0,L|192:192,1,46.75,2|0,0:0|0:0,0:0:0:0:
392,192,21050,2,0,L|320:192,1,46.75,4|0,0:0|0:0,0:0:0:0:
166,192,21250,1,4,0:0:0:0:
360,192,21450,1,2,0:0:0:0:
16,192,21650,6,0,L|136:192,1,93.5,2|0,0:0|0:0,0:0:0:0:
376,192,22050,2,0,L|240:192,1,93.5,4|0,0:0|0:0,0:0:0:0:
488,192,22450,1,10,0:0:0:0:
424,192,22550,1,2,0:0:0:0:
360,192,22650,1,10,0:0:0:0:
296,192,22750,1,2,0:0:0:0:
464,192,22850,1,4,0:0:0:0:
272,192,23050,1,2,0:0:0:0:
464,192,23250,5,8,0:0:0:0:
485,182,23300,1,0,0:0:0:0:
500,165,23350,1,0,0:0:0:0:
505,142,23400,1,0,0:0:0:0:
496,121,23450,1,2,0:0:0:0:
478,107,23500,1,0,0:0:0:0:
456,99,23550,1,8,0:0:0:0:
216,192,23650,2,0,L|64:192,1,140.25,2|0,0:0|0:0,0:0:0:0:
304,192,24050,2,0,L|472:192,1,140.25,2|0,0:0|0:0,0:0:0:0:
200,192,24450,2,0,L|480:192,1,280.5,12|0,0:0|0:0,0:0:0:0:
232,192,24850,6,0,P|176:168|152:120,1,93.5,4|0,0:0|0:0,0:0:0:0:
232,192,25150,1,8,0:0:0:0:
400,192,25250,1,4,0:0:0:0:
216,192,25450,1,8,0:0:0:0:
424,192,25650,2,0,L|344:192,1,46.75,2|2,0:0|0:0,0:0:0:0:
184,192,25850,2,0,L|120:192,1,46.75,2|2,0:0|0:0,0:0:0:0:
336,192,26050,2,0,L|336:128,1,46.75,4|2,0:0|0:0,0:0:0:0:
208,192,26250,2,0,L|208:120,1,46.75,10|2,0:0|0:0,0:0:0:0:
488,192,26450,6,0,L|384:192,1,93.5,2|0,0:0|0:0,0:0:0:0:
104,192,26850,2,0,L|232:192,1,93.5,4|0,0:0|0:0,0:0:0:0:
384,192,27250,2,0,L|384:144,1,46.75,2|0,0:0|0:0,0:0:0:0:
197,192,27450,2,0,L|197:144,1,46.75,4|0,0:0|0:0,0:0:0:0:
400,192,27650,1,4,0:0:0:0:
208,192,27850,1,2,0:0:0:0:
480,192,28050,6,0,L|480:96,1,93.5,2|0,0:0|0:0,0:0:0:0:
208,192,28450,2,0,L|208:88,1,93.5,4|0,0:0|0:0,0:0:0:0:
400,192,28850,1,10,0:0:0:0:
336,192,28950,1,2,0:0:0:0:
400,192,29050,1,10,0:0:0:0:
336,192,29150,1,2,0:0:0:0:
168,192,29250,1,4,0:0:0:0:
360,192,29450,1,0,0:0:0:0:
168,192,29650,5,8,0:0:0:0:
128,188,29700,1,0,0:0:0:0:
89,180,29750,1,0,0:0:0:0:
52,165,29800,1,0,0:0:0:0:
22,140,29850,1,2,0:0:0:0:
18,102,29900,1,0,0:0:0:0:
47,76,29950,1,8,0:0:0:0:
84,61,30000,1,0,0:0:0:0:
256,192,30050,2,0,P|336:160|248:88,1,238.425004547596,2|0,0:0|0:0,0:0:0:0:
120,192,30450,1,2,0:0:0:0:
48,192,30550,1,2,0:0:0:0:
120,192,30650,1,2,0:0:0:0:
200,192,30750,1,0,0:0:0:0:
384,192,30850,2,0,L|104:192,1,280.5,4|0,0:0|0:0,0:0:0:0:
384,192,31250,5,2,0:0:0:0:
128,192,31650,1,2,0:0:0:0:
384,192,32050,1,2,0:0:0:0:
456,192,32183,1,2,0:0:0:0:
384,192,32316,1,2,0:0:0:0:
128,192,32450,1,4,0:0:0:0:
200,192,32583,1,2,0:0:0:0:
128,192,32716,1,2,0:0:0:0:
432,192,32850,6,0,L|320:192,1,93.5,4|0,0:0|0:0,0:0:0:0:
56,192,33250,2,0,L|152:192,1,93.5,4|0,0:0|0:0,0:0:0:0:
352,192,33650,2,0,L|280:192,1,46.75,2|0,0:0|0:0,0:0:0:0:
128,192,33850,2,0,L|81:192,1,46.75,4|0,0:0|0:0,0:0:0:0:
248,192,34050,1,4,0:0:0:0:
48,192,34250,1,2,0:0:0:0:
320,192,34450,6,0,L|192:192,1,93.5,2|0,0:0|0:0,0:0:0:0:
496,192,34850,2,0,L|384:192,1,93.5,8|0,0:0|0:0,0:0:0:0:
200,192,35250,1,10,0:0:0:0:
272,192,35350,1,2,0:0:0:0:
344,192,35450,1,10,0:0:0:0:
416,192,35550,1,2,0:0:0:0:
240,192,35650,1,4,0:0:0:0:
440,192,35850,1,2,0:0:0:0:
240,192,36050,5,8,0:0:0:0:
200,189,36100,1,0,0:0:0:0:
163,176,36150,1,0,0:0:0:0:
175,146,36200,1,0,0:0:0:0:
213,133,36250,1,2,0:0:0:0:
252,125,36300,1,0,0:0:0:0:
291,121,36350,1,8,0:0:0:0:
331,120,36400,1,0,0:0:0:0:
496,192,36450,2,0,L|328:192,1,140.25,2|0,0:0|0:0,0:0:0:0:
176,192,36850,2,0,L|352:192,1,140.25,2|0,0:0|0:0,0:0:0:0:
488,192,37250,2,0,L|168:192,1,280.5,12|0,0:0|0:0,0:0:0:0:
392,192,37650,6,0,P|464:160|480:136,1,93.5,4|0,0:0|0:0,0:0:0:0:
400,192,37950,1,8,0:0:0:0:
216,192,38050,1,4,0:0:0:0:
416,192,38250,1,0,0:0:0:0:
208,192,38450,2,0,L|152:192,1,46.75,2|2,0:0|0:0,0:0:0:0:
336,192,38650,2,0,L|336:136,1,46.75,2|2,0:0|0:0,0:0:0:0:
504,192,38850,2,0,L|504:128,1,46.75,6|2,0:0|0:0,0:0:0:0:
376,192,39050,2,0,L|320:192,1,46.75,10|2,0:0|0:0,0:0:0:0:
96,192,39250,6,0,L|96:96,1,93.5,2|0,0:0|0:0,0:0:0:0:
416,192,39650,2,0,L|416:96,1,93.5,4|0,0:0|0:0,0:0:0:0:
224,192,40050,2,0,L|168:192,1,46.75,2|0,0:0|0:0,0:0:0:0:
376,192,40250,2,0,L|304:192,1,46.75,4|0,0:0|0:0,0:0:0:0:
136,192,40450,1,4,0:0:0:0:
329,192,40650,1,2,0:0:0:0:
16,192,40850,6,0,L|120:192,1,93.5,2|0,0:0|0:0,0:0:0:0:
384,192,41250,2,0,L|248:192,1,93.5,4|0,0:0|0:0,0:0:0:0:
496,192,41650,1,10,0:0:0:0:
424,192,41750,1,2,0:0:0:0:
496,192,41850,1,10,0:0:0:0:
424,192,41950,1,2,0:0:0:0:
256,192,42050,1,4,0:0:0:0:
448,192,42250,1,0,0:0:0:0:
248,192,42450,5,8,0:0:0:0:
231,175,42500,1,0,0:0:0:0:
219,155,42550,1,0,0:0:0:0:
214,132,42600,1,0,0:0:0:0:
215,109,42650,1,2,0:0:0:0:
224,87,42700,1,0,0:0:0:0:
238,69,42750,1,8,0:0:0:0:
256,55,42800,1,0,0:0:0:0:
400,192,42850,1,4,0:0:0:0:
438,196,42900,1,0,0:0:0:0:
474,178,42950,1,0,0:0:0:0:
494,145,43000,1,0,0:0:0:0:
493,105,43050,1,2,0:0:0:0:
470,73,43100,1,0,0:0:0:0:
434,58,43150,1,0,0:0:0:0:
396,64,43200,1,0,0:0:0:0:
168,192,43250,5,2,0:0:0:0:
120,214,43300,1,0,0:0:0:0:
68,203,43350,1,2,0:0:0:0:
33,163,43400,1,0,0:0:0:0:
29,110,43450,1,2,0:0:0:0:
58,66,43500,1,0,0:0:0:0:
108,48,43550,1,0,0:0:0:0:
158,63,43600,1,0,0:0:0:0:
376,192,43650,5,2,0:0:0:0:
408,185,43675,1,0,0:0:0:0:
437,171,43700,1,2,0:0:0:0:
458,146,43725,1,0,0:0:0:0:
453,116,43750,1,2,0:0:0:0:
426,98,43775,1,0,0:0:0:0:
400,88,43800,1,2,0:0:0:0:
374,80,43825,1,0,0:0:0:0:
346,78,43850,1,2,0:0:0:0:
319,77,43875,1,0,0:0:0:0:
295,81,43900,1,2,0:0:0:0:
273,83,43925,1,0,0:0:0:0:
253,91,43950,1,2,0:0:0:0:
237,105,43975,1,0,0:0:0:0:
223,127,44000,1,2,0:0:0:0:
376,192,44050,6,0,P|456:160|384:96,1,187,2|2,0:0|0:0,0:0:0:0:
272,192,44650,1,2,0:0:0:0:
216,192,44750,1,2,0:0:0:0:
288,192,44850,1,10,0:0:0:0:
344,192,44950,1,0,0:0:0:0:
216,192,45050,1,10,0:0:0:0:
160,192,45150,1,0,0:0:0:0:
400,192,45250,2,0,L|400:144,1,46.75,4|8,0:0|0:0,0:0:0:0:
200,192,45550,1,4,0:0:0:0:
400,192,45650,5,12,0:0:0:0:
438,199,45700,1,0,0:0:0:0:
474,184,45750,1,0,0:0:0:0:
495,151,45800,1,0,0:0:0:0:
495,112,45850,1,0,0:0:0:0:
472,80,45900,1,0,0:0:0:0:
436,66,45950,1,8,0:0:0:0:
398,75,46000,1,0,0:0:0:0:
256,192,46050,1,4,0:0:0:0:
184,192,46150,1,0,0:0:0:0:
184,192,46250,1,2,0:0:0:0:
256,192,46350,1,0,0:0:0:0:
304,192,46400,1,0,0:0:0:0:
424,192,46450,5,2,0:0:0:0:
466,180,46500,1,0,0:0:0:0:
468,137,46550,1,2,0:0:0:0:
427,122,46600,1,0,0:0:0:0:
384,192,46650,1,2,0:0:0:0:
300,192,46750,1,0,0:0:0:0:
468,194,46850,1,6,0:0:0:0:
418,192,46900,1,0,0:0:0:0:
369,191,46950,1,0,0:0:0:0:
320,190,47000,1,0,0:0:0:0:
271,189,47050,1,0,0:0:0:0:
222,188,47100,1,0,0:0:0:0:
189,188,47150,1,0,0:0:0:0:
171,187,47200,1,0,0:0:0:0:
295,192,47250,5,8,0:0:0:0:
381,189,47450,2,0,L|356:148,1,46.75,8|8,0:0|0:0,0:0:0:0:
224,192,47650,1,4,0:0:0:0:
496,192,47850,1,2,0:0:0:0:
112,192,48050,2,0,L|112:128,1,46.75,10|0,0:0|0:0,0:0:0:0:
304,192,48250,2,0,L|304:128,1,46.75,10|0,0:0|0:0,0:0:0:0:
112,192,48450,2,0,L|112:128,1,46.75,6|0,0:0|0:0,0:0:0:0:
304,192,48650,2,0,L|304:128,1,46.75,10|0,0:0|0:0,0:0:0:0:
120,192,48850,5,10,0:0:0:0:
48,192,48950,1,2,0:0:0:0:
120,192,49050,1,2,0:0:0:0:
48,192,49150,1,2,0:0:0:0:
232,192,49250,1,6,0:0:0:0:
304,192,49350,1,2,0:0:0:0:
232,192,49450,1,2,0:0:0:0:
304,192,49550,1,2,0:0:0:0:
480,192,49650,1,10,0:0:0:0:
408,192,49750,1,2,0:0:0:0:
480,192,49850,1,2,0:0:0:0:
408,192,49950,1,2,0:0:0:0:
176,192,50050,1,6,0:0:0:0:
104,192,50150,1,2,0:0:0:0:
176,192,50250,1,2,0:0:0:0:
104,192,50350,1,2,0:0:0:0:
360,192,50450,6,0,L|456:192,1,93.5,4|2,0:0|0:0,0:0:0:0:
400,192,50750,1,8,0:0:0:0:
336,192,50850,1,2,0:0:0:0:
64,192,51050,1,4,0:0:0:0:
176,192,51250,1,2,0:0:0:0:
64,192,51450,1,8,0:0:0:0:
400,192,51650,2,0,L|112:192,1,280.5,4|0,0:0|0:0,0:0:0:0:
360,192,52050,5,4,0:0:0:0:
399,186,52100,1,0,0:0:0:0:
431,165,52150,1,0,0:0:0:0:
428,129,52200,1,0,0:0:0:0:
393,109,52250,1,0,0:0:0:0:
354,102,52300,1,0,0:0:0:0:
315,100,52350,1,8,0:0:0:0:
275,102,52400,1,0,0:0:0:0:
136,192,52450,2,0,L|136:136,1,46.75,4|0,0:0|0:0,0:0:0:0:
272,192,52650,2,0,L|272:144,1,46.75,2|2,0:0|0:0,0:0:0:0:
229,192,52800,1,0,0:0:0:0:
56,192,52850,5,2,0:0:0:0:
16,184,52900,1,0,0:0:0:0:
16,184,52950,1,2,0:0:0:0:
56,192,53000,1,0,0:0:0:0:
96,192,53050,1,2,0:0:0:0:
176,192,53150,1,0,0:0:0:0:
344,192,53250,1,4,0:0:0:0:
382,199,53300,1,0,0:0:0:0:
420,188,53350,1,0,0:0:0:0:
447,160,53400,1,0,0:0:0:0:
458,122,53450,1,0,0:0:0:0:
450,84,53500,1,0,0:0:0:0:
424,54,53550,1,0,0:0:0:0:
387,40,53600,1,0,0:0:0:0:
224,192,53650,5,2,0:0:0:0:
392,192,53850,2,0,L|448:192,1,46.75,8|8,0:0|0:0,0:0:0:0:
224,192,54050,1,4,0:0:0:0:
496,192,54250,1,2,0:0:0:0:
80,192,54450,2,0,L|80:128,1,46.75,10|0,0:0|0:0,0:0:0:0:
256,192,54650,2,0,L|256:128,1,46.75,10|0,0:0|0:0,0:0:0:0:
432,192,54850,2,0,L|432:144,1,46.75,6|0,0:0|0:0,0:0:0:0:
256,192,55050,2,0,L|256:136,1,46.75,10|0,0:0|0:0,0:0:0:0:
40,192,55250,5,4,0:0:0:0:
200,192,55450,1,8,0:0:0:0:
40,192,55650,1,4,0:0:0:0:
200,192,55850,1,2,0:0:0:0:
488,192,56050,1,2,0:0:0:0:
352,192,56183,1,2,0:0:0:0:
488,192,56316,1,2,0:0:0:0:
24,192,56450,1,4,0:0:0:0:
144,192,56583,1,2,0:0:0:0:
24,192,56716,1,2,0:0:0:0:
368,192,56850,5,4,0:0:0:0:
112,192,57150,1,2,0:0:0:0:
488,192,57450,1,4,0:0:0:0:
208,192,57850,1,8,0:0:0:0:
496,192,58050,1,2,0:0:0:0:
360,192,58150,1,2,0:0:0:0:
428,192,58250,1,2,0:0:0:0:
496,192,58350,1,2,0:0:0:0:
248,192,58450,6,0,P|168:176|248:104,1,238.425004547596,4|8,0:0|0:0,0:0:0:0:
416,192,58850,1,6,0:0:0:0:
220,192,59050,1,2,0:0:0:0:
496,192,59250,2,0,L|496:96,1,93.5,2|8,0:0|0:0,0:0:0:0:
288,192,59550,2,0,L|288:144,1,46.75,10|8,0:0|0:0,0:0:0:0:
496,192,59850,2,0,L|496:144,1,46.75,2|2,0:0|0:0,0:0:0:0:
208,192,60050,6,0,L|504:192,1,280.5,4|8,0:0|0:0,0:0:0:0:
296,192,60450,1,6,0:0:0:0:
496,192,60650,1,2,0:0:0:0:
168,192,60850,1,0,0:0:0:0:
93,193,60950,1,0,0:0:0:0:
74,192,61050,1,0,0:0:0:0:
320,192,61150,1,2,0:0:0:0:
384,192,61250,1,4,0:0:0:0:
320,192,61350,1,8,0:0:0:0:
184,192,61450,2,0,L|128:192,1,46.75,8|0,0:0|0:0,0:0:0:0:
384,192,61650,5,4,0:0:0:0:
450,155,61750,1,0,0:0:0:0:
423,91,61850,1,8,0:0:0:0:
344,84,61950,1,8,0:0:0:0:
152,192,62050,2,0,L|152:128,1,46.75,6|0,0:0|0:0,0:0:0:0:
288,192,62250,2,0,L|288:136,1,46.75,2|0,0:0|0:0,0:0:0:0:
152,192,62450,1,2,0:0:0:0:
360,192,62550,2,0,L|360:128,1,46.75,2|0,0:0|0:0,0:0:0:0:
224,192,62750,1,8,0:0:0:0:
48,192,62850,1,4,0:0:0:0:
144,192,62950,1,8,0:0:0:0:
144,192,63050,1,8,0:0:0:0:
80,192,63150,1,8,0:0:0:0:
344,192,63250,6,0,P|432:136|344:96,1,238.425004547596,4|8,0:0|0:0,0:0:0:0:
224,192,63650,1,8,0:0:0:0:
496,192,63850,1,4,0:0:0:0:
304,192,64050,1,2,0:0:0:0:
240,192,64150,1,2,0:0:0:0:
304,192,64250,1,2,0:0:0:0:
432,192,64350,1,2,0:0:0:0:
160,192,64450,1,2,0:0:0:0:
80,192,64550,1,0,0:0:0:0:
16,192,64650,1,8,0:0:0:0:
80,192,64750,1,8,0:0:0:0:
288,192,64850,6,0,P|400:176|464:64,1,238.425004547596,4|8,0:0|0:0,0:0:0:0:
288,192,65250,1,6,0:0:0:0:
488,192,65450,1,2,0:0:0:0:
200,192,65650,2,0,P|144:152|200:120,1,158.950003031731,2|8,0:0|0:0,0:0:0:0:
384,192,65950,2,0,L|456:152,1,79.4750015158654,8|4,0:0|0:0,0:0:0:0:
240,192,66250,2,0,L|168:152,1,79.4750015158654,8|8,0:0|0:0,0:0:0:0:
456,192,66450,6,0,L|160:192,1,280.5,4|8,0:0|0:0,0:0:0:0:
384,192,66850,1,6,0:0:0:0:
192,192,67050,1,2,0:0:0:0:
496,192,67250,1,0,0:0:0:0:
468,191,67350,1,0,0:0:0:0:
402,192,67450,1,0,0:0:0:0:
192,192,67550,1,2,0:0:0:0:
128,192,67650,1,4,0:0:0:0:
192,192,67750,1,8,0:0:0:0:
320,192,67850,2,0,L|408:192,1,64.0475018079815,8|0,0:0|0:0,0:0:0:0:
128,192,68050,6,0,B|-24:176|-8:120|128:112,1,238.425004547596,4|8,0:0|0:0,0:0:0:0:
296,192,68450,1,6,0:0:0:0:
104,192,68650,1,10,0:0:0:0:
456,192,68850,2,0,L|456:128,1,46.75,2|2,0:0|0:0,0:0:0:0:
240,192,69150,1,0,0:0:0:0:
432,192,69250,1,4,0:0:0:0:
496,192,69350,1,8,0:0:0:0:
496,192,69450,1,8,0:0:0:0:
432,192,69550,1,8,0:0:0:0:
128,192,69650,6,0,L|128:32,1,140.25,4|0,0:0|0:0,0:0:0:0:
264,192,70050,1,2,0:0:0:0:
72,192,70250,1,2,0:0:0:0:
264,192,70450,1,2,0:0:0:0:
320,192,70516,1,0,0:0:0:0:
264,192,70583,1,0,0:0:0:0:
96,192,70650,2,0,L|96:136,1,46.75,8|2,0:0|0:0,0:0:0:0:
280,192,70850,1,4,0:0:0:0:
456,192,70950,2,0,L|456:136,1,46.75,8|0,0:0|0:0,0:0:0:0:
272,192,71150,1,8,0:0:0:0:
56,192,71250,6,0,L|176:192,1,93.5,4|2,0:0|0:0,0:0:0:0:
288,192,71550,2,0,L|168:192,1,93.5,2|0,0:0|0:0,0:0:0:0:
56,192,71850,2,0,L|120:192,1,46.75
344,192,72050,1,2,0:0:0:0:
408,192,72150,1,0,0:0:0:0:
344,192,72250,1,4,0:0:0:0:
216,192,72350,1,0,0:0:0:0:
416,192,72450,2,0,L|416:144,1,46.75,8|0,0:0|0:0,0:0:0:0:
248,192,72650,2,0,L|248:144,1,46.75,8|0,0:0|0:0,0:0:0:0:
488,192,72850,6,0,L|376:192,1,93.5,2|0,0:0|0:0,0:0:0:0:
192,192,73250,2,0,L|312:192,1,93.5,2|0,0:0|0:0,0:0:0:0:
16,192,73650,1,4,0:0:0:0:
80,192,73750,1,0,0:0:0:0:
80,192,73850,1,0,0:0:0:0:
16,192,73950,1,0,0:0:0:0:
224,192,74050,2,0,L|288:192,1,46.75,8|0,0:0|0:0,0:0:0:0:
62,192,74250,2,0,L|15:192,1,46.75,0|0,0:0|0:0,0:0:0:0:
248,192,74450,5,2,0:0:0:0:
312,192,74550,1,0,0:0:0:0:
360,192,74650,1,0,0:0:0:0:
296,192,74750,1,0,0:0:0:0:
120,192,74850,1,2,0:0:0:0:
312,192,75050,1,0,0:0:0:0:
16,192,75250,2,0,L|152:192,1,93.5,4|0,0:0|0:0,0:0:0:0:
312,192,75550,2,0,L|312:96,1,93.5,0|0,0:0|0:0,0:0:0:0:
232,192,75850,2,0,L|160:192,1,46.75,2|2,0:0|0:0,0:0:0:0:
416,192,76050,6,0,P|496:152|504:128,1,93.5,2|2,0:0|0:0,0:0:0:0:
416,192,76350,1,0,0:0:0:0:
232,192,76450,1,2,0:0:0:0:
432,192,76650,2,0,L|360:192,1,46.75,8|8,0:0|0:0,0:0:0:0:
136,192,76850,2,0,P|64:152|56:120,1,93.5,4|8,0:0|0:0,0:0:0:0:
240,192,77150,2,0,L|128:192,1,93.5,2|0,0:0|0:0,0:0:0:0:
208,192,77450,1,2,0:0:0:0:
488,192,77650,5,12,0:0:0:0:
256,192,77850,12,0,79750,0:0:0:0:
