osu file format v14

[General]
AudioFilename: audio.mp3
AudioLeadIn: 0
PreviewTime: 6351
Countdown: 0
SampleSet: Soft
StackLeniency: 0.7
Mode: 3
LetterboxInBreaks: 0
SpecialStyle: 0
WidescreenStoryboard: 0

[Editor]
Bookmarks: 6335,17314,33771,44742,55714,66697,94114,99599,113314,120514
DistanceSpacing: 1.5
BeatDivisor: 6
GridSize: 8
TimelineZoom: 2.200001

[Metadata]
Title:Barberia Tango
TitleUnicode:バルベリア・タンゴ
Artist:ARM (IOSYS) x PAPRIKA (BUTAOTOME)
ArtistUnicode:ARM (IOSYS) x パプリカ (豚乙女)
Creator:Telzzxs
Version:7K Real
Source:ノスタルジア Op.3
Tags:nostalgia op.3 op. 3 mission bingo instrumental classical bemani konami hybrid piano violin 10th kac arcade championship
BeatmapID:4316844
BeatmapSetID:2063918

[Difficulty]
HPDrainRate:8.5
CircleSize:7
OverallDifficulty:8
ApproachRate:5
SliderMultiplier:1.4
SliderTickRate:1

[Events]
//Background and Video events
0,0,"bg.jpg",0,0
//Break Periods
//Storyboard Layer 0 (Background)
//Storyboard Layer 1 (Fail)
//Storyboard Layer 2 (Pass)
//Storyboard Layer 3 (Foreground)
//Storyboard Layer 4 (Overlay)
//Storyboard Sound Samples

[TimingPoints]
866,342.857142857143,4,2,1,25,1,0
66694,-100,4,2,1,15,0,0
92751,-100,4,2,1,25,0,0

[HitObjects]
109,192,865,5,0,0:0:0:0:
402,192,865,1,0,0:0:0:0:
36,192,865,1,0,0:0:0:0:
475,192,865,1,0,0:0:0:0:
182,192,1037,1,0,0:0:0:0:
256,192,1123,1,0,0:0:0:0:
329,192,1208,1,0,0:0:0:0:
109,192,1380,1,0,0:0:0:0:
36,192,1380,1,0,0:0:0:0:
475,192,1380,1,0,0:0:0:0:
402,192,1380,1,0,0:0:0:0:
329,192,1551,1,0,0:0:0:0:
256,192,1637,1,0,0:0:0:0:
182,192,1723,1,0,0:0:0:0:
109,192,1894,1,0,0:0:0:0:
182,192,1894,1,0,0:0:0:0:
402,192,1894,1,0,0:0:0:0:
329,192,1894,1,0,0:0:0:0:
256,192,2066,1,0,0:0:0:0:
109,192,2237,1,0,0:0:0:0:
36,192,2237,1,0,0:0:0:0:
402,192,2237,1,0,0:0:0:0:
475,192,2237,1,0,0:0:0:0:
182,192,2408,1,0,0:0:0:0:
256,192,2494,1,0,0:0:0:0:
329,192,2580,1,0,0:0:0:0:
109,192,2751,1,0,0:0:0:0:
36,192,2751,1,0,0:0:0:0:
475,192,2751,1,0,0:0:0:0:
402,192,2751,1,0,0:0:0:0:
329,192,2923,1,0,0:0:0:0:
256,192,3008,1,0,0:0:0:0:
182,192,3094,1,0,0:0:0:0:
36,192,3094,128,0,3180:0:0:0:0:
475,192,3094,128,0,3180:0:0:0:0:
109,192,3180,128,0,3266:0:0:0:0:
402,192,3180,128,0,3266:0:0:0:0:
329,192,3266,128,0,3351:0:0:0:0:
182,192,3266,128,0,3351:0:0:0:0:
256,192,3266,128,0,3351:0:0:0:0:
475,192,3437,128,0,3523:0:0:0:0:
36,192,3437,128,0,3523:0:0:0:0:
109,192,3608,128,0,3780:0:0:0:0:
256,192,3608,128,0,3780:0:0:0:0:
402,192,3608,128,0,3780:0:0:0:0:
109,192,3866,128,0,4037:0:0:0:0:
256,192,3866,128,0,4037:0:0:0:0:
402,192,3866,128,0,4037:0:0:0:0:
109,192,4123,128,0,4294:0:0:0:0:
256,192,4123,128,0,4294:0:0:0:0:
402,192,4123,128,0,4294:0:0:0:0:
182,192,4466,128,0,4551:0:0:0:0:
329,192,4466,128,0,4551:0:0:0:0:
256,192,4466,128,0,4551:0:0:0:0:
109,192,4637,128,0,4980:0:0:0:0:
402,192,4637,128,0,4980:0:0:0:0:
256,192,4637,128,0,4980:0:0:0:0:
182,192,4980,128,0,5494:0:0:0:0:
36,192,4980,128,0,5494:0:0:0:0:
475,192,4980,128,0,5494:0:0:0:0:
329,192,4980,128,0,5494:0:0:0:0:
109,192,5494,1,0,0:0:0:0:
402,192,5494,1,0,0:0:0:0:
182,192,5580,1,0,0:0:0:0:
329,192,5580,1,0,0:0:0:0:
109,192,5666,128,0,6351:0:0:0:0:
402,192,5666,128,0,6351:0:0:0:0:
36,192,6351,1,0,0:0:0:0:
475,192,6351,1,0,0:0:0:0:
256,192,6351,1,0,0:0:0:0:
182,192,6437,1,0,0:0:0:0:
109,192,6523,1,0,0:0:0:0:
36,192,6608,1,0,0:0:0:0:
109,192,6694,1,0,0:0:0:0:
402,192,6694,1,0,0:0:0:0:
182,192,6780,1,0,0:0:0:0:
329,192,6866,1,0,0:0:0:0:
109,192,6866,1,0,0:0:0:0:
475,192,6866,1,0,0:0:0:0:
36,192,6951,1,0,0:0:0:0:
109,192,7037,1,0,0:0:0:0:
402,192,7208,1,0,0:0:0:0:
475,192,7208,1,0,0:0:0:0:
36,192,7208,1,0,0:0:0:0:
182,192,7208,1,0,0:0:0:0:
256,192,7380,1,0,0:0:0:0:
109,192,7551,1,0,0:0:0:0:
329,192,7551,1,0,0:0:0:0:
36,192,7551,1,0,0:0:0:0:
182,192,7723,1,0,0:0:0:0:
402,192,7723,1,0,0:0:0:0:
475,192,7723,1,0,0:0:0:0:
402,192,7894,1,0,0:0:0:0:
329,192,7894,1,0,0:0:0:0:
109,192,7894,1,0,0:0:0:0:
329,192,8066,1,0,0:0:0:0:
256,192,8066,1,0,0:0:0:0:
36,192,8066,1,0,0:0:0:0:
182,192,8237,1,0,0:0:0:0:
402,192,8237,1,0,0:0:0:0:
475,192,8237,1,0,0:0:0:0:
402,192,8408,1,0,0:0:0:0:
329,192,8408,1,0,0:0:0:0:
109,192,8408,1,0,0:0:0:0:
329,192,8580,1,0,0:0:0:0:
256,192,8580,1,0,0:0:0:0:
36,192,8580,1,0,0:0:0:0:
402,192,8751,1,0,0:0:0:0:
182,192,8751,1,0,0:0:0:0:
109,192,8751,1,0,0:0:0:0:
182,192,8923,1,0,0:0:0:0:
256,192,8923,1,0,0:0:0:0:
475,192,8923,1,0,0:0:0:0:
256,192,9094,1,0,0:0:0:0:
36,192,9094,1,0,0:0:0:0:
109,192,9094,1,0,0:0:0:0:
329,192,9180,1,0,0:0:0:0:
402,192,9266,1,0,0:0:0:0:
475,192,9351,1,0,0:0:0:0:
402,192,9437,1,0,0:0:0:0:
109,192,9437,1,0,0:0:0:0:
329,192,9523,1,0,0:0:0:0:
182,192,9608,1,0,0:0:0:0:
402,192,9608,1,0,0:0:0:0:
36,192,9608,1,0,0:0:0:0:
475,192,9694,1,0,0:0:0:0:
402,192,9780,1,0,0:0:0:0:
109,192,9951,1,0,0:0:0:0:
36,192,9951,1,0,0:0:0:0:
475,192,9951,1,0,0:0:0:0:
329,192,9951,1,0,0:0:0:0:
256,192,10123,1,0,0:0:0:0:
329,192,10294,1,0,0:0:0:0:
182,192,10294,1,0,0:0:0:0:
475,192,10294,1,0,0:0:0:0:
329,192,10466,1,0,0:0:0:0:
109,192,10466,1,0,0:0:0:0:
36,192,10466,1,0,0:0:0:0:
109,192,10637,1,0,0:0:0:0:
182,192,10637,1,0,0:0:0:0:
402,192,10637,1,0,0:0:0:0:
182,192,10808,1,0,0:0:0:0:
256,192,10808,1,0,0:0:0:0:
475,192,10808,1,0,0:0:0:0:
402,192,10894,1,0,0:0:0:0:
329,192,10980,1,0,0:0:0:0:
109,192,10980,1,0,0:0:0:0:
36,192,10980,1,0,0:0:0:0:
256,192,11066,1,0,0:0:0:0:
109,192,11151,1,0,0:0:0:0:
475,192,11151,1,0,0:0:0:0:
402,192,11151,1,0,0:0:0:0:
182,192,11323,1,0,0:0:0:0:
329,192,11323,1,0,0:0:0:0:
402,192,11323,1,0,0:0:0:0:
256,192,11494,1,0,0:0:0:0:
109,192,11494,1,0,0:0:0:0:
329,192,11494,1,0,0:0:0:0:
402,192,11666,1,0,0:0:0:0:
36,192,11666,1,0,0:0:0:0:
329,192,11751,1,0,0:0:0:0:
256,192,11837,1,0,0:0:0:0:
475,192,11837,1,0,0:0:0:0:
109,192,11837,1,0,0:0:0:0:
402,192,12008,1,0,0:0:0:0:
329,192,12008,1,0,0:0:0:0:
109,192,12008,1,0,0:0:0:0:
256,192,12180,1,0,0:0:0:0:
36,192,12351,1,0,0:0:0:0:
109,192,12351,1,0,0:0:0:0:
402,192,12351,1,0,0:0:0:0:
182,192,12523,1,0,0:0:0:0:
329,192,12523,1,0,0:0:0:0:
402,192,12523,1,0,0:0:0:0:
256,192,12694,1,0,0:0:0:0:
36,192,12694,1,0,0:0:0:0:
109,192,12780,1,0,0:0:0:0:
475,192,12866,1,0,0:0:0:0:
182,192,12866,1,0,0:0:0:0:
402,192,12951,1,0,0:0:0:0:
109,192,13037,1,0,0:0:0:0:
329,192,13037,1,0,0:0:0:0:
182,192,13123,1,0,0:0:0:0:
402,192,13123,1,0,0:0:0:0:
256,192,13208,1,0,0:0:0:0:
36,192,13208,128,0,13466:0:0:0:0:
475,192,13208,128,0,13466:0:0:0:0:
109,192,13551,128,0,13723:0:0:0:0:
256,192,13551,128,0,13723:0:0:0:0:
402,192,13551,128,0,13723:0:0:0:0:
475,192,14066,1,0,0:0:0:0:
256,192,14066,1,0,0:0:0:0:
182,192,14066,1,0,0:0:0:0:
402,192,14237,1,0,0:0:0:0:
109,192,14237,1,0,0:0:0:0:
182,192,14237,1,0,0:0:0:0:
109,192,14408,1,0,0:0:0:0:
329,192,14408,1,0,0:0:0:0:
36,192,14408,1,0,0:0:0:0:
109,192,14580,1,0,0:0:0:0:
402,192,14580,1,0,0:0:0:0:
182,192,14580,1,0,0:0:0:0:
402,192,14751,1,0,0:0:0:0:
475,192,14751,1,0,0:0:0:0:
329,192,14751,1,0,0:0:0:0:
329,192,15094,1,0,0:0:0:0:
402,192,15094,1,0,0:0:0:0:
475,192,15094,1,0,0:0:0:0:
329,192,15266,1,0,0:0:0:0:
402,192,15266,1,0,0:0:0:0:
475,192,15266,1,0,0:0:0:0:
36,192,15437,1,0,0:0:0:0:
109,192,15437,1,0,0:0:0:0:
182,192,15437,1,0,0:0:0:0:
36,192,15523,1,0,0:0:0:0:
109,192,15523,1,0,0:0:0:0:
182,192,15523,1,0,0:0:0:0:
402,192,15608,1,0,0:0:0:0:
329,192,15608,1,0,0:0:0:0:
475,192,15608,1,0,0:0:0:0:
36,192,15780,1,0,0:0:0:0:
109,192,15780,1,0,0:0:0:0:
402,192,15780,1,0,0:0:0:0:
475,192,15780,1,0,0:0:0:0:
182,192,15866,1,0,0:0:0:0:
329,192,15866,1,0,0:0:0:0:
256,192,15951,128,0,16037:0:0:0:0:
475,192,15951,128,0,16037:0:0:0:0:
36,192,15951,1,0,0:0:0:0:
109,192,15951,1,0,0:0:0:0:
402,192,16123,128,0,16208:0:0:0:0:
182,192,16123,128,0,16208:0:0:0:0:
329,192,16294,128,0,16380:0:0:0:0:
109,192,16294,128,0,16380:0:0:0:0:
36,192,16466,128,0,16551:0:0:0:0:
256,192,16466,128,0,16551:0:0:0:0:
109,192,16637,128,0,16723:0:0:0:0:
329,192,16637,128,0,16723:0:0:0:0:
182,192,16808,128,0,16894:0:0:0:0:
402,192,16808,128,0,16894:0:0:0:0:
256,192,16980,128,0,17066:0:0:0:0:
475,192,16980,128,0,17066:0:0:0:0:
182,192,17151,128,0,17237:0:0:0:0:
329,192,17151,128,0,17237:0:0:0:0:
402,192,17237,128,0,17323:0:0:0:0:
109,192,17237,128,0,17323:0:0:0:0:
36,192,17323,1,0,0:0:0:0:
256,192,17323,128,0,17666:0:0:0:0:
475,192,17323,1,0,0:0:0:0:
182,192,17494,1,0,0:0:0:0:
109,192,17580,1,0,0:0:0:0:
182,192,17666,1,0,0:0:0:0:
402,192,17666,1,0,0:0:0:0:
475,192,17666,1,0,0:0:0:0:
182,192,17837,128,0,18008:0:0:0:0:
329,192,17837,1,0,0:0:0:0:
402,192,17923,1,0,0:0:0:0:
329,192,18008,1,0,0:0:0:0:
256,192,18008,128,0,19637:0:0:0:0:
36,192,18008,1,0,0:0:0:0:
109,192,18008,1,0,0:0:0:0:
182,192,18180,1,0,0:0:0:0:
109,192,18266,1,0,0:0:0:0:
182,192,18351,1,0,0:0:0:0:
402,192,18351,1,0,0:0:0:0:
475,192,18351,1,0,0:0:0:0:
329,192,18523,1,0,0:0:0:0:
475,192,18523,1,0,0:0:0:0:
36,192,18608,1,0,0:0:0:0:
182,192,18608,1,0,0:0:0:0:
329,192,18694,1,0,0:0:0:0:
475,192,18694,1,0,0:0:0:0:
182,192,18866,1,0,0:0:0:0:
36,192,18866,1,0,0:0:0:0:
329,192,18951,1,0,0:0:0:0:
475,192,18951,1,0,0:0:0:0:
182,192,19037,1,0,0:0:0:0:
36,192,19037,1,0,0:0:0:0:
36,192,19208,1,0,0:0:0:0:
402,192,19208,1,0,0:0:0:0:
475,192,19208,1,0,0:0:0:0:
182,192,19294,1,0,0:0:0:0:
109,192,19294,1,0,0:0:0:0:
329,192,19294,1,0,0:0:0:0:
36,192,19380,1,0,0:0:0:0:
402,192,19380,1,0,0:0:0:0:
475,192,19380,1,0,0:0:0:0:
475,192,19551,1,0,0:0:0:0:
109,192,19551,1,0,0:0:0:0:
36,192,19551,1,0,0:0:0:0:
402,192,19637,1,0,0:0:0:0:
182,192,19637,1,0,0:0:0:0:
329,192,19637,1,0,0:0:0:0:
36,192,19723,1,0,0:0:0:0:
256,192,19723,128,0,19808:0:0:0:0:
109,192,19723,1,0,0:0:0:0:
475,192,19723,1,0,0:0:0:0:
402,192,19808,128,0,19894:0:0:0:0:
256,192,19894,128,0,19980:0:0:0:0:
109,192,19980,128,0,20066:0:0:0:0:
182,192,20066,1,0,0:0:0:0:
36,192,20066,128,0,20751:0:0:0:0:
329,192,20237,1,0,0:0:0:0:
402,192,20323,1,0,0:0:0:0:
329,192,20408,1,0,0:0:0:0:
182,192,20408,1,0,0:0:0:0:
256,192,20408,1,0,0:0:0:0:
109,192,20580,1,0,0:0:0:0:
182,192,20666,1,0,0:0:0:0:
109,192,20751,1,0,0:0:0:0:
256,192,20751,128,0,22380:0:0:0:0:
402,192,20751,1,0,0:0:0:0:
475,192,20751,1,0,0:0:0:0:
329,192,20923,1,0,0:0:0:0:
402,192,21008,1,0,0:0:0:0:
329,192,21094,1,0,0:0:0:0:
109,192,21094,1,0,0:0:0:0:
36,192,21094,1,0,0:0:0:0:
475,192,21266,1,0,0:0:0:0:
36,192,21266,1,0,0:0:0:0:
329,192,21351,1,0,0:0:0:0:
182,192,21351,1,0,0:0:0:0:
475,192,21437,1,0,0:0:0:0:
36,192,21437,1,0,0:0:0:0:
329,192,21608,1,0,0:0:0:0:
182,192,21608,1,0,0:0:0:0:
475,192,21694,1,0,0:0:0:0:
36,192,21694,1,0,0:0:0:0:
182,192,21780,1,0,0:0:0:0:
329,192,21780,1,0,0:0:0:0:
475,192,21951,1,0,0:0:0:0:
182,192,21951,1,0,0:0:0:0:
109,192,21951,1,0,0:0:0:0:
36,192,22037,1,0,0:0:0:0:
329,192,22037,1,0,0:0:0:0:
402,192,22037,1,0,0:0:0:0:
475,192,22123,1,0,0:0:0:0:
109,192,22123,1,0,0:0:0:0:
182,192,22123,1,0,0:0:0:0:
36,192,22294,1,0,0:0:0:0:
402,192,22294,1,0,0:0:0:0:
475,192,22294,1,0,0:0:0:0:
182,192,22380,1,0,0:0:0:0:
109,192,22380,1,0,0:0:0:0:
329,192,22380,1,0,0:0:0:0:
475,192,22466,1,0,0:0:0:0:
256,192,22466,128,0,22637:0:0:0:0:
402,192,22466,1,0,0:0:0:0:
36,192,22466,1,0,0:0:0:0:
109,192,22637,128,0,22808:0:0:0:0:
329,192,22637,1,0,0:0:0:0:
475,192,22808,128,0,23494:0:0:0:0:
36,192,22808,1,0,0:0:0:0:
329,192,22894,1,0,0:0:0:0:
256,192,22980,1,0,0:0:0:0:
182,192,23066,1,0,0:0:0:0:
402,192,23151,1,0,0:0:0:0:
109,192,23151,1,0,0:0:0:0:
329,192,23237,1,0,0:0:0:0:
256,192,23323,1,0,0:0:0:0:
182,192,23408,1,0,0:0:0:0:
109,192,23494,1,0,0:0:0:0:
36,192,23494,128,0,23837:0:0:0:0:
329,192,23666,1,0,0:0:0:0:
256,192,23666,1,0,0:0:0:0:
402,192,23751,1,0,0:0:0:0:
182,192,23837,1,0,0:0:0:0:
109,192,23837,128,0,24180:0:0:0:0:
475,192,23837,1,0,0:0:0:0:
256,192,23923,1,0,0:0:0:0:
329,192,24008,1,0,0:0:0:0:
402,192,24094,1,0,0:0:0:0:
329,192,24180,128,0,24351:0:0:0:0:
182,192,24180,128,0,24351:0:0:0:0:
475,192,24180,1,0,0:0:0:0:
109,192,24523,128,0,24866:0:0:0:0:
256,192,24523,128,0,24866:0:0:0:0:
402,192,24523,128,0,24866:0:0:0:0:
36,192,25037,128,0,25123:0:0:0:0:
475,192,25037,128,0,25123:0:0:0:0:
182,192,25208,128,0,25294:0:0:0:0:
329,192,25208,128,0,25294:0:0:0:0:
109,192,25380,128,0,25466:0:0:0:0:
402,192,25380,128,0,25466:0:0:0:0:
329,192,25551,1,0,0:0:0:0:
182,192,25551,1,0,0:0:0:0:
402,192,25637,1,0,0:0:0:0:
475,192,25723,1,0,0:0:0:0:
109,192,25723,128,0,25894:0:0:0:0:
36,192,25723,128,0,25894:0:0:0:0:
402,192,25808,1,0,0:0:0:0:
256,192,25894,128,0,28294:0:0:0:0:
329,192,25894,1,0,0:0:0:0:
182,192,25894,1,0,0:0:0:0:
36,192,26066,1,0,0:0:0:0:
109,192,26066,1,0,0:0:0:0:
475,192,26237,1,0,0:0:0:0:
329,192,26408,128,0,26580:0:0:0:0:
182,192,26408,128,0,26580:0:0:0:0:
402,192,26580,1,0,0:0:0:0:
109,192,26580,1,0,0:0:0:0:
329,192,26751,1,0,0:0:0:0:
182,192,26751,1,0,0:0:0:0:
36,192,26923,1,0,0:0:0:0:
402,192,27094,128,0,27266:0:0:0:0:
475,192,27094,128,0,27266:0:0:0:0:
329,192,27266,1,0,0:0:0:0:
182,192,27266,1,0,0:0:0:0:
402,192,27437,1,0,0:0:0:0:
475,192,27437,1,0,0:0:0:0:
36,192,27608,1,0,0:0:0:0:
182,192,27780,128,0,27951:0:0:0:0:
329,192,27780,128,0,27951:0:0:0:0:
109,192,27866,1,0,0:0:0:0:
475,192,27951,1,0,0:0:0:0:
402,192,27951,1,0,0:0:0:0:
36,192,28037,1,0,0:0:0:0:
109,192,28037,1,0,0:0:0:0:
329,192,28123,1,0,0:0:0:0:
182,192,28123,1,0,0:0:0:0:
402,192,28208,1,0,0:0:0:0:
109,192,28208,1,0,0:0:0:0:
475,192,28294,1,0,0:0:0:0:
329,192,28294,128,0,28637:0:0:0:0:
36,192,28294,1,0,0:0:0:0:
182,192,28466,1,0,0:0:0:0:
109,192,28551,1,0,0:0:0:0:
182,192,28637,1,0,0:0:0:0:
402,192,28637,1,0,0:0:0:0:
475,192,28637,1,0,0:0:0:0:
182,192,28808,128,0,28980:0:0:0:0:
329,192,28808,1,0,0:0:0:0:
402,192,28894,1,0,0:0:0:0:
329,192,28980,1,0,0:0:0:0:
256,192,28980,128,0,30351:0:0:0:0:
36,192,28980,1,0,0:0:0:0:
109,192,28980,1,0,0:0:0:0:
182,192,29151,1,0,0:0:0:0:
109,192,29237,1,0,0:0:0:0:
182,192,29323,1,0,0:0:0:0:
402,192,29323,1,0,0:0:0:0:
475,192,29323,1,0,0:0:0:0:
329,192,29494,1,0,0:0:0:0:
475,192,29494,1,0,0:0:0:0:
36,192,29580,1,0,0:0:0:0:
182,192,29580,1,0,0:0:0:0:
329,192,29666,1,0,0:0:0:0:
475,192,29666,1,0,0:0:0:0:
182,192,29837,1,0,0:0:0:0:
36,192,29837,1,0,0:0:0:0:
475,192,29923,1,0,0:0:0:0:
329,192,29923,1,0,0:0:0:0:
182,192,30008,1,0,0:0:0:0:
36,192,30008,1,0,0:0:0:0:
182,192,30180,1,0,0:0:0:0:
475,192,30180,1,0,0:0:0:0:
402,192,30180,1,0,0:0:0:0:
329,192,30266,1,0,0:0:0:0:
109,192,30266,1,0,0:0:0:0:
36,192,30266,1,0,0:0:0:0:
182,192,30351,1,0,0:0:0:0:
475,192,30351,1,0,0:0:0:0:
402,192,30351,1,0,0:0:0:0:
36,192,30523,1,0,0:0:0:0:
256,192,30523,128,0,30608:0:0:0:0:
109,192,30523,1,0,0:0:0:0:
475,192,30608,1,0,0:0:0:0:
182,192,30608,1,0,0:0:0:0:
402,192,30608,1,0,0:0:0:0:
256,192,30694,1,0,0:0:0:0:
109,192,30694,1,0,0:0:0:0:
329,192,30694,128,0,30780:0:0:0:0:
36,192,30694,1,0,0:0:0:0:
402,192,30866,128,0,30951:0:0:0:0:
36,192,31037,1,0,0:0:0:0:
109,192,31037,128,0,31380:0:0:0:0:
329,192,31208,1,0,0:0:0:0:
402,192,31294,1,0,0:0:0:0:
329,192,31380,1,0,0:0:0:0:
182,192,31380,1,0,0:0:0:0:
36,192,31380,1,0,0:0:0:0:
109,192,31551,1,0,0:0:0:0:
402,192,31551,128,0,31723:0:0:0:0:
182,192,31637,1,0,0:0:0:0:
109,192,31723,1,0,0:0:0:0:
256,192,31723,128,0,33266:0:0:0:0:
329,192,31723,1,0,0:0:0:0:
475,192,31723,1,0,0:0:0:0:
329,192,31894,1,0,0:0:0:0:
402,192,31980,1,0,0:0:0:0:
329,192,32066,1,0,0:0:0:0:
109,192,32066,1,0,0:0:0:0:
36,192,32066,1,0,0:0:0:0:
182,192,32237,1,0,0:0:0:0:
329,192,32237,1,0,0:0:0:0:
475,192,32323,1,0,0:0:0:0:
36,192,32323,1,0,0:0:0:0:
182,192,32408,1,0,0:0:0:0:
329,192,32408,1,0,0:0:0:0:
36,192,32580,1,0,0:0:0:0:
475,192,32580,1,0,0:0:0:0:
182,192,32666,5,0,0:0:0:0:
329,192,32666,1,0,0:0:0:0:
36,192,32751,1,0,0:0:0:0:
475,192,32751,1,0,0:0:0:0:
182,192,32923,1,0,0:0:0:0:
109,192,32923,1,0,0:0:0:0:
475,192,32923,1,0,0:0:0:0:
36,192,33008,1,0,0:0:0:0:
329,192,33008,1,0,0:0:0:0:
402,192,33008,1,0,0:0:0:0:
182,192,33094,1,0,0:0:0:0:
109,192,33094,1,0,0:0:0:0:
475,192,33094,1,0,0:0:0:0:
329,192,33266,1,0,0:0:0:0:
109,192,33266,1,0,0:0:0:0:
36,192,33266,1,0,0:0:0:0:
475,192,33351,1,0,0:0:0:0:
182,192,33351,1,0,0:0:0:0:
402,192,33351,1,0,0:0:0:0:
329,192,33437,1,0,0:0:0:0:
109,192,33437,1,0,0:0:0:0:
36,192,33437,1,0,0:0:0:0:
256,192,33437,1,0,0:0:0:0:
182,192,33608,1,0,0:0:0:0:
402,192,33608,1,0,0:0:0:0:
36,192,33780,5,0,0:0:0:0:
109,192,33780,1,0,0:0:0:0:
256,192,33780,1,0,0:0:0:0:
402,192,33866,1,0,0:0:0:0:
329,192,33866,1,0,0:0:0:0:
182,192,33951,1,0,0:0:0:0:
109,192,33951,1,0,0:0:0:0:
402,192,34037,1,0,0:0:0:0:
475,192,34037,1,0,0:0:0:0:
36,192,34123,1,0,0:0:0:0:
109,192,34123,1,0,0:0:0:0:
402,192,34208,1,0,0:0:0:0:
329,192,34208,1,0,0:0:0:0:
182,192,34294,1,0,0:0:0:0:
109,192,34294,1,0,0:0:0:0:
402,192,34380,1,0,0:0:0:0:
475,192,34380,1,0,0:0:0:0:
36,192,34466,1,0,0:0:0:0:
109,192,34466,1,0,0:0:0:0:
402,192,34551,1,0,0:0:0:0:
329,192,34551,1,0,0:0:0:0:
182,192,34637,1,0,0:0:0:0:
109,192,34637,1,0,0:0:0:0:
402,192,34723,1,0,0:0:0:0:
475,192,34723,1,0,0:0:0:0:
36,192,34808,1,0,0:0:0:0:
109,192,34808,1,0,0:0:0:0:
402,192,34894,1,0,0:0:0:0:
329,192,34894,1,0,0:0:0:0:
182,192,34980,1,0,0:0:0:0:
109,192,34980,1,0,0:0:0:0:
402,192,35066,1,0,0:0:0:0:
475,192,35066,1,0,0:0:0:0:
36,192,35151,1,0,0:0:0:0:
109,192,35151,1,0,0:0:0:0:
402,192,35237,1,0,0:0:0:0:
329,192,35237,1,0,0:0:0:0:
182,192,35323,1,0,0:0:0:0:
109,192,35323,1,0,0:0:0:0:
402,192,35408,1,0,0:0:0:0:
475,192,35408,1,0,0:0:0:0:
36,192,35494,1,0,0:0:0:0:
109,192,35494,1,0,0:0:0:0:
402,192,35580,1,0,0:0:0:0:
329,192,35580,1,0,0:0:0:0:
182,192,35666,1,0,0:0:0:0:
109,192,35666,1,0,0:0:0:0:
402,192,35751,1,0,0:0:0:0:
475,192,35751,1,0,0:0:0:0:
36,192,35837,128,0,35923:0:0:0:0:
256,192,35837,1,0,0:0:0:0:
182,192,36008,128,0,36094:0:0:0:0:
475,192,36008,1,0,0:0:0:0:
329,192,36008,1,0,0:0:0:0:
256,192,36180,128,0,36266:0:0:0:0:
109,192,36180,1,0,0:0:0:0:
402,192,36180,1,0,0:0:0:0:
329,192,36351,128,0,36437:0:0:0:0:
36,192,36351,1,0,0:0:0:0:
182,192,36351,1,0,0:0:0:0:
475,192,36523,1,0,0:0:0:0:
402,192,36523,1,0,0:0:0:0:
256,192,36523,1,0,0:0:0:0:
109,192,36608,1,0,0:0:0:0:
182,192,36608,1,0,0:0:0:0:
329,192,36694,1,0,0:0:0:0:
402,192,36694,1,0,0:0:0:0:
109,192,36780,1,0,0:0:0:0:
36,192,36780,1,0,0:0:0:0:
475,192,36866,1,0,0:0:0:0:
402,192,36866,1,0,0:0:0:0:
109,192,36951,1,0,0:0:0:0:
182,192,36951,1,0,0:0:0:0:
329,192,37037,1,0,0:0:0:0:
402,192,37037,1,0,0:0:0:0:
109,192,37123,1,0,0:0:0:0:
36,192,37123,1,0,0:0:0:0:
475,192,37208,1,0,0:0:0:0:
402,192,37208,1,0,0:0:0:0:
109,192,37294,1,0,0:0:0:0:
182,192,37294,1,0,0:0:0:0:
329,192,37380,1,0,0:0:0:0:
402,192,37380,1,0,0:0:0:0:
109,192,37466,1,0,0:0:0:0:
36,192,37466,1,0,0:0:0:0:
475,192,37551,1,0,0:0:0:0:
402,192,37551,1,0,0:0:0:0:
109,192,37637,1,0,0:0:0:0:
182,192,37637,1,0,0:0:0:0:
329,192,37723,1,0,0:0:0:0:
402,192,37723,1,0,0:0:0:0:
109,192,37808,1,0,0:0:0:0:
36,192,37808,1,0,0:0:0:0:
475,192,37894,1,0,0:0:0:0:
402,192,37894,1,0,0:0:0:0:
109,192,37980,1,0,0:0:0:0:
182,192,37980,1,0,0:0:0:0:
329,192,38066,1,0,0:0:0:0:
402,192,38066,1,0,0:0:0:0:
109,192,38151,1,0,0:0:0:0:
36,192,38151,1,0,0:0:0:0:
475,192,38237,1,0,0:0:0:0:
402,192,38237,1,0,0:0:0:0:
109,192,38323,1,0,0:0:0:0:
182,192,38323,1,0,0:0:0:0:
329,192,38408,1,0,0:0:0:0:
402,192,38408,1,0,0:0:0:0:
109,192,38494,1,0,0:0:0:0:
36,192,38494,1,0,0:0:0:0:
475,192,38580,128,0,38666:0:0:0:0:
256,192,38580,1,0,0:0:0:0:
329,192,38751,128,0,38837:0:0:0:0:
36,192,38751,1,0,0:0:0:0:
182,192,38751,1,0,0:0:0:0:
256,192,38923,128,0,39008:0:0:0:0:
109,192,38923,1,0,0:0:0:0:
402,192,38923,1,0,0:0:0:0:
182,192,39094,128,0,39180:0:0:0:0:
329,192,39094,1,0,0:0:0:0:
475,192,39094,1,0,0:0:0:0:
36,192,39266,1,0,0:0:0:0:
402,192,39266,1,0,0:0:0:0:
109,192,39351,1,0,0:0:0:0:
182,192,39437,1,0,0:0:0:0:
402,192,39437,1,0,0:0:0:0:
256,192,39523,1,0,0:0:0:0:
329,192,39608,1,0,0:0:0:0:
109,192,39608,1,0,0:0:0:0:
402,192,39694,1,0,0:0:0:0:
475,192,39780,1,0,0:0:0:0:
109,192,39780,1,0,0:0:0:0:
256,192,39866,1,0,0:0:0:0:
182,192,39866,1,0,0:0:0:0:
36,192,39951,1,0,0:0:0:0:
475,192,39951,1,0,0:0:0:0:
109,192,40037,1,0,0:0:0:0:
402,192,40037,1,0,0:0:0:0:
182,192,40123,1,0,0:0:0:0:
329,192,40123,1,0,0:0:0:0:
256,192,40208,1,0,0:0:0:0:
109,192,40208,1,0,0:0:0:0:
402,192,40294,1,0,0:0:0:0:
475,192,40294,1,0,0:0:0:0:
182,192,40380,1,0,0:0:0:0:
329,192,40380,1,0,0:0:0:0:
109,192,40466,1,0,0:0:0:0:
36,192,40466,1,0,0:0:0:0:
256,192,40551,1,0,0:0:0:0:
402,192,40551,1,0,0:0:0:0:
182,192,40637,1,0,0:0:0:0:
36,192,40637,1,0,0:0:0:0:
329,192,40637,1,0,0:0:0:0:
475,192,40637,1,0,0:0:0:0:
109,192,40723,1,0,0:0:0:0:
256,192,40723,1,0,0:0:0:0:
182,192,40980,128,0,41323:0:0:0:0:
109,192,40980,128,0,41323:0:0:0:0:
329,192,40980,128,0,41323:0:0:0:0:
402,192,40980,128,0,41323:0:0:0:0:
256,192,41494,128,0,41580:0:0:0:0:
182,192,41666,128,0,41751:0:0:0:0:
329,192,41666,128,0,41751:0:0:0:0:
109,192,41837,128,0,41923:0:0:0:0:
402,192,41837,128,0,41923:0:0:0:0:
182,192,42008,128,0,42180:0:0:0:0:
36,192,42008,128,0,42180:0:0:0:0:
329,192,42008,1,0,0:0:0:0:
475,192,42008,1,0,0:0:0:0:
109,192,42180,1,0,0:0:0:0:
475,192,42351,128,0,42523:0:0:0:0:
329,192,42351,128,0,42523:0:0:0:0:
36,192,42351,1,0,0:0:0:0:
182,192,42351,1,0,0:0:0:0:
402,192,42523,1,0,0:0:0:0:
182,192,42694,128,0,42866:0:0:0:0:
36,192,42694,128,0,42866:0:0:0:0:
329,192,42694,1,0,0:0:0:0:
475,192,42694,1,0,0:0:0:0:
109,192,42866,1,0,0:0:0:0:
329,192,43037,128,0,43208:0:0:0:0:
475,192,43037,128,0,43208:0:0:0:0:
182,192,43037,1,0,0:0:0:0:
36,192,43037,1,0,0:0:0:0:
182,192,43208,1,0,0:0:0:0:
36,192,43208,1,0,0:0:0:0:
109,192,43294,1,0,0:0:0:0:
256,192,43294,1,0,0:0:0:0:
402,192,43294,1,0,0:0:0:0:
36,192,43380,128,0,43466:0:0:0:0:
182,192,43380,128,0,43466:0:0:0:0:
329,192,43380,1,0,0:0:0:0:
475,192,43380,1,0,0:0:0:0:
109,192,43551,128,0,43637:0:0:0:0:
256,192,43551,128,0,43637:0:0:0:0:
182,192,43723,128,0,43808:0:0:0:0:
329,192,43723,128,0,43808:0:0:0:0:
256,192,43894,128,0,43980:0:0:0:0:
402,192,43894,128,0,43980:0:0:0:0:
475,192,44066,128,0,44151:0:0:0:0:
329,192,44066,128,0,44151:0:0:0:0:
402,192,44237,128,0,44323:0:0:0:0:
256,192,44237,128,0,44323:0:0:0:0:
329,192,44408,128,0,44494:0:0:0:0:
182,192,44408,128,0,44494:0:0:0:0:
475,192,44580,1,0,0:0:0:0:
36,192,44580,1,0,0:0:0:0:
402,192,44666,1,0,0:0:0:0:
109,192,44666,1,0,0:0:0:0:
329,192,44751,1,0,0:0:0:0:
36,192,44751,128,0,44837:0:0:0:0:
182,192,44751,1,0,0:0:0:0:
256,192,44751,1,0,0:0:0:0:
109,192,44923,128,0,45008:0:0:0:0:
475,192,44923,1,0,0:0:0:0:
182,192,45094,128,0,45180:0:0:0:0:
329,192,45094,1,0,0:0:0:0:
402,192,45094,1,0,0:0:0:0:
36,192,45266,128,0,45351:0:0:0:0:
475,192,45266,1,0,0:0:0:0:
182,192,45437,128,0,45523:0:0:0:0:
329,192,45437,1,0,0:0:0:0:
109,192,45608,128,0,45694:0:0:0:0:
475,192,45608,1,0,0:0:0:0:
182,192,45780,128,0,45866:0:0:0:0:
402,192,45780,1,0,0:0:0:0:
329,192,45780,1,0,0:0:0:0:
109,192,45951,128,0,46037:0:0:0:0:
475,192,45951,1,0,0:0:0:0:
36,192,46123,128,0,46208:0:0:0:0:
402,192,46123,1,0,0:0:0:0:
329,192,46294,1,0,0:0:0:0:
182,192,46294,1,0,0:0:0:0:
109,192,46466,1,0,0:0:0:0:
475,192,46466,1,0,0:0:0:0:
256,192,46637,1,0,0:0:0:0:
36,192,46637,128,0,47494:0:0:0:0:
329,192,46637,1,0,0:0:0:0:
475,192,46808,1,0,0:0:0:0:
182,192,46808,1,0,0:0:0:0:
402,192,46980,1,0,0:0:0:0:
475,192,47151,1,0,0:0:0:0:
109,192,47151,1,0,0:0:0:0:
402,192,47237,1,0,0:0:0:0:
329,192,47323,1,0,0:0:0:0:
402,192,47408,1,0,0:0:0:0:
475,192,47494,128,0,47580:0:0:0:0:
182,192,47494,1,0,0:0:0:0:
256,192,47494,1,0,0:0:0:0:
402,192,47666,128,0,47751:0:0:0:0:
36,192,47666,1,0,0:0:0:0:
329,192,47837,128,0,47923:0:0:0:0:
182,192,47837,1,0,0:0:0:0:
109,192,47837,1,0,0:0:0:0:
475,192,48008,128,0,48094:0:0:0:0:
36,192,48008,1,0,0:0:0:0:
329,192,48180,128,0,48266:0:0:0:0:
182,192,48180,1,0,0:0:0:0:
402,192,48351,128,0,48437:0:0:0:0:
36,192,48351,1,0,0:0:0:0:
329,192,48523,128,0,48608:0:0:0:0:
109,192,48523,1,0,0:0:0:0:
182,192,48523,1,0,0:0:0:0:
402,192,48694,128,0,48780:0:0:0:0:
36,192,48694,1,0,0:0:0:0:
475,192,48866,128,0,48951:0:0:0:0:
109,192,48866,1,0,0:0:0:0:
182,192,49037,1,0,0:0:0:0:
109,192,49208,1,0,0:0:0:0:
36,192,49208,1,0,0:0:0:0:
182,192,49380,1,0,0:0:0:0:
475,192,49380,128,0,50237:0:0:0:0:
36,192,49551,1,0,0:0:0:0:
182,192,49723,1,0,0:0:0:0:
402,192,49894,128,0,50237:0:0:0:0:
109,192,49894,1,0,0:0:0:0:
36,192,49894,1,0,0:0:0:0:
329,192,50066,128,0,50237:0:0:0:0:
256,192,50066,1,0,0:0:0:0:
36,192,50237,1,0,0:0:0:0:
109,192,50237,1,0,0:0:0:0:
182,192,50323,1,0,0:0:0:0:
329,192,50408,1,0,0:0:0:0:
36,192,50580,1,0,0:0:0:0:
475,192,50580,1,0,0:0:0:0:
109,192,50666,1,0,0:0:0:0:
182,192,50751,1,0,0:0:0:0:
256,192,50837,1,0,0:0:0:0:
475,192,50923,1,0,0:0:0:0:
329,192,50923,128,0,51151:0:0:0:0:
109,192,51094,1,0,0:0:0:0:
402,192,51151,128,0,51380:0:0:0:0:
36,192,51266,1,0,0:0:0:0:
182,192,51266,1,0,0:0:0:0:
475,192,51380,128,0,51608:0:0:0:0:
109,192,51437,1,0,0:0:0:0:
182,192,51608,1,0,0:0:0:0:
329,192,51608,128,0,51694:0:0:0:0:
256,192,51608,1,0,0:0:0:0:
109,192,51951,128,0,52294:0:0:0:0:
182,192,51951,128,0,52294:0:0:0:0:
402,192,51951,1,0,0:0:0:0:
475,192,51951,1,0,0:0:0:0:
109,192,52466,128,0,52551:0:0:0:0:
36,192,52466,128,0,52551:0:0:0:0:
329,192,52466,1,0,0:0:0:0:
182,192,52637,128,0,52723:0:0:0:0:
109,192,52637,128,0,52723:0:0:0:0:
402,192,52637,1,0,0:0:0:0:
256,192,52808,128,0,52894:0:0:0:0:
182,192,52808,128,0,52894:0:0:0:0:
475,192,52808,1,0,0:0:0:0:
36,192,52980,128,0,53066:0:0:0:0:
329,192,52980,1,0,0:0:0:0:
182,192,53066,128,0,53151:0:0:0:0:
109,192,53151,128,0,53237:0:0:0:0:
402,192,53151,128,0,53323:0:0:0:0:
475,192,53151,128,0,53323:0:0:0:0:
256,192,53237,128,0,53323:0:0:0:0:
36,192,53323,128,0,55037:0:0:0:0:
329,192,53323,1,0,0:0:0:0:
182,192,53323,1,0,0:0:0:0:
402,192,53494,1,0,0:0:0:0:
475,192,53494,1,0,0:0:0:0:
109,192,53666,1,0,0:0:0:0:
329,192,53837,128,0,54008:0:0:0:0:
402,192,53837,128,0,54008:0:0:0:0:
182,192,54008,1,0,0:0:0:0:
256,192,54008,1,0,0:0:0:0:
402,192,54180,1,0,0:0:0:0:
329,192,54180,1,0,0:0:0:0:
475,192,54351,1,0,0:0:0:0:
329,192,54523,128,0,54694:0:0:0:0:
256,192,54523,128,0,54694:0:0:0:0:
182,192,54694,1,0,0:0:0:0:
402,192,54694,1,0,0:0:0:0:
329,192,54866,1,0,0:0:0:0:
256,192,54866,1,0,0:0:0:0:
109,192,55037,1,0,0:0:0:0:
475,192,55037,1,0,0:0:0:0:
182,192,55123,1,0,0:0:0:0:
256,192,55208,1,0,0:0:0:0:
475,192,55208,1,0,0:0:0:0:
329,192,55294,1,0,0:0:0:0:
36,192,55380,1,0,0:0:0:0:
182,192,55380,1,0,0:0:0:0:
256,192,55466,1,0,0:0:0:0:
329,192,55551,1,0,0:0:0:0:
36,192,55551,1,0,0:0:0:0:
402,192,55637,1,0,0:0:0:0:
256,192,55723,1,0,0:0:0:0:
182,192,55723,128,0,55808:0:0:0:0:
109,192,55723,128,0,55808:0:0:0:0:
402,192,55808,128,0,55894:0:0:0:0:
329,192,55808,128,0,55894:0:0:0:0:
36,192,55894,128,0,55980:0:0:0:0:
109,192,55894,128,0,55980:0:0:0:0:
402,192,55980,128,0,56066:0:0:0:0:
475,192,55980,128,0,56066:0:0:0:0:
182,192,56066,128,0,56151:0:0:0:0:
109,192,56066,128,0,56151:0:0:0:0:
402,192,56151,128,0,56237:0:0:0:0:
329,192,56151,128,0,56237:0:0:0:0:
36,192,56237,128,0,56323:0:0:0:0:
109,192,56237,128,0,56323:0:0:0:0:
402,192,56323,128,0,56408:0:0:0:0:
475,192,56323,128,0,56408:0:0:0:0:
182,192,56408,128,0,56494:0:0:0:0:
109,192,56408,128,0,56494:0:0:0:0:
402,192,56494,128,0,56580:0:0:0:0:
329,192,56494,128,0,56580:0:0:0:0:
36,192,56580,128,0,56666:0:0:0:0:
109,192,56580,128,0,56666:0:0:0:0:
402,192,56666,128,0,56751:0:0:0:0:
475,192,56666,128,0,56751:0:0:0:0:
182,192,56751,128,0,56837:0:0:0:0:
109,192,56751,128,0,56837:0:0:0:0:
402,192,56837,128,0,56923:0:0:0:0:
329,192,56837,128,0,56923:0:0:0:0:
36,192,56923,128,0,57008:0:0:0:0:
109,192,56923,128,0,57008:0:0:0:0:
402,192,57008,128,0,57094:0:0:0:0:
475,192,57008,128,0,57094:0:0:0:0:
182,192,57094,128,0,57180:0:0:0:0:
109,192,57094,128,0,57180:0:0:0:0:
402,192,57180,128,0,57266:0:0:0:0:
329,192,57180,128,0,57266:0:0:0:0:
36,192,57266,128,0,57351:0:0:0:0:
109,192,57266,128,0,57351:0:0:0:0:
402,192,57351,128,0,57437:0:0:0:0:
475,192,57351,128,0,57437:0:0:0:0:
182,192,57437,128,0,57523:0:0:0:0:
109,192,57437,128,0,57523:0:0:0:0:
402,192,57523,128,0,57608:0:0:0:0:
329,192,57523,128,0,57608:0:0:0:0:
36,192,57608,128,0,57694:0:0:0:0:
109,192,57608,128,0,57694:0:0:0:0:
402,192,57694,128,0,57780:0:0:0:0:
475,192,57694,128,0,57780:0:0:0:0:
182,192,57780,128,0,57866:0:0:0:0:
256,192,57951,128,0,58037:0:0:0:0:
109,192,57951,128,0,58037:0:0:0:0:
182,192,57951,128,0,58037:0:0:0:0:
256,192,58123,128,0,58208:0:0:0:0:
182,192,58123,128,0,58208:0:0:0:0:
329,192,58123,128,0,58208:0:0:0:0:
402,192,58294,128,0,58380:0:0:0:0:
329,192,58294,128,0,58380:0:0:0:0:
256,192,58294,128,0,58380:0:0:0:0:
329,192,58466,128,0,58551:0:0:0:0:
402,192,58466,128,0,58551:0:0:0:0:
256,192,58466,1,0,0:0:0:0:
109,192,58551,128,0,58637:0:0:0:0:
182,192,58551,128,0,58637:0:0:0:0:
475,192,58637,128,0,58723:0:0:0:0:
402,192,58637,128,0,58723:0:0:0:0:
109,192,58723,128,0,58808:0:0:0:0:
36,192,58723,128,0,58808:0:0:0:0:
329,192,58808,128,0,58894:0:0:0:0:
402,192,58808,128,0,58894:0:0:0:0:
109,192,58894,128,0,58980:0:0:0:0:
182,192,58894,128,0,58980:0:0:0:0:
475,192,58980,128,0,59066:0:0:0:0:
402,192,58980,128,0,59066:0:0:0:0:
109,192,59066,128,0,59151:0:0:0:0:
36,192,59066,128,0,59151:0:0:0:0:
329,192,59151,128,0,59237:0:0:0:0:
402,192,59151,128,0,59237:0:0:0:0:
109,192,59237,128,0,59323:0:0:0:0:
182,192,59237,128,0,59323:0:0:0:0:
475,192,59323,128,0,59408:0:0:0:0:
402,192,59323,128,0,59408:0:0:0:0:
109,192,59408,128,0,59494:0:0:0:0:
36,192,59408,128,0,59494:0:0:0:0:
329,192,59494,128,0,59580:0:0:0:0:
402,192,59494,128,0,59580:0:0:0:0:
109,192,59580,128,0,59666:0:0:0:0:
182,192,59580,128,0,59666:0:0:0:0:
475,192,59666,128,0,59751:0:0:0:0:
402,192,59666,128,0,59751:0:0:0:0:
109,192,59751,128,0,59837:0:0:0:0:
36,192,59751,128,0,59837:0:0:0:0:
329,192,59837,128,0,59923:0:0:0:0:
402,192,59837,128,0,59923:0:0:0:0:
109,192,59923,128,0,60008:0:0:0:0:
182,192,59923,128,0,60008:0:0:0:0:
475,192,60008,128,0,60094:0:0:0:0:
402,192,60008,128,0,60094:0:0:0:0:
109,192,60094,128,0,60180:0:0:0:0:
36,192,60094,128,0,60180:0:0:0:0:
329,192,60180,128,0,60266:0:0:0:0:
402,192,60180,128,0,60266:0:0:0:0:
109,192,60266,128,0,60351:0:0:0:0:
182,192,60266,128,0,60351:0:0:0:0:
475,192,60351,128,0,60437:0:0:0:0:
402,192,60351,128,0,60437:0:0:0:0:
109,192,60437,128,0,60523:0:0:0:0:
36,192,60437,128,0,60523:0:0:0:0:
329,192,60523,128,0,60608:0:0:0:0:
329,192,60694,128,0,60780:0:0:0:0:
256,192,60694,128,0,60780:0:0:0:0:
402,192,60694,128,0,60780:0:0:0:0:
256,192,60866,128,0,60951:0:0:0:0:
329,192,60866,128,0,60951:0:0:0:0:
182,192,60866,128,0,60951:0:0:0:0:
109,192,61037,128,0,61123:0:0:0:0:
182,192,61037,128,0,61123:0:0:0:0:
256,192,61037,128,0,61123:0:0:0:0:
36,192,61208,1,0,0:0:0:0:
109,192,61208,1,0,0:0:0:0:
329,192,61208,1,0,0:0:0:0:
256,192,61208,1,0,0:0:0:0:
182,192,61380,1,0,0:0:0:0:
109,192,61380,1,0,0:0:0:0:
475,192,61380,1,0,0:0:0:0:
36,192,61551,1,0,0:0:0:0:
256,192,61551,1,0,0:0:0:0:
402,192,61551,1,0,0:0:0:0:
109,192,61723,1,0,0:0:0:0:
36,192,61723,1,0,0:0:0:0:
329,192,61723,1,0,0:0:0:0:
475,192,61894,1,0,0:0:0:0:
182,192,61894,1,0,0:0:0:0:
402,192,61894,1,0,0:0:0:0:
402,192,62066,1,0,0:0:0:0:
36,192,62066,1,0,0:0:0:0:
329,192,62066,1,0,0:0:0:0:
182,192,62237,1,0,0:0:0:0:
109,192,62237,1,0,0:0:0:0:
402,192,62294,1,0,0:0:0:0:
475,192,62294,1,0,0:0:0:0:
329,192,62351,1,0,0:0:0:0:
256,192,62351,1,0,0:0:0:0:
182,192,62408,1,0,0:0:0:0:
109,192,62408,1,0,0:0:0:0:
36,192,62408,1,0,0:0:0:0:
109,192,62580,1,0,0:0:0:0:
402,192,62580,1,0,0:0:0:0:
256,192,62580,1,0,0:0:0:0:
36,192,62923,128,0,63266:0:0:0:0:
256,192,62923,128,0,63266:0:0:0:0:
475,192,62923,128,0,63266:0:0:0:0:
182,192,63437,128,0,63523:0:0:0:0:
329,192,63437,128,0,63523:0:0:0:0:
109,192,63608,128,0,63694:0:0:0:0:
402,192,63608,128,0,63694:0:0:0:0:
36,192,63780,128,0,63866:0:0:0:0:
475,192,63780,128,0,63866:0:0:0:0:
402,192,63951,128,0,64037:0:0:0:0:
329,192,63951,1,0,0:0:0:0:
109,192,63951,128,0,64037:0:0:0:0:
182,192,63951,1,0,0:0:0:0:
182,192,64123,1,0,0:0:0:0:
475,192,64123,1,0,0:0:0:0:
109,192,64208,1,0,0:0:0:0:
402,192,64208,1,0,0:0:0:0:
36,192,64294,1,0,0:0:0:0:
329,192,64294,1,0,0:0:0:0:
256,192,64466,128,0,64551:0:0:0:0:
475,192,64466,128,0,64551:0:0:0:0:
36,192,64466,128,0,64551:0:0:0:0:
109,192,64637,128,0,64723:0:0:0:0:
182,192,64637,1,0,0:0:0:0:
402,192,64637,128,0,64723:0:0:0:0:
329,192,64637,1,0,0:0:0:0:
36,192,64808,1,0,0:0:0:0:
329,192,64808,1,0,0:0:0:0:
109,192,64894,1,0,0:0:0:0:
402,192,64894,1,0,0:0:0:0:
182,192,64980,1,0,0:0:0:0:
475,192,64980,1,0,0:0:0:0:
109,192,65151,128,0,65237:0:0:0:0:
256,192,65151,128,0,65237:0:0:0:0:
402,192,65151,128,0,65237:0:0:0:0:
182,192,65323,128,0,65494:0:0:0:0:
36,192,65323,128,0,65494:0:0:0:0:
329,192,65323,128,0,65494:0:0:0:0:
475,192,65323,128,0,65494:0:0:0:0:
256,192,65666,128,0,66008:0:0:0:0:
402,192,65666,128,0,66008:0:0:0:0:
109,192,65666,128,0,66008:0:0:0:0:
36,192,66008,128,0,66180:0:0:0:0:
182,192,66008,128,0,66180:0:0:0:0:
329,192,66008,128,0,66180:0:0:0:0:
475,192,66008,128,0,66180:0:0:0:0:
329,192,66351,1,0,0:0:0:0:
109,192,66351,1,0,0:0:0:0:
256,192,66437,1,0,0:0:0:0:
182,192,66523,1,0,0:0:0:0:
402,192,66608,1,0,0:0:0:0:
36,192,66694,1,0,0:0:0:0:
475,192,66694,1,0,0:0:0:0:
256,192,66866,1,0,0:0:0:0:
256,192,67037,1,0,0:0:0:0:
256,192,67208,1,0,0:0:0:0:
256,192,67380,1,0,0:0:0:0:
256,192,67551,1,0,0:0:0:0:
256,192,67723,1,0,0:0:0:0:
256,192,67894,1,0,0:0:0:0:
36,192,68066,1,0,0:0:0:0:
475,192,68066,1,0,0:0:0:0:
182,192,68237,1,0,0:0:0:0:
402,192,68408,1,0,0:0:0:0:
109,192,68408,1,0,0:0:0:0:
182,192,68580,1,0,0:0:0:0:
329,192,68751,1,0,0:0:0:0:
36,192,68751,1,0,0:0:0:0:
182,192,68923,1,0,0:0:0:0:
402,192,69094,1,0,0:0:0:0:
109,192,69094,1,0,0:0:0:0:
182,192,69266,1,0,0:0:0:0:
475,192,69437,1,0,0:0:0:0:
109,192,69437,1,0,0:0:0:0:
329,192,69608,1,0,0:0:0:0:
36,192,69780,1,0,0:0:0:0:
402,192,69780,1,0,0:0:0:0:
256,192,69951,1,0,0:0:0:0:
109,192,70123,1,0,0:0:0:0:
329,192,70123,1,0,0:0:0:0:
182,192,70294,1,0,0:0:0:0:
36,192,70466,1,0,0:0:0:0:
402,192,70466,1,0,0:0:0:0:
109,192,70637,1,0,0:0:0:0:
475,192,70808,1,0,0:0:0:0:
256,192,70808,1,0,0:0:0:0:
182,192,70980,1,0,0:0:0:0:
402,192,71151,1,0,0:0:0:0:
36,192,71151,1,0,0:0:0:0:
182,192,71323,1,0,0:0:0:0:
329,192,71494,1,0,0:0:0:0:
109,192,71494,1,0,0:0:0:0:
182,192,71666,1,0,0:0:0:0:
475,192,71837,1,0,0:0:0:0:
36,192,71837,1,0,0:0:0:0:
256,192,72008,1,0,0:0:0:0:
329,192,72180,1,0,0:0:0:0:
36,192,72180,1,0,0:0:0:0:
182,192,72180,1,0,0:0:0:0:
402,192,72266,1,0,0:0:0:0:
475,192,72351,1,0,0:0:0:0:
256,192,72351,1,0,0:0:0:0:
402,192,72437,1,0,0:0:0:0:
329,192,72523,1,0,0:0:0:0:
109,192,72523,1,0,0:0:0:0:
475,192,72608,1,0,0:0:0:0:
402,192,72694,1,0,0:0:0:0:
109,192,72694,1,0,0:0:0:0:
329,192,72780,1,0,0:0:0:0:
256,192,72866,1,0,0:0:0:0:
475,192,72866,1,0,0:0:0:0:
36,192,72866,1,0,0:0:0:0:
329,192,72951,1,0,0:0:0:0:
402,192,73037,1,0,0:0:0:0:
182,192,73037,1,0,0:0:0:0:
329,192,73123,1,0,0:0:0:0:
256,192,73208,1,0,0:0:0:0:
36,192,73208,1,0,0:0:0:0:
402,192,73294,1,0,0:0:0:0:
329,192,73380,1,0,0:0:0:0:
36,192,73380,1,0,0:0:0:0:
256,192,73466,1,0,0:0:0:0:
402,192,73551,1,0,0:0:0:0:
182,192,73551,1,0,0:0:0:0:
475,192,73551,1,0,0:0:0:0:
256,192,73637,1,0,0:0:0:0:
329,192,73723,1,0,0:0:0:0:
109,192,73723,1,0,0:0:0:0:
256,192,73808,1,0,0:0:0:0:
475,192,73894,1,0,0:0:0:0:
182,192,73894,1,0,0:0:0:0:
329,192,73980,1,0,0:0:0:0:
475,192,74066,1,0,0:0:0:0:
256,192,74066,1,0,0:0:0:0:
182,192,74151,1,0,0:0:0:0:
402,192,74237,1,0,0:0:0:0:
109,192,74237,1,0,0:0:0:0:
329,192,74237,1,0,0:0:0:0:
182,192,74323,1,0,0:0:0:0:
36,192,74408,1,0,0:0:0:0:
256,192,74408,1,0,0:0:0:0:
182,192,74494,1,0,0:0:0:0:
109,192,74580,1,0,0:0:0:0:
402,192,74580,1,0,0:0:0:0:
256,192,74666,1,0,0:0:0:0:
402,192,74751,1,0,0:0:0:0:
182,192,74751,1,0,0:0:0:0:
109,192,74837,1,0,0:0:0:0:
182,192,74923,1,0,0:0:0:0:
475,192,74923,1,0,0:0:0:0:
329,192,74923,1,0,0:0:0:0:
109,192,75008,1,0,0:0:0:0:
36,192,75094,1,0,0:0:0:0:
256,192,75094,1,0,0:0:0:0:
109,192,75180,1,0,0:0:0:0:
182,192,75266,1,0,0:0:0:0:
402,192,75266,1,0,0:0:0:0:
36,192,75351,1,0,0:0:0:0:
109,192,75437,1,0,0:0:0:0:
402,192,75437,1,0,0:0:0:0:
182,192,75523,1,0,0:0:0:0:
256,192,75608,1,0,0:0:0:0:
36,192,75608,1,0,0:0:0:0:
475,192,75608,1,0,0:0:0:0:
182,192,75694,1,0,0:0:0:0:
109,192,75780,1,0,0:0:0:0:
329,192,75780,1,0,0:0:0:0:
182,192,75866,1,0,0:0:0:0:
256,192,75951,1,0,0:0:0:0:
475,192,75951,1,0,0:0:0:0:
109,192,76037,1,0,0:0:0:0:
182,192,76123,1,0,0:0:0:0:
475,192,76123,1,0,0:0:0:0:
256,192,76208,1,0,0:0:0:0:
109,192,76294,1,0,0:0:0:0:
329,192,76294,1,0,0:0:0:0:
36,192,76294,1,0,0:0:0:0:
256,192,76380,1,0,0:0:0:0:
182,192,76466,1,0,0:0:0:0:
402,192,76466,1,0,0:0:0:0:
256,192,76551,1,0,0:0:0:0:
36,192,76637,1,0,0:0:0:0:
329,192,76637,1,0,0:0:0:0:
182,192,76723,1,0,0:0:0:0:
36,192,76808,1,0,0:0:0:0:
256,192,76808,1,0,0:0:0:0:
329,192,76894,1,0,0:0:0:0:
109,192,76980,1,0,0:0:0:0:
402,192,76980,1,0,0:0:0:0:
182,192,76980,1,0,0:0:0:0:
329,192,77066,1,0,0:0:0:0:
475,192,77151,1,0,0:0:0:0:
256,192,77151,1,0,0:0:0:0:
329,192,77237,1,0,0:0:0:0:
402,192,77323,1,0,0:0:0:0:
109,192,77323,1,0,0:0:0:0:
256,192,77408,1,0,0:0:0:0:
109,192,77494,1,0,0:0:0:0:
329,192,77494,1,0,0:0:0:0:
402,192,77580,1,0,0:0:0:0:
182,192,77666,1,0,0:0:0:0:
36,192,77666,1,0,0:0:0:0:
475,192,77666,1,0,0:0:0:0:
36,192,77923,1,0,0:0:0:0:
109,192,77966,1,0,0:0:0:0:
182,192,78008,1,0,0:0:0:0:
256,192,78051,1,0,0:0:0:0:
329,192,78266,1,0,0:0:0:0:
402,192,78266,1,0,0:0:0:0:
36,192,78266,1,0,0:0:0:0:
109,192,78308,1,0,0:0:0:0:
329,192,78351,1,0,0:0:0:0:
402,192,78351,1,0,0:0:0:0:
182,192,78351,1,0,0:0:0:0:
256,192,78394,1,0,0:0:0:0:
36,192,78608,1,0,0:0:0:0:
109,192,78651,1,0,0:0:0:0:
182,192,78694,1,0,0:0:0:0:
256,192,78737,1,0,0:0:0:0:
182,192,78951,1,0,0:0:0:0:
36,192,78951,1,0,0:0:0:0:
475,192,78951,1,0,0:0:0:0:
402,192,78994,1,0,0:0:0:0:
182,192,79037,1,0,0:0:0:0:
36,192,79037,1,0,0:0:0:0:
329,192,79037,1,0,0:0:0:0:
256,192,79080,1,0,0:0:0:0:
402,192,79294,1,0,0:0:0:0:
329,192,79337,1,0,0:0:0:0:
256,192,79380,1,0,0:0:0:0:
182,192,79423,1,0,0:0:0:0:
36,192,79637,1,0,0:0:0:0:
109,192,79637,1,0,0:0:0:0:
475,192,79637,1,0,0:0:0:0:
402,192,79680,1,0,0:0:0:0:
36,192,79723,1,0,0:0:0:0:
109,192,79723,1,0,0:0:0:0:
329,192,79723,1,0,0:0:0:0:
256,192,79766,1,0,0:0:0:0:
402,192,79980,1,0,0:0:0:0:
329,192,80023,1,0,0:0:0:0:
256,192,80066,1,0,0:0:0:0:
182,192,80108,1,0,0:0:0:0:
402,192,80323,1,0,0:0:0:0:
329,192,80323,1,0,0:0:0:0:
36,192,80323,1,0,0:0:0:0:
109,192,80366,1,0,0:0:0:0:
329,192,80408,1,0,0:0:0:0:
402,192,80408,1,0,0:0:0:0:
182,192,80408,1,0,0:0:0:0:
256,192,80451,1,0,0:0:0:0:
109,192,80666,1,0,0:0:0:0:
182,192,80708,1,0,0:0:0:0:
256,192,80751,1,0,0:0:0:0:
329,192,80794,1,0,0:0:0:0:
475,192,81008,1,0,0:0:0:0:
402,192,81008,1,0,0:0:0:0:
36,192,81008,1,0,0:0:0:0:
109,192,81051,1,0,0:0:0:0:
402,192,81094,1,0,0:0:0:0:
475,192,81094,1,0,0:0:0:0:
182,192,81094,1,0,0:0:0:0:
256,192,81137,1,0,0:0:0:0:
109,192,81351,1,0,0:0:0:0:
182,192,81394,1,0,0:0:0:0:
256,192,81437,1,0,0:0:0:0:
329,192,81480,1,0,0:0:0:0:
109,192,81694,1,0,0:0:0:0:
36,192,81694,1,0,0:0:0:0:
475,192,81694,1,0,0:0:0:0:
402,192,81737,1,0,0:0:0:0:
109,192,81780,1,0,0:0:0:0:
36,192,81780,1,0,0:0:0:0:
329,192,81780,1,0,0:0:0:0:
256,192,81823,1,0,0:0:0:0:
475,192,82037,1,0,0:0:0:0:
402,192,82080,1,0,0:0:0:0:
329,192,82123,1,0,0:0:0:0:
256,192,82166,1,0,0:0:0:0:
182,192,82380,1,0,0:0:0:0:
36,192,82380,1,0,0:0:0:0:
475,192,82380,1,0,0:0:0:0:
402,192,82423,1,0,0:0:0:0:
36,192,82466,1,0,0:0:0:0:
182,192,82466,1,0,0:0:0:0:
329,192,82466,1,0,0:0:0:0:
256,192,82508,1,0,0:0:0:0:
402,192,82723,1,0,0:0:0:0:
329,192,82766,1,0,0:0:0:0:
256,192,82808,1,0,0:0:0:0:
182,192,82851,1,0,0:0:0:0:
36,192,83066,1,0,0:0:0:0:
109,192,83108,1,0,0:0:0:0:
329,192,83151,1,0,0:0:0:0:
402,192,83151,1,0,0:0:0:0:
182,192,83151,1,0,0:0:0:0:
256,192,83194,1,0,0:0:0:0:
109,192,83408,1,0,0:0:0:0:
182,192,83451,1,0,0:0:0:0:
256,192,83494,1,0,0:0:0:0:
329,192,83537,1,0,0:0:0:0:
402,192,83751,1,0,0:0:0:0:
475,192,83751,1,0,0:0:0:0:
36,192,83751,1,0,0:0:0:0:
109,192,83794,1,0,0:0:0:0:
402,192,83837,1,0,0:0:0:0:
475,192,83837,1,0,0:0:0:0:
182,192,83837,1,0,0:0:0:0:
256,192,83880,1,0,0:0:0:0:
109,192,84094,1,0,0:0:0:0:
182,192,84137,1,0,0:0:0:0:
256,192,84180,1,0,0:0:0:0:
329,192,84223,1,0,0:0:0:0:
182,192,84437,1,0,0:0:0:0:
36,192,84437,1,0,0:0:0:0:
475,192,84437,1,0,0:0:0:0:
402,192,84480,1,0,0:0:0:0:
36,192,84523,1,0,0:0:0:0:
182,192,84523,1,0,0:0:0:0:
329,192,84523,1,0,0:0:0:0:
256,192,84566,1,0,0:0:0:0:
402,192,84780,1,0,0:0:0:0:
329,192,84823,1,0,0:0:0:0:
256,192,84866,1,0,0:0:0:0:
182,192,84908,1,0,0:0:0:0:
36,192,85123,1,0,0:0:0:0:
109,192,85123,1,0,0:0:0:0:
475,192,85123,1,0,0:0:0:0:
402,192,85166,1,0,0:0:0:0:
36,192,85208,1,0,0:0:0:0:
109,192,85208,1,0,0:0:0:0:
329,192,85208,1,0,0:0:0:0:
256,192,85251,1,0,0:0:0:0:
402,192,85466,1,0,0:0:0:0:
329,192,85508,1,0,0:0:0:0:
256,192,85551,1,0,0:0:0:0:
182,192,85594,1,0,0:0:0:0:
329,192,85808,1,0,0:0:0:0:
475,192,85808,1,0,0:0:0:0:
36,192,85808,1,0,0:0:0:0:
109,192,85851,1,0,0:0:0:0:
329,192,85894,1,0,0:0:0:0:
475,192,85894,1,0,0:0:0:0:
182,192,85894,1,0,0:0:0:0:
256,192,85937,1,0,0:0:0:0:
109,192,86151,1,0,0:0:0:0:
182,192,86194,1,0,0:0:0:0:
256,192,86237,1,0,0:0:0:0:
329,192,86280,1,0,0:0:0:0:
402,192,86494,1,0,0:0:0:0:
475,192,86494,1,0,0:0:0:0:
36,192,86494,1,0,0:0:0:0:
109,192,86537,1,0,0:0:0:0:
402,192,86580,1,0,0:0:0:0:
475,192,86580,1,0,0:0:0:0:
182,192,86580,1,0,0:0:0:0:
256,192,86623,1,0,0:0:0:0:
109,192,86837,1,0,0:0:0:0:
182,192,86880,1,0,0:0:0:0:
256,192,86923,1,0,0:0:0:0:
329,192,86966,1,0,0:0:0:0:
36,192,87180,1,0,0:0:0:0:
182,192,87180,1,0,0:0:0:0:
475,192,87180,1,0,0:0:0:0:
402,192,87223,1,0,0:0:0:0:
36,192,87266,1,0,0:0:0:0:
182,192,87266,1,0,0:0:0:0:
329,192,87266,1,0,0:0:0:0:
256,192,87308,1,0,0:0:0:0:
36,192,87523,1,0,0:0:0:0:
109,192,87566,1,0,0:0:0:0:
182,192,87608,1,0,0:0:0:0:
256,192,87651,1,0,0:0:0:0:
182,192,87951,1,0,0:0:0:0:
475,192,87951,128,0,88637:0:0:0:0:
109,192,88123,1,0,0:0:0:0:
182,192,88294,1,0,0:0:0:0:
36,192,88466,1,0,0:0:0:0:
402,192,88637,1,0,0:0:0:0:
256,192,88637,1,0,0:0:0:0:
182,192,88637,1,0,0:0:0:0:
329,192,88637,128,0,91037:0:0:0:0:
109,192,88808,1,0,0:0:0:0:
182,192,88980,1,0,0:0:0:0:
36,192,89151,1,0,0:0:0:0:
182,192,89323,1,0,0:0:0:0:
109,192,89494,1,0,0:0:0:0:
182,192,89666,1,0,0:0:0:0:
36,192,89837,1,0,0:0:0:0:
182,192,90008,1,0,0:0:0:0:
109,192,90180,1,0,0:0:0:0:
182,192,90351,1,0,0:0:0:0:
36,192,90523,1,0,0:0:0:0:
182,192,90694,1,0,0:0:0:0:
109,192,90866,1,0,0:0:0:0:
182,192,91037,1,0,0:0:0:0:
36,192,91208,1,0,0:0:0:0:
256,192,91380,1,0,0:0:0:0:
109,192,91380,1,0,0:0:0:0:
475,192,91380,1,0,0:0:0:0:
329,192,91466,1,0,0:0:0:0:
256,192,91551,1,0,0:0:0:0:
182,192,91637,1,0,0:0:0:0:
36,192,91723,1,0,0:0:0:0:
109,192,91723,1,0,0:0:0:0:
475,192,91808,1,0,0:0:0:0:
256,192,91808,1,0,0:0:0:0:
182,192,91894,1,0,0:0:0:0:
402,192,91894,1,0,0:0:0:0:
109,192,91980,1,0,0:0:0:0:
329,192,91980,1,0,0:0:0:0:
36,192,92066,1,0,0:0:0:0:
256,192,92066,1,0,0:0:0:0:
475,192,92151,1,0,0:0:0:0:
402,192,92151,1,0,0:0:0:0:
182,192,92237,1,0,0:0:0:0:
109,192,92237,1,0,0:0:0:0:
256,192,92237,1,0,0:0:0:0:
402,192,92323,1,0,0:0:0:0:
329,192,92323,1,0,0:0:0:0:
36,192,92408,1,0,0:0:0:0:
109,192,92408,1,0,0:0:0:0:
182,192,92408,1,0,0:0:0:0:
256,192,92494,1,0,0:0:0:0:
329,192,92494,1,0,0:0:0:0:
109,192,92580,1,0,0:0:0:0:
402,192,92580,1,0,0:0:0:0:
475,192,92580,1,0,0:0:0:0:
36,192,92580,1,0,0:0:0:0:
182,192,92666,1,0,0:0:0:0:
256,192,92666,1,0,0:0:0:0:
36,192,92751,128,0,92837:0:0:0:0:
329,192,92751,128,0,92837:0:0:0:0:
475,192,92751,1,0,0:0:0:0:
402,192,92751,1,0,0:0:0:0:
182,192,92923,128,0,93008:0:0:0:0:
475,192,92923,128,0,93008:0:0:0:0:
109,192,93094,128,0,93180:0:0:0:0:
402,192,93094,128,0,93180:0:0:0:0:
36,192,93266,128,0,93351:0:0:0:0:
329,192,93266,128,0,93351:0:0:0:0:
475,192,93437,128,0,93523:0:0:0:0:
256,192,93437,128,0,93523:0:0:0:0:
182,192,93608,128,0,93694:0:0:0:0:
402,192,93608,128,0,93694:0:0:0:0:
329,192,93780,128,0,93866:0:0:0:0:
109,192,93780,128,0,93866:0:0:0:0:
36,192,93951,128,0,94037:0:0:0:0:
256,192,93951,128,0,94037:0:0:0:0:
402,192,94123,1,0,0:0:0:0:
182,192,94123,1,0,0:0:0:0:
36,192,94123,1,0,0:0:0:0:
256,192,94123,1,0,0:0:0:0:
109,192,94294,1,0,0:0:0:0:
475,192,94294,1,0,0:0:0:0:
36,192,94466,1,0,0:0:0:0:
402,192,94466,1,0,0:0:0:0:
256,192,94637,1,0,0:0:0:0:
109,192,94637,1,0,0:0:0:0:
475,192,94637,1,0,0:0:0:0:
182,192,94694,1,0,0:0:0:0:
329,192,94751,1,0,0:0:0:0:
475,192,94808,1,0,0:0:0:0:
256,192,94808,1,0,0:0:0:0:
109,192,94808,1,0,0:0:0:0:
402,192,94808,1,0,0:0:0:0:
329,192,94980,1,0,0:0:0:0:
36,192,94980,1,0,0:0:0:0:
402,192,95151,1,0,0:0:0:0:
109,192,95151,1,0,0:0:0:0:
256,192,95323,1,0,0:0:0:0:
402,192,95323,1,0,0:0:0:0:
36,192,95323,1,0,0:0:0:0:
329,192,95380,1,0,0:0:0:0:
182,192,95437,1,0,0:0:0:0:
36,192,95494,1,0,0:0:0:0:
256,192,95494,1,0,0:0:0:0:
402,192,95494,1,0,0:0:0:0:
109,192,95494,1,0,0:0:0:0:
36,192,95837,1,0,0:0:0:0:
475,192,95837,1,0,0:0:0:0:
402,192,95837,1,0,0:0:0:0:
475,192,96523,1,0,0:0:0:0:
36,192,96523,1,0,0:0:0:0:
182,192,96523,1,0,0:0:0:0:
256,192,96694,1,0,0:0:0:0:
109,192,96694,1,0,0:0:0:0:
182,192,96751,1,0,0:0:0:0:
329,192,96808,1,0,0:0:0:0:
256,192,96866,1,0,0:0:0:0:
402,192,96866,1,0,0:0:0:0:
109,192,96866,1,0,0:0:0:0:
475,192,96866,1,0,0:0:0:0:
475,192,97208,1,0,0:0:0:0:
329,192,97208,1,0,0:0:0:0:
182,192,97208,1,0,0:0:0:0:
256,192,97380,1,0,0:0:0:0:
402,192,97380,1,0,0:0:0:0:
329,192,97437,1,0,0:0:0:0:
182,192,97494,1,0,0:0:0:0:
109,192,97551,1,0,0:0:0:0:
256,192,97551,1,0,0:0:0:0:
402,192,97551,1,0,0:0:0:0:
36,192,97551,1,0,0:0:0:0:
182,192,97894,1,0,0:0:0:0:
36,192,97894,1,0,0:0:0:0:
329,192,97894,1,0,0:0:0:0:
256,192,98066,1,0,0:0:0:0:
109,192,98066,1,0,0:0:0:0:
182,192,98123,1,0,0:0:0:0:
329,192,98180,1,0,0:0:0:0:
256,192,98237,1,0,0:0:0:0:
475,192,98237,1,0,0:0:0:0:
109,192,98237,1,0,0:0:0:0:
402,192,98237,1,0,0:0:0:0:
36,192,98580,1,0,0:0:0:0:
182,192,98580,1,0,0:0:0:0:
475,192,98580,1,0,0:0:0:0:
256,192,98751,1,0,0:0:0:0:
402,192,98751,1,0,0:0:0:0:
109,192,98751,1,0,0:0:0:0:
329,192,98808,1,0,0:0:0:0:
182,192,98866,1,0,0:0:0:0:
475,192,98923,1,0,0:0:0:0:
36,192,98923,1,0,0:0:0:0:
109,192,98923,1,0,0:0:0:0:
256,192,98923,1,0,0:0:0:0:
329,192,98980,1,0,0:0:0:0:
402,192,99037,1,0,0:0:0:0:
36,192,99094,1,0,0:0:0:0:
109,192,99151,1,0,0:0:0:0:
182,192,99208,1,0,0:0:0:0:
475,192,99266,1,0,0:0:0:0:
329,192,99266,1,0,0:0:0:0:
256,192,99323,1,0,0:0:0:0:
109,192,99380,1,0,0:0:0:0:
36,192,99437,1,0,0:0:0:0:
402,192,99494,1,0,0:0:0:0:
475,192,99551,1,0,0:0:0:0:
182,192,99608,1,0,0:0:0:0:
256,192,99608,1,0,0:0:0:0:
329,192,99608,1,0,0:0:0:0:
109,192,99694,1,0,0:0:0:0:
36,192,99780,1,0,0:0:0:0:
402,192,99780,1,0,0:0:0:0:
109,192,99866,1,0,0:0:0:0:
182,192,99951,1,0,0:0:0:0:
329,192,99951,1,0,0:0:0:0:
475,192,99951,1,0,0:0:0:0:
109,192,100037,1,0,0:0:0:0:
36,192,100123,1,0,0:0:0:0:
475,192,100123,1,0,0:0:0:0:
402,192,100208,1,0,0:0:0:0:
109,192,100208,1,0,0:0:0:0:
182,192,100294,1,0,0:0:0:0:
329,192,100294,1,0,0:0:0:0:
36,192,100466,1,0,0:0:0:0:
402,192,100466,1,0,0:0:0:0:
256,192,100637,1,0,0:0:0:0:
182,192,100637,1,0,0:0:0:0:
475,192,100637,1,0,0:0:0:0:
109,192,100808,1,0,0:0:0:0:
402,192,100808,1,0,0:0:0:0:
402,192,100980,1,0,0:0:0:0:
109,192,100980,1,0,0:0:0:0:
475,192,101066,1,0,0:0:0:0:
329,192,101151,1,0,0:0:0:0:
256,192,101323,1,0,0:0:0:0:
109,192,101323,1,0,0:0:0:0:
402,192,101323,1,0,0:0:0:0:
36,192,101494,1,0,0:0:0:0:
256,192,101580,1,0,0:0:0:0:
402,192,101666,1,0,0:0:0:0:
109,192,101666,1,0,0:0:0:0:
256,192,101837,1,0,0:0:0:0:
36,192,102008,1,0,0:0:0:0:
182,192,102008,1,0,0:0:0:0:
475,192,102008,1,0,0:0:0:0:
256,192,102180,1,0,0:0:0:0:
329,192,102351,1,0,0:0:0:0:
109,192,102351,128,0,102523:0:0:0:0:
36,192,102351,1,0,0:0:0:0:
182,192,102351,1,0,0:0:0:0:
402,192,102437,1,0,0:0:0:0:
475,192,102523,1,0,0:0:0:0:
402,192,102608,1,0,0:0:0:0:
329,192,102694,1,0,0:0:0:0:
36,192,102694,128,0,102866:0:0:0:0:
109,192,102694,1,0,0:0:0:0:
182,192,102694,1,0,0:0:0:0:
256,192,102780,1,0,0:0:0:0:
182,192,102866,1,0,0:0:0:0:
256,192,102951,1,0,0:0:0:0:
329,192,103037,1,0,0:0:0:0:
402,192,103037,128,0,103208:0:0:0:0:
475,192,103037,1,0,0:0:0:0:
109,192,103037,1,0,0:0:0:0:
256,192,103123,1,0,0:0:0:0:
182,192,103208,1,0,0:0:0:0:
109,192,103294,1,0,0:0:0:0:
329,192,103380,1,0,0:0:0:0:
475,192,103380,128,0,103551:0:0:0:0:
36,192,103380,1,0,0:0:0:0:
402,192,103380,1,0,0:0:0:0:
109,192,103466,1,0,0:0:0:0:
182,192,103551,1,0,0:0:0:0:
109,192,103637,1,0,0:0:0:0:
36,192,103723,1,0,0:0:0:0:
182,192,103723,1,0,0:0:0:0:
475,192,103723,1,0,0:0:0:0:
329,192,103723,1,0,0:0:0:0:
109,192,104066,1,0,0:0:0:0:
402,192,104066,1,0,0:0:0:0:
36,192,104066,128,0,104751:0:0:0:0:
256,192,104066,128,0,104751:0:0:0:0:
475,192,104066,128,0,104751:0:0:0:0:
109,192,104323,1,0,0:0:0:0:
402,192,104323,1,0,0:0:0:0:
182,192,104408,1,0,0:0:0:0:
329,192,104408,1,0,0:0:0:0:
109,192,104580,1,0,0:0:0:0:
402,192,104580,1,0,0:0:0:0:
402,192,104751,1,0,0:0:0:0:
109,192,104751,1,0,0:0:0:0:
182,192,104751,128,0,104923:0:0:0:0:
329,192,104751,128,0,104923:0:0:0:0:
256,192,104923,1,0,0:0:0:0:
182,192,105094,1,0,0:0:0:0:
402,192,105094,128,0,105266:0:0:0:0:
475,192,105094,1,0,0:0:0:0:
329,192,105094,1,0,0:0:0:0:
109,192,105180,1,0,0:0:0:0:
36,192,105266,1,0,0:0:0:0:
109,192,105351,1,0,0:0:0:0:
182,192,105437,1,0,0:0:0:0:
475,192,105437,128,0,105608:0:0:0:0:
402,192,105437,1,0,0:0:0:0:
329,192,105437,1,0,0:0:0:0:
256,192,105523,1,0,0:0:0:0:
329,192,105608,1,0,0:0:0:0:
256,192,105694,1,0,0:0:0:0:
182,192,105780,1,0,0:0:0:0:
109,192,105780,128,0,105951:0:0:0:0:
36,192,105780,1,0,0:0:0:0:
402,192,105780,1,0,0:0:0:0:
256,192,105866,1,0,0:0:0:0:
329,192,105951,1,0,0:0:0:0:
402,192,106037,1,0,0:0:0:0:
182,192,106123,1,0,0:0:0:0:
36,192,106123,128,0,106294:0:0:0:0:
475,192,106123,1,0,0:0:0:0:
256,192,106123,1,0,0:0:0:0:
402,192,106208,1,0,0:0:0:0:
329,192,106294,1,0,0:0:0:0:
402,192,106380,1,0,0:0:0:0:
475,192,106466,1,0,0:0:0:0:
182,192,106466,1,0,0:0:0:0:
109,192,106466,1,0,0:0:0:0:
402,192,106637,1,0,0:0:0:0:
36,192,106723,1,0,0:0:0:0:
475,192,106808,1,0,0:0:0:0:
109,192,106808,1,0,0:0:0:0:
329,192,106808,1,0,0:0:0:0:
256,192,106894,1,0,0:0:0:0:
36,192,106980,1,0,0:0:0:0:
182,192,107066,1,0,0:0:0:0:
402,192,107066,1,0,0:0:0:0:
329,192,107151,1,0,0:0:0:0:
475,192,107151,1,0,0:0:0:0:
109,192,107237,1,0,0:0:0:0:
36,192,107323,1,0,0:0:0:0:
402,192,107323,1,0,0:0:0:0:
256,192,107408,1,0,0:0:0:0:
475,192,107494,1,0,0:0:0:0:
109,192,107494,1,0,0:0:0:0:
182,192,107494,1,0,0:0:0:0:
329,192,107580,1,0,0:0:0:0:
402,192,107666,1,0,0:0:0:0:
109,192,107837,128,0,107923:0:0:0:0:
475,192,107837,1,0,0:0:0:0:
182,192,107837,1,0,0:0:0:0:
256,192,107837,1,0,0:0:0:0:
36,192,107923,128,0,108008:0:0:0:0:
402,192,107923,1,0,0:0:0:0:
109,192,108008,128,0,108094:0:0:0:0:
329,192,108008,1,0,0:0:0:0:
182,192,108094,128,0,108180:0:0:0:0:
256,192,108094,1,0,0:0:0:0:
109,192,108180,128,0,108266:0:0:0:0:
475,192,108180,1,0,0:0:0:0:
36,192,108266,128,0,108351:0:0:0:0:
402,192,108266,1,0,0:0:0:0:
109,192,108351,128,0,108437:0:0:0:0:
329,192,108351,1,0,0:0:0:0:
182,192,108437,128,0,108523:0:0:0:0:
402,192,108437,1,0,0:0:0:0:
256,192,108523,128,0,108608:0:0:0:0:
475,192,108523,1,0,0:0:0:0:
182,192,108608,128,0,108694:0:0:0:0:
36,192,108608,1,0,0:0:0:0:
256,192,108694,128,0,108780:0:0:0:0:
402,192,108694,1,0,0:0:0:0:
329,192,108780,128,0,108866:0:0:0:0:
109,192,108780,1,0,0:0:0:0:
256,192,108866,128,0,108951:0:0:0:0:
475,192,108866,1,0,0:0:0:0:
182,192,108951,128,0,109037:0:0:0:0:
36,192,108951,1,0,0:0:0:0:
256,192,109037,128,0,109123:0:0:0:0:
402,192,109037,1,0,0:0:0:0:
329,192,109123,128,0,109208:0:0:0:0:
109,192,109123,1,0,0:0:0:0:
402,192,109208,128,0,109294:0:0:0:0:
36,192,109208,1,0,0:0:0:0:
475,192,109294,128,0,109380:0:0:0:0:
109,192,109294,1,0,0:0:0:0:
402,192,109380,128,0,109466:0:0:0:0:
182,192,109380,1,0,0:0:0:0:
329,192,109466,128,0,109551:0:0:0:0:
256,192,109466,1,0,0:0:0:0:
402,192,109551,128,0,109637:0:0:0:0:
36,192,109551,1,0,0:0:0:0:
475,192,109637,128,0,109723:0:0:0:0:
109,192,109637,1,0,0:0:0:0:
182,192,109723,1,0,0:0:0:0:
402,192,109723,128,0,109808:0:0:0:0:
329,192,109808,128,0,109894:0:0:0:0:
109,192,109808,1,0,0:0:0:0:
256,192,109894,128,0,109980:0:0:0:0:
36,192,109894,1,0,0:0:0:0:
329,192,109980,128,0,110066:0:0:0:0:
475,192,109980,1,0,0:0:0:0:
256,192,110066,128,0,110151:0:0:0:0:
109,192,110066,1,0,0:0:0:0:
182,192,110151,128,0,110237:0:0:0:0:
402,192,110151,1,0,0:0:0:0:
256,192,110237,128,0,110323:0:0:0:0:
36,192,110237,1,0,0:0:0:0:
329,192,110323,128,0,110408:0:0:0:0:
475,192,110323,1,0,0:0:0:0:
256,192,110408,128,0,110494:0:0:0:0:
109,192,110408,1,0,0:0:0:0:
182,192,110494,128,0,110580:0:0:0:0:
402,192,110494,1,0,0:0:0:0:
109,192,110580,128,0,110666:0:0:0:0:
475,192,110580,1,0,0:0:0:0:
36,192,110666,128,0,110751:0:0:0:0:
402,192,110666,1,0,0:0:0:0:
109,192,110751,128,0,110837:0:0:0:0:
329,192,110751,1,0,0:0:0:0:
182,192,110837,128,0,110923:0:0:0:0:
256,192,110837,1,0,0:0:0:0:
109,192,110923,128,0,111008:0:0:0:0:
475,192,110923,1,0,0:0:0:0:
36,192,111008,128,0,111094:0:0:0:0:
402,192,111008,1,0,0:0:0:0:
109,192,111094,128,0,111180:0:0:0:0:
329,192,111094,1,0,0:0:0:0:
182,192,111180,128,0,111266:0:0:0:0:
402,192,111180,1,0,0:0:0:0:
256,192,111266,128,0,111351:0:0:0:0:
475,192,111266,1,0,0:0:0:0:
182,192,111351,128,0,111437:0:0:0:0:
36,192,111351,1,0,0:0:0:0:
256,192,111437,128,0,111523:0:0:0:0:
402,192,111437,1,0,0:0:0:0:
329,192,111523,128,0,111608:0:0:0:0:
109,192,111523,1,0,0:0:0:0:
256,192,111608,128,0,111694:0:0:0:0:
475,192,111608,1,0,0:0:0:0:
182,192,111694,128,0,111780:0:0:0:0:
36,192,111694,1,0,0:0:0:0:
256,192,111780,128,0,111866:0:0:0:0:
402,192,111780,1,0,0:0:0:0:
329,192,111866,128,0,111951:0:0:0:0:
109,192,111866,1,0,0:0:0:0:
402,192,111951,128,0,112037:0:0:0:0:
36,192,111951,1,0,0:0:0:0:
475,192,112037,128,0,112123:0:0:0:0:
109,192,112037,1,0,0:0:0:0:
402,192,112123,128,0,112208:0:0:0:0:
182,192,112123,1,0,0:0:0:0:
329,192,112208,128,0,112294:0:0:0:0:
256,192,112208,1,0,0:0:0:0:
402,192,112294,128,0,112380:0:0:0:0:
36,192,112294,1,0,0:0:0:0:
475,192,112380,128,0,112466:0:0:0:0:
109,192,112380,1,0,0:0:0:0:
182,192,112466,1,0,0:0:0:0:
402,192,112466,128,0,112551:0:0:0:0:
329,192,112551,128,0,112637:0:0:0:0:
109,192,112551,1,0,0:0:0:0:
256,192,112637,128,0,112723:0:0:0:0:
36,192,112637,1,0,0:0:0:0:
475,192,112723,1,0,0:0:0:0:
329,192,112723,128,0,112808:0:0:0:0:
256,192,112808,128,0,112894:0:0:0:0:
402,192,112808,1,0,0:0:0:0:
182,192,112894,128,0,112980:0:0:0:0:
109,192,112894,1,0,0:0:0:0:
256,192,112980,128,0,113066:0:0:0:0:
475,192,112980,1,0,0:0:0:0:
329,192,113066,128,0,113151:0:0:0:0:
36,192,113066,1,0,0:0:0:0:
256,192,113151,128,0,113237:0:0:0:0:
402,192,113151,1,0,0:0:0:0:
182,192,113237,128,0,113323:0:0:0:0:
109,192,113237,1,0,0:0:0:0:
256,192,113323,128,0,113408:0:0:0:0:
475,192,113323,128,0,113408:0:0:0:0:
36,192,113323,128,0,113408:0:0:0:0:
182,192,113494,128,0,113580:0:0:0:0:
329,192,113494,128,0,113580:0:0:0:0:
402,192,113666,128,0,113751:0:0:0:0:
109,192,113666,128,0,113751:0:0:0:0:
256,192,113666,128,0,113751:0:0:0:0:
182,192,113837,128,0,113923:0:0:0:0:
329,192,113837,128,0,113923:0:0:0:0:
256,192,114008,128,0,114094:0:0:0:0:
475,192,114008,128,0,114094:0:0:0:0:
36,192,114008,128,0,114094:0:0:0:0:
182,192,114180,128,0,114266:0:0:0:0:
329,192,114180,128,0,114266:0:0:0:0:
109,192,114351,128,0,114437:0:0:0:0:
402,192,114351,128,0,114437:0:0:0:0:
256,192,114351,128,0,114437:0:0:0:0:
182,192,114523,128,0,114608:0:0:0:0:
329,192,114523,128,0,114608:0:0:0:0:
402,192,114694,128,0,114780:0:0:0:0:
36,192,114694,128,0,114780:0:0:0:0:
109,192,114694,128,0,114780:0:0:0:0:
475,192,114694,128,0,114780:0:0:0:0:
256,192,114694,128,0,114780:0:0:0:0:
256,192,114866,128,0,114951:0:0:0:0:
182,192,114866,128,0,114951:0:0:0:0:
329,192,114866,128,0,114951:0:0:0:0:
256,192,115037,128,0,115123:0:0:0:0:
109,192,115037,128,0,115123:0:0:0:0:
36,192,115037,128,0,115123:0:0:0:0:
402,192,115037,128,0,115123:0:0:0:0:
475,192,115037,128,0,115123:0:0:0:0:
256,192,115208,128,0,115294:0:0:0:0:
329,192,115208,128,0,115294:0:0:0:0:
182,192,115208,128,0,115294:0:0:0:0:
402,192,115380,128,0,115466:0:0:0:0:
109,192,115380,128,0,115466:0:0:0:0:
36,192,115380,128,0,115466:0:0:0:0:
475,192,115380,128,0,115466:0:0:0:0:
256,192,115380,128,0,115466:0:0:0:0:
109,192,115723,128,0,115808:0:0:0:0:
402,192,115723,128,0,115808:0:0:0:0:
182,192,115723,128,0,115808:0:0:0:0:
256,192,115723,128,0,115808:0:0:0:0:
329,192,115723,128,0,115808:0:0:0:0:
256,192,116066,128,0,116151:0:0:0:0:
402,192,116066,128,0,116151:0:0:0:0:
36,192,116066,128,0,116151:0:0:0:0:
109,192,116066,128,0,116151:0:0:0:0:
475,192,116066,128,0,116151:0:0:0:0:
182,192,116751,128,0,116837:0:0:0:0:
329,192,116751,128,0,116837:0:0:0:0:
36,192,116751,128,0,116837:0:0:0:0:
475,192,116751,128,0,116837:0:0:0:0:
36,192,117523,1,0,0:0:0:0:
109,192,117523,1,0,0:0:0:0:
475,192,117523,1,0,0:0:0:0:
402,192,117523,1,0,0:0:0:0:
475,192,117666,128,0,120351:0:0:0:0:
402,192,117666,128,0,120351:0:0:0:0:
36,192,117666,128,0,120351:0:0:0:0:
109,192,117666,128,0,120351:0:0:0:0:
