osu file format v14

[General]
AudioFilename: audio.mp3
AudioLeadIn: 0
PreviewTime: 6351
Countdown: 0
SampleSet: Soft
StackLeniency: 0.7
Mode: 3
LetterboxInBreaks: 0
SpecialStyle: 0
WidescreenStoryboard: 1

[Editor]
Bookmarks: 6335,17314,33771,44742,55714,66685,94114,99599,113314,120514
DistanceSpacing: 1.5
BeatDivisor: 4
GridSize: 8
TimelineZoom: 1.4

[Metadata]
Title:Barberia Tango
TitleUnicode:バルベリア・タンゴ
Artist:ARM (IOSYS) x PAPRIKA (BUTAOTOME)
ArtistUnicode:ARM (IOSYS) x パプリカ (豚乙女)
Creator:Telzzxs
Version:7K Normal
Source:ノスタルジア Op.3
Tags:nostalgia op.3 op. 3 mission bingo instrumental classical bemani konami hybrid piano violin 10th kac arcade championship
BeatmapID:4332008
BeatmapSetID:2063918

[Difficulty]
HPDrainRate:7
CircleSize:7
OverallDifficulty:7
ApproachRate:5
SliderMultiplier:1.4
SliderTickRate:1

[Events]
//Background and Video events
0,0,"bg.jpg",0,0
//Break Periods
//Storyboard Layer 0 (Background)
//Storyboard Layer 1 (Fail)
//Storyboard Layer 2 (Pass)
//Storyboard Layer 3 (Foreground)
//Storyboard Layer 4 (Overlay)
//Storyboard Sound Samples

[TimingPoints]
866,342.857142857143,4,2,1,25,1,0
66694,-100,4,2,1,15,0,0
92751,-100,4,2,1,25,0,0

[HitObjects]
109,192,865,5,0,0:0:0:0:
402,192,865,1,0,0:0:0:0:
320,192,1037,1,0,0:0:0:0:
256,192,1208,1,0,0:0:0:0:
475,192,1380,1,0,0:0:0:0:
64,192,1380,1,0,0:0:0:0:
109,192,1551,1,0,0:0:0:0:
402,192,1723,1,0,0:0:0:0:
192,192,1894,1,0,0:0:0:0:
448,192,1894,1,0,0:0:0:0:
64,192,2066,1,0,0:0:0:0:
256,192,2237,1,0,0:0:0:0:
329,192,2237,1,0,0:0:0:0:
448,192,2408,1,0,0:0:0:0:
64,192,2580,1,0,0:0:0:0:
109,192,2751,1,0,0:0:0:0:
402,192,2751,1,0,0:0:0:0:
448,192,2923,1,0,0:0:0:0:
256,192,3094,1,0,0:0:0:0:
320,192,3266,1,0,0:0:0:0:
64,192,3266,1,0,0:0:0:0:
448,192,3437,1,0,0:0:0:0:
320,192,3608,1,0,0:0:0:0:
109,192,3608,1,0,0:0:0:0:
320,192,3866,1,0,0:0:0:0:
109,192,3866,1,0,0:0:0:0:
109,192,4123,1,0,0:0:0:0:
320,192,4123,1,0,0:0:0:0:
64,192,4466,1,0,0:0:0:0:
448,192,4466,1,0,0:0:0:0:
109,192,4637,1,0,0:0:0:0:
320,192,4637,1,0,0:0:0:0:
448,192,4980,128,0,5494:0:0:0:0:
64,192,4980,1,0,0:0:0:0:
182,192,4980,1,0,0:0:0:0:
109,192,5494,1,0,0:0:0:0:
256,192,5580,1,0,0:0:0:0:
64,192,5666,128,0,6351:0:0:0:0:
329,192,5666,1,0,0:0:0:0:
402,192,5666,1,0,0:0:0:0:
192,192,6351,1,0,0:0:0:0:
402,192,6351,1,0,0:0:0:0:
109,192,6523,1,0,0:0:0:0:
448,192,6694,1,0,0:0:0:0:
320,192,6866,1,0,0:0:0:0:
256,192,7037,1,0,0:0:0:0:
109,192,7208,1,0,0:0:0:0:
402,192,7208,1,0,0:0:0:0:
64,192,7551,1,0,0:0:0:0:
256,192,7723,1,0,0:0:0:0:
448,192,7723,1,0,0:0:0:0:
64,192,7894,1,0,0:0:0:0:
329,192,8066,1,0,0:0:0:0:
192,192,8066,1,0,0:0:0:0:
402,192,8237,1,0,0:0:0:0:
109,192,8408,1,0,0:0:0:0:
256,192,8408,1,0,0:0:0:0:
448,192,8580,1,0,0:0:0:0:
402,192,8751,1,0,0:0:0:0:
182,192,8751,1,0,0:0:0:0:
256,192,8923,1,0,0:0:0:0:
329,192,9094,1,0,0:0:0:0:
64,192,9094,1,0,0:0:0:0:
192,192,9266,1,0,0:0:0:0:
448,192,9437,1,0,0:0:0:0:
320,192,9608,1,0,0:0:0:0:
64,192,9780,1,0,0:0:0:0:
448,192,9951,1,0,0:0:0:0:
192,192,9951,1,0,0:0:0:0:
64,192,10294,1,0,0:0:0:0:
109,192,10466,1,0,0:0:0:0:
329,192,10466,1,0,0:0:0:0:
256,192,10637,1,0,0:0:0:0:
448,192,10808,1,0,0:0:0:0:
36,192,10808,1,0,0:0:0:0:
109,192,10980,1,0,0:0:0:0:
64,192,11151,1,0,0:0:0:0:
402,192,11151,1,0,0:0:0:0:
192,192,11323,1,0,0:0:0:0:
329,192,11323,1,0,0:0:0:0:
192,192,11494,1,0,0:0:0:0:
329,192,11494,1,0,0:0:0:0:
64,192,11666,1,0,0:0:0:0:
109,192,11751,1,0,0:0:0:0:
182,192,11837,1,0,0:0:0:0:
402,192,11837,1,0,0:0:0:0:
64,192,12008,1,0,0:0:0:0:
329,192,12008,1,0,0:0:0:0:
448,192,12351,1,0,0:0:0:0:
192,192,12351,1,0,0:0:0:0:
402,192,12523,1,0,0:0:0:0:
109,192,12523,1,0,0:0:0:0:
36,192,12694,1,0,0:0:0:0:
329,192,12866,1,0,0:0:0:0:
182,192,13037,1,0,0:0:0:0:
64,192,13208,1,0,0:0:0:0:
109,192,13208,1,0,0:0:0:0:
402,192,13208,1,0,0:0:0:0:
448,192,13551,1,0,0:0:0:0:
192,192,13551,1,0,0:0:0:0:
256,192,13551,1,0,0:0:0:0:
402,192,14066,1,0,0:0:0:0:
448,192,14066,1,0,0:0:0:0:
109,192,14237,1,0,0:0:0:0:
182,192,14237,1,0,0:0:0:0:
402,192,14408,1,0,0:0:0:0:
448,192,14408,1,0,0:0:0:0:
64,192,14580,128,0,15608:0:0:0:0:
320,192,14580,1,0,0:0:0:0:
256,192,14580,1,0,0:0:0:0:
402,192,14751,1,0,0:0:0:0:
402,192,15094,1,0,0:0:0:0:
402,192,15266,1,0,0:0:0:0:
182,192,15437,1,0,0:0:0:0:
256,192,15608,1,0,0:0:0:0:
448,192,15780,1,0,0:0:0:0:
64,192,15951,1,0,0:0:0:0:
329,192,15951,1,0,0:0:0:0:
109,192,15951,1,0,0:0:0:0:
402,192,16123,1,0,0:0:0:0:
192,192,16294,1,0,0:0:0:0:
475,192,16466,1,0,0:0:0:0:
64,192,16637,1,0,0:0:0:0:
329,192,16808,1,0,0:0:0:0:
192,192,16980,1,0,0:0:0:0:
256,192,17151,1,0,0:0:0:0:
329,192,17323,1,0,0:0:0:0:
109,192,17323,1,0,0:0:0:0:
36,192,17494,128,0,17666:0:0:0:0:
402,192,17837,128,0,18008:0:0:0:0:
182,192,18180,128,0,18351:0:0:0:0:
109,192,18523,1,0,0:0:0:0:
109,192,18694,1,0,0:0:0:0:
402,192,18866,1,0,0:0:0:0:
402,192,19037,1,0,0:0:0:0:
329,192,19208,1,0,0:0:0:0:
329,192,19380,1,0,0:0:0:0:
192,192,19551,1,0,0:0:0:0:
192,192,19723,1,0,0:0:0:0:
402,192,19894,1,0,0:0:0:0:
109,192,20066,1,0,0:0:0:0:
256,192,20237,128,0,20408:0:0:0:0:
109,192,20580,128,0,20751:0:0:0:0:
329,192,20923,128,0,21094:0:0:0:0:
109,192,21266,1,0,0:0:0:0:
109,192,21437,1,0,0:0:0:0:
402,192,21608,1,0,0:0:0:0:
402,192,21780,1,0,0:0:0:0:
192,192,21951,1,0,0:0:0:0:
192,192,22123,1,0,0:0:0:0:
320,192,22294,1,0,0:0:0:0:
320,192,22466,1,0,0:0:0:0:
64,192,22637,1,0,0:0:0:0:
475,192,22808,1,0,0:0:0:0:
109,192,22808,1,0,0:0:0:0:
256,192,22980,1,0,0:0:0:0:
329,192,23151,1,0,0:0:0:0:
64,192,23151,1,0,0:0:0:0:
402,192,23323,1,0,0:0:0:0:
256,192,23494,1,0,0:0:0:0:
109,192,23494,1,0,0:0:0:0:
64,192,23666,1,0,0:0:0:0:
320,192,23837,1,0,0:0:0:0:
402,192,23837,1,0,0:0:0:0:
448,192,24008,1,0,0:0:0:0:
64,192,24180,1,0,0:0:0:0:
182,192,24180,1,0,0:0:0:0:
256,192,24523,128,0,24866:0:0:0:0:
109,192,24523,1,0,0:0:0:0:
402,192,24523,1,0,0:0:0:0:
402,192,25037,1,0,0:0:0:0:
320,192,25208,1,0,0:0:0:0:
109,192,25380,1,0,0:0:0:0:
64,192,25551,1,0,0:0:0:0:
448,192,25551,1,0,0:0:0:0:
256,192,25551,1,0,0:0:0:0:
402,192,25723,1,0,0:0:0:0:
109,192,25723,1,0,0:0:0:0:
402,192,26066,1,0,0:0:0:0:
109,192,26066,1,0,0:0:0:0:
320,192,26408,1,0,0:0:0:0:
64,192,26408,1,0,0:0:0:0:
64,192,26751,1,0,0:0:0:0:
320,192,26751,1,0,0:0:0:0:
475,192,27094,1,0,0:0:0:0:
256,192,27094,1,0,0:0:0:0:
475,192,27437,1,0,0:0:0:0:
256,192,27437,1,0,0:0:0:0:
320,192,27780,1,0,0:0:0:0:
64,192,27780,1,0,0:0:0:0:
320,192,28123,1,0,0:0:0:0:
36,192,28123,1,0,0:0:0:0:
109,192,28294,1,0,0:0:0:0:
256,192,28466,128,0,28637:0:0:0:0:
402,192,28808,128,0,28980:0:0:0:0:
109,192,29151,128,0,29323:0:0:0:0:
402,192,29494,1,0,0:0:0:0:
402,192,29666,1,0,0:0:0:0:
109,192,29837,1,0,0:0:0:0:
109,192,30008,1,0,0:0:0:0:
320,192,30180,1,0,0:0:0:0:
320,192,30351,1,0,0:0:0:0:
64,192,30523,1,0,0:0:0:0:
192,192,30694,1,0,0:0:0:0:
320,192,30866,1,0,0:0:0:0:
448,192,31037,1,0,0:0:0:0:
109,192,31208,128,0,31380:0:0:0:0:
402,192,31551,128,0,31723:0:0:0:0:
256,192,31894,128,0,32066:0:0:0:0:
109,192,32237,1,0,0:0:0:0:
109,192,32408,1,0,0:0:0:0:
402,192,32580,1,0,0:0:0:0:
402,192,32751,1,0,0:0:0:0:
192,192,32923,1,0,0:0:0:0:
192,192,33094,1,0,0:0:0:0:
320,192,33266,1,0,0:0:0:0:
320,192,33437,1,0,0:0:0:0:
109,192,33780,1,0,0:0:0:0:
402,192,33780,1,0,0:0:0:0:
64,192,33951,1,0,0:0:0:0:
448,192,34123,1,0,0:0:0:0:
256,192,34294,1,0,0:0:0:0:
329,192,34466,1,0,0:0:0:0:
64,192,34637,1,0,0:0:0:0:
448,192,34808,1,0,0:0:0:0:
192,192,34980,1,0,0:0:0:0:
402,192,35151,1,0,0:0:0:0:
109,192,35323,1,0,0:0:0:0:
329,192,35494,1,0,0:0:0:0:
36,192,35666,1,0,0:0:0:0:
256,192,35837,1,0,0:0:0:0:
475,192,35837,128,0,36008:0:0:0:0:
329,192,36008,128,0,36180:0:0:0:0:
402,192,36180,1,0,0:0:0:0:
182,192,36180,128,0,36351:0:0:0:0:
36,192,36351,128,0,36523:0:0:0:0:
256,192,36523,1,0,0:0:0:0:
448,192,36694,1,0,0:0:0:0:
64,192,36866,1,0,0:0:0:0:
329,192,37037,1,0,0:0:0:0:
192,192,37208,1,0,0:0:0:0:
475,192,37380,1,0,0:0:0:0:
109,192,37551,1,0,0:0:0:0:
320,192,37723,1,0,0:0:0:0:
192,192,37894,1,0,0:0:0:0:
402,192,38066,1,0,0:0:0:0:
64,192,38237,1,0,0:0:0:0:
320,192,38408,1,0,0:0:0:0:
36,192,38580,128,0,38751:0:0:0:0:
256,192,38580,1,0,0:0:0:0:
182,192,38751,128,0,38923:0:0:0:0:
109,192,38923,1,0,0:0:0:0:
329,192,38923,128,0,39094:0:0:0:0:
475,192,39094,128,0,39266:0:0:0:0:
36,192,39266,1,0,0:0:0:0:
256,192,39437,1,0,0:0:0:0:
475,192,39608,1,0,0:0:0:0:
109,192,39780,1,0,0:0:0:0:
402,192,39951,1,0,0:0:0:0:
192,192,40123,1,0,0:0:0:0:
64,192,40294,1,0,0:0:0:0:
402,192,40466,1,0,0:0:0:0:
109,192,40637,1,0,0:0:0:0:
192,192,40637,1,0,0:0:0:0:
36,192,40980,128,0,41323:0:0:0:0:
402,192,40980,128,0,41323:0:0:0:0:
192,192,41494,1,0,0:0:0:0:
448,192,41494,1,0,0:0:0:0:
320,192,41666,1,0,0:0:0:0:
64,192,41666,1,0,0:0:0:0:
109,192,41837,1,0,0:0:0:0:
402,192,41837,1,0,0:0:0:0:
320,192,42008,1,0,0:0:0:0:
64,192,42008,1,0,0:0:0:0:
256,192,42180,1,0,0:0:0:0:
36,192,42351,1,0,0:0:0:0:
329,192,42351,1,0,0:0:0:0:
448,192,42523,1,0,0:0:0:0:
402,192,42694,1,0,0:0:0:0:
256,192,42694,1,0,0:0:0:0:
64,192,42866,1,0,0:0:0:0:
109,192,43037,1,0,0:0:0:0:
320,192,43037,1,0,0:0:0:0:
402,192,43208,1,0,0:0:0:0:
64,192,43380,1,0,0:0:0:0:
256,192,43380,1,0,0:0:0:0:
448,192,43551,1,0,0:0:0:0:
320,192,43723,1,0,0:0:0:0:
109,192,43894,1,0,0:0:0:0:
256,192,44066,1,0,0:0:0:0:
402,192,44237,1,0,0:0:0:0:
182,192,44408,1,0,0:0:0:0:
329,192,44580,1,0,0:0:0:0:
448,192,44751,1,0,0:0:0:0:
64,192,44751,1,0,0:0:0:0:
109,192,44751,1,0,0:0:0:0:
402,192,45266,1,0,0:0:0:0:
109,192,45437,1,0,0:0:0:0:
329,192,45780,1,0,0:0:0:0:
256,192,45951,1,0,0:0:0:0:
64,192,46123,1,0,0:0:0:0:
192,192,46123,1,0,0:0:0:0:
448,192,46294,1,0,0:0:0:0:
256,192,46466,1,0,0:0:0:0:
109,192,46637,1,0,0:0:0:0:
402,192,46637,128,0,47151:0:0:0:0:
320,192,46808,1,0,0:0:0:0:
182,192,47151,128,0,47494:0:0:0:0:
448,192,47494,1,0,0:0:0:0:
109,192,47494,1,0,0:0:0:0:
36,192,48008,1,0,0:0:0:0:
402,192,48008,1,0,0:0:0:0:
109,192,48523,1,0,0:0:0:0:
320,192,48523,1,0,0:0:0:0:
402,192,48694,1,0,0:0:0:0:
182,192,48694,1,0,0:0:0:0:
475,192,48866,1,0,0:0:0:0:
64,192,48866,1,0,0:0:0:0:
256,192,49037,1,0,0:0:0:0:
109,192,49208,1,0,0:0:0:0:
475,192,49380,1,0,0:0:0:0:
402,192,49380,128,0,50237:0:0:0:0:
192,192,49551,1,0,0:0:0:0:
329,192,49894,1,0,0:0:0:0:
256,192,50066,1,0,0:0:0:0:
192,192,50237,1,0,0:0:0:0:
109,192,50237,1,0,0:0:0:0:
448,192,50408,1,0,0:0:0:0:
320,192,50580,1,0,0:0:0:0:
192,192,50751,1,0,0:0:0:0:
64,192,50923,1,0,0:0:0:0:
448,192,50923,1,0,0:0:0:0:
320,192,51266,1,0,0:0:0:0:
256,192,51266,1,0,0:0:0:0:
109,192,51608,1,0,0:0:0:0:
402,192,51608,1,0,0:0:0:0:
182,192,51951,128,0,52294:0:0:0:0:
475,192,51951,128,0,52294:0:0:0:0:
64,192,52466,1,0,0:0:0:0:
329,192,52466,1,0,0:0:0:0:
192,192,52637,1,0,0:0:0:0:
448,192,52637,1,0,0:0:0:0:
402,192,52808,1,0,0:0:0:0:
109,192,52808,1,0,0:0:0:0:
256,192,52980,1,0,0:0:0:0:
448,192,52980,1,0,0:0:0:0:
329,192,53151,1,0,0:0:0:0:
256,192,53494,1,0,0:0:0:0:
182,192,53837,1,0,0:0:0:0:
182,192,54180,1,0,0:0:0:0:
329,192,54523,1,0,0:0:0:0:
329,192,54866,1,0,0:0:0:0:
64,192,55037,1,0,0:0:0:0:
192,192,55208,1,0,0:0:0:0:
320,192,55380,1,0,0:0:0:0:
448,192,55551,1,0,0:0:0:0:
192,192,55723,1,0,0:0:0:0:
402,192,55723,1,0,0:0:0:0:
64,192,55894,1,0,0:0:0:0:
448,192,56066,1,0,0:0:0:0:
320,192,56237,1,0,0:0:0:0:
192,192,56408,1,0,0:0:0:0:
64,192,56580,1,0,0:0:0:0:
448,192,56751,1,0,0:0:0:0:
320,192,56923,1,0,0:0:0:0:
192,192,57094,1,0,0:0:0:0:
64,192,57266,1,0,0:0:0:0:
448,192,57437,1,0,0:0:0:0:
320,192,57608,1,0,0:0:0:0:
256,192,57780,1,0,0:0:0:0:
36,192,57780,128,0,57951:0:0:0:0:
182,192,57951,128,0,58123:0:0:0:0:
329,192,58123,128,0,58294:0:0:0:0:
109,192,58123,1,0,0:0:0:0:
475,192,58294,128,0,58466:0:0:0:0:
256,192,58466,1,0,0:0:0:0:
475,192,58637,1,0,0:0:0:0:
64,192,58808,1,0,0:0:0:0:
192,192,58980,1,0,0:0:0:0:
320,192,59151,1,0,0:0:0:0:
448,192,59323,1,0,0:0:0:0:
64,192,59494,1,0,0:0:0:0:
192,192,59666,1,0,0:0:0:0:
320,192,59837,1,0,0:0:0:0:
448,192,60008,1,0,0:0:0:0:
64,192,60180,1,0,0:0:0:0:
192,192,60351,1,0,0:0:0:0:
475,192,60523,128,0,60694:0:0:0:0:
256,192,60523,1,0,0:0:0:0:
329,192,60694,128,0,60866:0:0:0:0:
402,192,60866,1,0,0:0:0:0:
182,192,60866,128,0,61037:0:0:0:0:
36,192,61037,128,0,61208:0:0:0:0:
256,192,61208,1,0,0:0:0:0:
109,192,61380,1,0,0:0:0:0:
402,192,61551,1,0,0:0:0:0:
182,192,61723,1,0,0:0:0:0:
329,192,61894,1,0,0:0:0:0:
256,192,62066,1,0,0:0:0:0:
402,192,62237,1,0,0:0:0:0:
36,192,62237,128,0,62580:0:0:0:0:
475,192,62580,1,0,0:0:0:0:
182,192,62580,1,0,0:0:0:0:
402,192,62923,1,0,0:0:0:0:
256,192,62923,1,0,0:0:0:0:
109,192,62923,128,0,63266:0:0:0:0:
182,192,63437,1,0,0:0:0:0:
475,192,63608,1,0,0:0:0:0:
402,192,63780,1,0,0:0:0:0:
329,192,63951,1,0,0:0:0:0:
256,192,63951,1,0,0:0:0:0:
36,192,63951,128,0,64123:0:0:0:0:
448,192,64294,1,0,0:0:0:0:
109,192,64466,1,0,0:0:0:0:
402,192,64466,1,0,0:0:0:0:
329,192,64637,1,0,0:0:0:0:
256,192,64637,1,0,0:0:0:0:
36,192,64637,128,0,64808:0:0:0:0:
475,192,64980,1,0,0:0:0:0:
402,192,65151,1,0,0:0:0:0:
182,192,65151,1,0,0:0:0:0:
256,192,65323,1,0,0:0:0:0:
329,192,65323,1,0,0:0:0:0:
36,192,65323,128,0,65494:0:0:0:0:
448,192,65666,1,0,0:0:0:0:
402,192,65666,1,0,0:0:0:0:
182,192,65666,128,0,66008:0:0:0:0:
320,192,66008,1,0,0:0:0:0:
64,192,66008,1,0,0:0:0:0:
192,192,66351,1,0,0:0:0:0:
402,192,66351,1,0,0:0:0:0:
109,192,66523,1,0,0:0:0:0:
475,192,66694,1,0,0:0:0:0:
329,192,66694,1,0,0:0:0:0:
182,192,66866,1,0,0:0:0:0:
329,192,67037,1,0,0:0:0:0:
192,192,67208,1,0,0:0:0:0:
329,192,67380,1,0,0:0:0:0:
182,192,67551,1,0,0:0:0:0:
329,192,67723,1,0,0:0:0:0:
182,192,67894,1,0,0:0:0:0:
448,192,68066,1,0,0:0:0:0:
64,192,68066,1,0,0:0:0:0:
109,192,68237,1,0,0:0:0:0:
320,192,68408,1,0,0:0:0:0:
402,192,68408,1,0,0:0:0:0:
256,192,68580,1,0,0:0:0:0:
64,192,68751,1,0,0:0:0:0:
109,192,68751,1,0,0:0:0:0:
448,192,68923,1,0,0:0:0:0:
402,192,69094,1,0,0:0:0:0:
192,192,69094,1,0,0:0:0:0:
64,192,69266,1,0,0:0:0:0:
256,192,69437,1,0,0:0:0:0:
192,192,69437,1,0,0:0:0:0:
402,192,69608,1,0,0:0:0:0:
320,192,69780,1,0,0:0:0:0:
64,192,69780,1,0,0:0:0:0:
109,192,69951,1,0,0:0:0:0:
448,192,70123,1,0,0:0:0:0:
256,192,70123,1,0,0:0:0:0:
192,192,70294,1,0,0:0:0:0:
64,192,70466,1,0,0:0:0:0:
320,192,70466,1,0,0:0:0:0:
402,192,70637,1,0,0:0:0:0:
256,192,70808,1,0,0:0:0:0:
192,192,70808,1,0,0:0:0:0:
64,192,70980,1,0,0:0:0:0:
475,192,71151,1,0,0:0:0:0:
109,192,71151,1,0,0:0:0:0:
402,192,71323,1,0,0:0:0:0:
192,192,71494,1,0,0:0:0:0:
36,192,71494,1,0,0:0:0:0:
329,192,71666,1,0,0:0:0:0:
256,192,71837,1,0,0:0:0:0:
109,192,71837,1,0,0:0:0:0:
192,192,72008,1,0,0:0:0:0:
448,192,72180,1,0,0:0:0:0:
64,192,72180,1,0,0:0:0:0:
402,192,72351,1,0,0:0:0:0:
402,192,72523,1,0,0:0:0:0:
402,192,72694,1,0,0:0:0:0:
192,192,72866,1,0,0:0:0:0:
64,192,72866,1,0,0:0:0:0:
320,192,73037,1,0,0:0:0:0:
329,192,73208,1,0,0:0:0:0:
329,192,73380,1,0,0:0:0:0:
192,192,73551,1,0,0:0:0:0:
256,192,73551,1,0,0:0:0:0:
109,192,73723,1,0,0:0:0:0:
109,192,73894,1,0,0:0:0:0:
109,192,74066,1,0,0:0:0:0:
448,192,74237,1,0,0:0:0:0:
64,192,74237,1,0,0:0:0:0:
256,192,74408,1,0,0:0:0:0:
256,192,74580,1,0,0:0:0:0:
256,192,74751,1,0,0:0:0:0:
192,192,74923,1,0,0:0:0:0:
64,192,74923,1,0,0:0:0:0:
402,192,75094,1,0,0:0:0:0:
402,192,75266,1,0,0:0:0:0:
402,192,75437,1,0,0:0:0:0:
192,192,75608,1,0,0:0:0:0:
448,192,75608,1,0,0:0:0:0:
109,192,75780,1,0,0:0:0:0:
109,192,75951,1,0,0:0:0:0:
109,192,76123,1,0,0:0:0:0:
402,192,76294,1,0,0:0:0:0:
36,192,76294,1,0,0:0:0:0:
329,192,76466,1,0,0:0:0:0:
329,192,76637,1,0,0:0:0:0:
320,192,76808,1,0,0:0:0:0:
402,192,76980,1,0,0:0:0:0:
109,192,76980,1,0,0:0:0:0:
256,192,77151,1,0,0:0:0:0:
256,192,77323,1,0,0:0:0:0:
256,192,77494,1,0,0:0:0:0:
448,192,77666,1,0,0:0:0:0:
182,192,77666,1,0,0:0:0:0:
64,192,77923,1,0,0:0:0:0:
320,192,78008,1,0,0:0:0:0:
448,192,78266,1,0,0:0:0:0:
192,192,78351,1,0,0:0:0:0:
64,192,78608,1,0,0:0:0:0:
320,192,78694,1,0,0:0:0:0:
402,192,78951,1,0,0:0:0:0:
192,192,79037,1,0,0:0:0:0:
64,192,79294,1,0,0:0:0:0:
320,192,79380,1,0,0:0:0:0:
448,192,79637,1,0,0:0:0:0:
192,192,79723,1,0,0:0:0:0:
109,192,79980,1,0,0:0:0:0:
320,192,80066,1,0,0:0:0:0:
402,192,80323,1,0,0:0:0:0:
192,192,80408,1,0,0:0:0:0:
64,192,80666,1,0,0:0:0:0:
320,192,80751,1,0,0:0:0:0:
448,192,81008,1,0,0:0:0:0:
192,192,81094,1,0,0:0:0:0:
109,192,81351,1,0,0:0:0:0:
320,192,81437,1,0,0:0:0:0:
402,192,81694,1,0,0:0:0:0:
192,192,81780,1,0,0:0:0:0:
64,192,82037,1,0,0:0:0:0:
320,192,82123,1,0,0:0:0:0:
448,192,82380,1,0,0:0:0:0:
192,192,82466,1,0,0:0:0:0:
109,192,82723,1,0,0:0:0:0:
320,192,82808,1,0,0:0:0:0:
402,192,83066,1,0,0:0:0:0:
192,192,83151,1,0,0:0:0:0:
64,192,83408,1,0,0:0:0:0:
320,192,83494,1,0,0:0:0:0:
448,192,83751,1,0,0:0:0:0:
192,192,83837,1,0,0:0:0:0:
109,192,84094,1,0,0:0:0:0:
320,192,84180,1,0,0:0:0:0:
402,192,84437,1,0,0:0:0:0:
192,192,84523,1,0,0:0:0:0:
64,192,84780,1,0,0:0:0:0:
320,192,84866,1,0,0:0:0:0:
448,192,85123,1,0,0:0:0:0:
192,192,85208,1,0,0:0:0:0:
109,192,85466,1,0,0:0:0:0:
320,192,85551,1,0,0:0:0:0:
402,192,85808,1,0,0:0:0:0:
192,192,85894,1,0,0:0:0:0:
64,192,86151,1,0,0:0:0:0:
320,192,86237,1,0,0:0:0:0:
448,192,86494,1,0,0:0:0:0:
192,192,86580,1,0,0:0:0:0:
109,192,86837,1,0,0:0:0:0:
320,192,86923,1,0,0:0:0:0:
402,192,87180,1,0,0:0:0:0:
192,192,87266,1,0,0:0:0:0:
64,192,87523,1,0,0:0:0:0:
320,192,87608,1,0,0:0:0:0:
448,192,87951,1,0,0:0:0:0:
36,192,88123,1,0,0:0:0:0:
402,192,88294,1,0,0:0:0:0:
109,192,88466,1,0,0:0:0:0:
448,192,88637,1,0,0:0:0:0:
256,192,88637,1,0,0:0:0:0:
36,192,88808,1,0,0:0:0:0:
402,192,88980,1,0,0:0:0:0:
109,192,89151,1,0,0:0:0:0:
448,192,89323,1,0,0:0:0:0:
36,192,89494,1,0,0:0:0:0:
402,192,89666,1,0,0:0:0:0:
109,192,89837,1,0,0:0:0:0:
475,192,90008,1,0,0:0:0:0:
36,192,90180,1,0,0:0:0:0:
402,192,90351,1,0,0:0:0:0:
109,192,90523,1,0,0:0:0:0:
448,192,90694,1,0,0:0:0:0:
36,192,90866,1,0,0:0:0:0:
402,192,91037,1,0,0:0:0:0:
109,192,91208,1,0,0:0:0:0:
182,192,91380,1,0,0:0:0:0:
256,192,91380,1,0,0:0:0:0:
329,192,91551,1,0,0:0:0:0:
402,192,91723,1,0,0:0:0:0:
109,192,91894,1,0,0:0:0:0:
64,192,92066,1,0,0:0:0:0:
182,192,92237,1,0,0:0:0:0:
448,192,92408,1,0,0:0:0:0:
329,192,92580,1,0,0:0:0:0:
64,192,92751,1,0,0:0:0:0:
402,192,92751,1,0,0:0:0:0:
182,192,92751,1,0,0:0:0:0:
109,192,92923,1,0,0:0:0:0:
256,192,93094,1,0,0:0:0:0:
448,192,93266,1,0,0:0:0:0:
329,192,93437,1,0,0:0:0:0:
182,192,93608,1,0,0:0:0:0:
64,192,93780,1,0,0:0:0:0:
109,192,93951,1,0,0:0:0:0:
320,192,94123,1,0,0:0:0:0:
448,192,94123,1,0,0:0:0:0:
256,192,94123,1,0,0:0:0:0:
192,192,94294,1,0,0:0:0:0:
109,192,94466,1,0,0:0:0:0:
402,192,94637,1,0,0:0:0:0:
192,192,94808,1,0,0:0:0:0:
64,192,94808,1,0,0:0:0:0:
475,192,94808,1,0,0:0:0:0:
329,192,94980,1,0,0:0:0:0:
256,192,95151,1,0,0:0:0:0:
109,192,95323,1,0,0:0:0:0:
64,192,95494,1,0,0:0:0:0:
448,192,95494,1,0,0:0:0:0:
256,192,95494,1,0,0:0:0:0:
320,192,95837,1,0,0:0:0:0:
192,192,95837,1,0,0:0:0:0:
109,192,95837,1,0,0:0:0:0:
36,192,96523,1,0,0:0:0:0:
329,192,96523,1,0,0:0:0:0:
182,192,96694,1,0,0:0:0:0:
256,192,96866,1,0,0:0:0:0:
402,192,96866,1,0,0:0:0:0:
475,192,96866,1,0,0:0:0:0:
109,192,97208,1,0,0:0:0:0:
320,192,97208,1,0,0:0:0:0:
402,192,97380,1,0,0:0:0:0:
256,192,97551,1,0,0:0:0:0:
448,192,97551,1,0,0:0:0:0:
36,192,97551,1,0,0:0:0:0:
109,192,97894,1,0,0:0:0:0:
192,192,97894,1,0,0:0:0:0:
329,192,98066,1,0,0:0:0:0:
448,192,98237,1,0,0:0:0:0:
256,192,98237,1,0,0:0:0:0:
402,192,98237,1,0,0:0:0:0:
320,192,98580,1,0,0:0:0:0:
64,192,98580,1,0,0:0:0:0:
402,192,98751,1,0,0:0:0:0:
192,192,98923,1,0,0:0:0:0:
448,192,98923,1,0,0:0:0:0:
256,192,98923,1,0,0:0:0:0:
109,192,99094,1,0,0:0:0:0:
402,192,99266,1,0,0:0:0:0:
329,192,99266,1,0,0:0:0:0:
64,192,99437,1,0,0:0:0:0:
192,192,99608,1,0,0:0:0:0:
448,192,99608,1,0,0:0:0:0:
256,192,99608,1,0,0:0:0:0:
64,192,99780,1,0,0:0:0:0:
329,192,99951,1,0,0:0:0:0:
109,192,99951,1,0,0:0:0:0:
402,192,100123,1,0,0:0:0:0:
320,192,100294,1,0,0:0:0:0:
64,192,100294,1,0,0:0:0:0:
256,192,100466,1,0,0:0:0:0:
448,192,100637,1,0,0:0:0:0:
109,192,100637,1,0,0:0:0:0:
320,192,100808,1,0,0:0:0:0:
192,192,100980,1,0,0:0:0:0:
64,192,100980,1,0,0:0:0:0:
329,192,101151,1,0,0:0:0:0:
256,192,101323,1,0,0:0:0:0:
109,192,101323,1,0,0:0:0:0:
192,192,101494,1,0,0:0:0:0:
475,192,101666,1,0,0:0:0:0:
402,192,101666,1,0,0:0:0:0:
64,192,102008,1,0,0:0:0:0:
320,192,102008,1,0,0:0:0:0:
448,192,102351,1,0,0:0:0:0:
256,192,102351,1,0,0:0:0:0:
109,192,102523,1,0,0:0:0:0:
192,192,102694,1,0,0:0:0:0:
402,192,102694,1,0,0:0:0:0:
448,192,102866,1,0,0:0:0:0:
320,192,103037,1,0,0:0:0:0:
64,192,103037,1,0,0:0:0:0:
192,192,103208,1,0,0:0:0:0:
402,192,103380,1,0,0:0:0:0:
256,192,103380,1,0,0:0:0:0:
109,192,103551,1,0,0:0:0:0:
192,192,103723,1,0,0:0:0:0:
448,192,103723,1,0,0:0:0:0:
402,192,104066,128,0,104751:0:0:0:0:
36,192,104066,128,0,104751:0:0:0:0:
329,192,104066,1,0,0:0:0:0:
192,192,104751,1,0,0:0:0:0:
448,192,104751,1,0,0:0:0:0:
64,192,105094,1,0,0:0:0:0:
256,192,105094,1,0,0:0:0:0:
329,192,105094,1,0,0:0:0:0:
448,192,105266,1,0,0:0:0:0:
402,192,105437,1,0,0:0:0:0:
109,192,105437,1,0,0:0:0:0:
192,192,105608,1,0,0:0:0:0:
256,192,105780,1,0,0:0:0:0:
448,192,105780,1,0,0:0:0:0:
109,192,105951,1,0,0:0:0:0:
64,192,106123,1,0,0:0:0:0:
182,192,106123,1,0,0:0:0:0:
402,192,106294,1,0,0:0:0:0:
320,192,106466,1,0,0:0:0:0:
109,192,106466,1,0,0:0:0:0:
448,192,106637,1,0,0:0:0:0:
256,192,106808,1,0,0:0:0:0:
64,192,106808,1,0,0:0:0:0:
402,192,106980,1,0,0:0:0:0:
192,192,107151,1,0,0:0:0:0:
109,192,107323,1,0,0:0:0:0:
320,192,107494,1,0,0:0:0:0:
192,192,107494,1,0,0:0:0:0:
448,192,107666,1,0,0:0:0:0:
256,192,107837,1,0,0:0:0:0:
64,192,107837,1,0,0:0:0:0:
320,192,108008,1,0,0:0:0:0:
402,192,108180,1,0,0:0:0:0:
182,192,108180,1,0,0:0:0:0:
109,192,108351,1,0,0:0:0:0:
64,192,108523,1,0,0:0:0:0:
475,192,108523,1,0,0:0:0:0:
320,192,108694,1,0,0:0:0:0:
448,192,108866,1,0,0:0:0:0:
182,192,108866,1,0,0:0:0:0:
256,192,109037,1,0,0:0:0:0:
109,192,109208,1,0,0:0:0:0:
36,192,109208,1,0,0:0:0:0:
320,192,109380,1,0,0:0:0:0:
402,192,109551,1,0,0:0:0:0:
256,192,109551,1,0,0:0:0:0:
192,192,109723,1,0,0:0:0:0:
64,192,109894,1,0,0:0:0:0:
475,192,109894,1,0,0:0:0:0:
320,192,110066,1,0,0:0:0:0:
402,192,110237,1,0,0:0:0:0:
182,192,110237,1,0,0:0:0:0:
320,192,110580,1,0,0:0:0:0:
448,192,110580,1,0,0:0:0:0:
64,192,110751,1,0,0:0:0:0:
256,192,110923,1,0,0:0:0:0:
182,192,110923,1,0,0:0:0:0:
448,192,111094,1,0,0:0:0:0:
402,192,111266,1,0,0:0:0:0:
36,192,111266,1,0,0:0:0:0:
109,192,111437,1,0,0:0:0:0:
256,192,111608,1,0,0:0:0:0:
329,192,111608,1,0,0:0:0:0:
448,192,111780,1,0,0:0:0:0:
402,192,111951,1,0,0:0:0:0:
36,192,111951,1,0,0:0:0:0:
109,192,112123,1,0,0:0:0:0:
329,192,112294,1,0,0:0:0:0:
182,192,112294,1,0,0:0:0:0:
402,192,112466,1,0,0:0:0:0:
256,192,112637,1,0,0:0:0:0:
475,192,112637,1,0,0:0:0:0:
182,192,112808,1,0,0:0:0:0:
329,192,112980,1,0,0:0:0:0:
109,192,112980,1,0,0:0:0:0:
475,192,113323,1,0,0:0:0:0:
182,192,113323,1,0,0:0:0:0:
256,192,113323,1,0,0:0:0:0:
36,192,113494,1,0,0:0:0:0:
329,192,113666,1,0,0:0:0:0:
402,192,113666,1,0,0:0:0:0:
182,192,113837,1,0,0:0:0:0:
475,192,114008,1,0,0:0:0:0:
402,192,114008,1,0,0:0:0:0:
109,192,114180,1,0,0:0:0:0:
256,192,114351,1,0,0:0:0:0:
329,192,114351,1,0,0:0:0:0:
475,192,114523,1,0,0:0:0:0:
109,192,114694,1,0,0:0:0:0:
182,192,114694,1,0,0:0:0:0:
402,192,114866,1,0,0:0:0:0:
109,192,115037,1,0,0:0:0:0:
36,192,115037,1,0,0:0:0:0:
475,192,115208,1,0,0:0:0:0:
256,192,115380,1,0,0:0:0:0:
182,192,115380,1,0,0:0:0:0:
402,192,115723,1,0,0:0:0:0:
109,192,115723,1,0,0:0:0:0:
182,192,115723,1,0,0:0:0:0:
320,192,116066,1,0,0:0:0:0:
36,192,116066,1,0,0:0:0:0:
475,192,116066,1,0,0:0:0:0:
192,192,116751,1,0,0:0:0:0:
448,192,116751,1,0,0:0:0:0:
109,192,116751,1,0,0:0:0:0:
320,192,117523,1,0,0:0:0:0:
192,192,117523,1,0,0:0:0:0:
256,192,117523,1,0,0:0:0:0:
64,192,117666,128,0,120351:0:0:0:0:
448,192,117666,128,0,120351:0:0:0:0:
