osu file format v14

[General]
AudioFilename: audio.mp3
AudioLeadIn: 0
PreviewTime: 6351
Countdown: 0
SampleSet: Soft
StackLeniency: 0.7
Mode: 3
LetterboxInBreaks: 0
SpecialStyle: 0
WidescreenStoryboard: 1

[Editor]
Bookmarks: 6335,17314,33771,44742,55714,66685,94114,99599,113314,120514
DistanceSpacing: 1.5
BeatDivisor: 2
GridSize: 8
TimelineZoom: 1.4

[Metadata]
Title:Barberia Tango
TitleUnicode:バルベリア・タンゴ
Artist:ARM (IOSYS) x PAPRIKA (BUTAOTOME)
ArtistUnicode:ARM (IOSYS) x パプリカ (豚乙女)
Creator:Telzzxs
Version:7K Easy
Source:ノスタルジア Op.3
Tags:nostalgia op.3 op. 3 mission bingo instrumental classical bemani konami hybrid piano violin 10th kac arcade championship
BeatmapID:4332009
BeatmapSetID:2063918

[Difficulty]
HPDrainRate:6.5
CircleSize:7
OverallDifficulty:6.5
ApproachRate:5
SliderMultiplier:1.4
SliderTickRate:1

[Events]
//Background and Video events
0,0,"bg.jpg",0,0
//Break Periods
//Storyboard Layer 0 (Background)
//Storyboard Layer 1 (Fail)
//Storyboard Layer 2 (Pass)
//Storyboard Layer 3 (Foreground)
//Storyboard Layer 4 (Overlay)
//Storyboard Sound Samples

[TimingPoints]
866,342.857142857143,4,2,1,25,1,0
66694,-100,4,2,1,15,0,0
92751,-100,4,2,1,25,0,0

[HitObjects]
109,192,865,5,0,0:0:0:0:
402,192,865,1,0,0:0:0:0:
402,192,1380,1,0,0:0:0:0:
109,192,1380,1,0,0:0:0:0:
192,192,1894,1,0,0:0:0:0:
320,192,1894,1,0,0:0:0:0:
109,192,2237,1,0,0:0:0:0:
402,192,2237,1,0,0:0:0:0:
109,192,2751,1,0,0:0:0:0:
402,192,2751,1,0,0:0:0:0:
320,192,3266,1,0,0:0:0:0:
192,192,3266,1,0,0:0:0:0:
402,192,3608,1,0,0:0:0:0:
109,192,3866,1,0,0:0:0:0:
402,192,4123,1,0,0:0:0:0:
64,192,4466,1,0,0:0:0:0:
329,192,4466,1,0,0:0:0:0:
448,192,4637,1,0,0:0:0:0:
182,192,4637,1,0,0:0:0:0:
320,192,4980,1,0,0:0:0:0:
109,192,4980,1,0,0:0:0:0:
192,192,5494,1,0,0:0:0:0:
256,192,5666,128,0,6351:0:0:0:0:
448,192,5666,1,0,0:0:0:0:
36,192,6351,1,0,0:0:0:0:
448,192,6694,1,0,0:0:0:0:
192,192,7037,1,0,0:0:0:0:
36,192,7208,1,0,0:0:0:0:
448,192,7208,1,0,0:0:0:0:
109,192,7551,1,0,0:0:0:0:
320,192,7723,1,0,0:0:0:0:
402,192,7723,1,0,0:0:0:0:
192,192,8066,1,0,0:0:0:0:
256,192,8408,1,0,0:0:0:0:
64,192,8751,1,0,0:0:0:0:
448,192,8923,1,0,0:0:0:0:
320,192,9094,1,0,0:0:0:0:
109,192,9094,1,0,0:0:0:0:
256,192,9437,1,0,0:0:0:0:
109,192,9780,1,0,0:0:0:0:
402,192,9951,1,0,0:0:0:0:
256,192,9951,1,0,0:0:0:0:
64,192,10294,1,0,0:0:0:0:
192,192,10466,1,0,0:0:0:0:
329,192,10466,1,0,0:0:0:0:
109,192,10808,1,0,0:0:0:0:
475,192,11151,1,0,0:0:0:0:
36,192,11323,1,0,0:0:0:0:
256,192,11494,1,0,0:0:0:0:
402,192,11837,1,0,0:0:0:0:
182,192,11837,1,0,0:0:0:0:
64,192,12008,1,0,0:0:0:0:
475,192,12351,1,0,0:0:0:0:
256,192,12523,1,0,0:0:0:0:
329,192,12866,1,0,0:0:0:0:
64,192,13208,1,0,0:0:0:0:
402,192,13208,1,0,0:0:0:0:
256,192,13551,1,0,0:0:0:0:
192,192,13551,1,0,0:0:0:0:
475,192,14066,1,0,0:0:0:0:
36,192,14237,1,0,0:0:0:0:
109,192,14408,1,0,0:0:0:0:
402,192,14580,128,0,15608:0:0:0:0:
329,192,14580,1,0,0:0:0:0:
109,192,15608,1,0,0:0:0:0:
256,192,15780,1,0,0:0:0:0:
36,192,15951,128,0,16294:0:0:0:0:
402,192,15951,1,0,0:0:0:0:
182,192,16294,128,0,16637:0:0:0:0:
329,192,16637,128,0,16980:0:0:0:0:
475,192,16980,128,0,17323:0:0:0:0:
256,192,17323,1,0,0:0:0:0:
36,192,17323,1,0,0:0:0:0:
109,192,17666,1,0,0:0:0:0:
402,192,18008,1,0,0:0:0:0:
256,192,18351,1,0,0:0:0:0:
64,192,18523,1,0,0:0:0:0:
182,192,18866,1,0,0:0:0:0:
329,192,19208,1,0,0:0:0:0:
109,192,19551,1,0,0:0:0:0:
475,192,19723,1,0,0:0:0:0:
320,192,20066,1,0,0:0:0:0:
192,192,20066,1,0,0:0:0:0:
402,192,20408,1,0,0:0:0:0:
256,192,20751,1,0,0:0:0:0:
109,192,21094,1,0,0:0:0:0:
475,192,21266,1,0,0:0:0:0:
329,192,21608,1,0,0:0:0:0:
182,192,21951,1,0,0:0:0:0:
402,192,22294,1,0,0:0:0:0:
36,192,22466,1,0,0:0:0:0:
192,192,22808,1,0,0:0:0:0:
402,192,22808,1,0,0:0:0:0:
109,192,23151,1,0,0:0:0:0:
475,192,23494,1,0,0:0:0:0:
256,192,23837,1,0,0:0:0:0:
109,192,24180,1,0,0:0:0:0:
402,192,24180,1,0,0:0:0:0:
256,192,24523,128,0,24866:0:0:0:0:
402,192,25037,1,0,0:0:0:0:
320,192,25208,1,0,0:0:0:0:
192,192,25380,1,0,0:0:0:0:
36,192,25551,1,0,0:0:0:0:
402,192,25723,1,0,0:0:0:0:
402,192,26066,1,0,0:0:0:0:
36,192,26408,1,0,0:0:0:0:
36,192,26751,1,0,0:0:0:0:
475,192,27094,1,0,0:0:0:0:
475,192,27437,1,0,0:0:0:0:
109,192,27780,1,0,0:0:0:0:
182,192,28123,1,0,0:0:0:0:
256,192,28294,1,0,0:0:0:0:
329,192,28294,1,0,0:0:0:0:
64,192,28637,1,0,0:0:0:0:
402,192,28980,1,0,0:0:0:0:
109,192,29323,1,0,0:0:0:0:
329,192,29494,1,0,0:0:0:0:
64,192,29837,1,0,0:0:0:0:
256,192,30180,1,0,0:0:0:0:
109,192,30523,1,0,0:0:0:0:
329,192,30694,1,0,0:0:0:0:
402,192,30866,1,0,0:0:0:0:
448,192,31037,1,0,0:0:0:0:
64,192,31037,1,0,0:0:0:0:
256,192,31380,1,0,0:0:0:0:
109,192,31723,1,0,0:0:0:0:
402,192,32066,1,0,0:0:0:0:
109,192,32237,1,0,0:0:0:0:
475,192,32580,1,0,0:0:0:0:
256,192,32923,1,0,0:0:0:0:
182,192,33266,1,0,0:0:0:0:
329,192,33780,1,0,0:0:0:0:
402,192,33780,1,0,0:0:0:0:
109,192,34123,1,0,0:0:0:0:
475,192,34466,1,0,0:0:0:0:
402,192,34466,1,0,0:0:0:0:
109,192,34808,1,0,0:0:0:0:
402,192,35151,1,0,0:0:0:0:
320,192,35151,1,0,0:0:0:0:
109,192,35494,1,0,0:0:0:0:
475,192,35837,1,0,0:0:0:0:
320,192,35837,1,0,0:0:0:0:
182,192,36008,1,0,0:0:0:0:
402,192,36180,1,0,0:0:0:0:
256,192,36351,1,0,0:0:0:0:
64,192,36523,1,0,0:0:0:0:
109,192,36523,1,0,0:0:0:0:
402,192,36866,1,0,0:0:0:0:
109,192,37208,1,0,0:0:0:0:
182,192,37208,1,0,0:0:0:0:
402,192,37551,1,0,0:0:0:0:
64,192,37894,1,0,0:0:0:0:
109,192,37894,1,0,0:0:0:0:
402,192,38237,1,0,0:0:0:0:
109,192,38580,1,0,0:0:0:0:
182,192,38580,1,0,0:0:0:0:
475,192,38751,1,0,0:0:0:0:
256,192,38923,1,0,0:0:0:0:
36,192,39094,1,0,0:0:0:0:
320,192,39266,1,0,0:0:0:0:
402,192,39266,1,0,0:0:0:0:
182,192,39608,1,0,0:0:0:0:
64,192,39951,1,0,0:0:0:0:
475,192,40294,1,0,0:0:0:0:
329,192,40466,1,0,0:0:0:0:
64,192,40637,1,0,0:0:0:0:
182,192,40637,1,0,0:0:0:0:
402,192,40980,128,0,41323:0:0:0:0:
256,192,41494,1,0,0:0:0:0:
109,192,41666,1,0,0:0:0:0:
192,192,41837,1,0,0:0:0:0:
36,192,42008,1,0,0:0:0:0:
402,192,42008,1,0,0:0:0:0:
402,192,42351,1,0,0:0:0:0:
36,192,42351,1,0,0:0:0:0:
320,192,42694,1,0,0:0:0:0:
109,192,42694,1,0,0:0:0:0:
192,192,43037,1,0,0:0:0:0:
402,192,43037,1,0,0:0:0:0:
64,192,43380,1,0,0:0:0:0:
475,192,43380,128,0,43723:0:0:0:0:
329,192,43723,128,0,44066:0:0:0:0:
182,192,44066,128,0,44408:0:0:0:0:
36,192,44408,128,0,44751:0:0:0:0:
256,192,44751,1,0,0:0:0:0:
402,192,44751,1,0,0:0:0:0:
329,192,45094,1,0,0:0:0:0:
109,192,45437,1,0,0:0:0:0:
402,192,45780,1,0,0:0:0:0:
64,192,46123,1,0,0:0:0:0:
256,192,46123,1,0,0:0:0:0:
109,192,46466,1,0,0:0:0:0:
402,192,46808,1,0,0:0:0:0:
36,192,47151,1,0,0:0:0:0:
448,192,47494,1,0,0:0:0:0:
192,192,47494,1,0,0:0:0:0:
256,192,47837,1,0,0:0:0:0:
109,192,48180,1,0,0:0:0:0:
402,192,48523,1,0,0:0:0:0:
256,192,48866,1,0,0:0:0:0:
64,192,48866,1,0,0:0:0:0:
475,192,49208,1,0,0:0:0:0:
109,192,49551,1,0,0:0:0:0:
402,192,49894,1,0,0:0:0:0:
256,192,50066,1,0,0:0:0:0:
109,192,50237,1,0,0:0:0:0:
36,192,50237,128,0,50923:0:0:0:0:
448,192,50923,1,0,0:0:0:0:
320,192,51266,1,0,0:0:0:0:
256,192,51266,1,0,0:0:0:0:
182,192,51608,1,0,0:0:0:0:
109,192,51608,1,0,0:0:0:0:
475,192,51951,128,0,52294:0:0:0:0:
36,192,51951,128,0,52294:0:0:0:0:
320,192,52466,1,0,0:0:0:0:
256,192,52637,1,0,0:0:0:0:
182,192,52808,1,0,0:0:0:0:
448,192,52980,1,0,0:0:0:0:
64,192,52980,1,0,0:0:0:0:
402,192,53151,1,0,0:0:0:0:
402,192,53494,1,0,0:0:0:0:
256,192,53837,1,0,0:0:0:0:
256,192,54180,1,0,0:0:0:0:
109,192,54523,1,0,0:0:0:0:
109,192,54866,1,0,0:0:0:0:
329,192,55208,1,0,0:0:0:0:
329,192,55551,1,0,0:0:0:0:
64,192,55723,1,0,0:0:0:0:
109,192,55723,1,0,0:0:0:0:
475,192,56066,1,0,0:0:0:0:
109,192,56408,1,0,0:0:0:0:
182,192,56408,1,0,0:0:0:0:
448,192,56751,1,0,0:0:0:0:
109,192,57094,1,0,0:0:0:0:
36,192,57094,1,0,0:0:0:0:
448,192,57437,1,0,0:0:0:0:
109,192,57780,1,0,0:0:0:0:
182,192,57780,1,0,0:0:0:0:
402,192,57951,1,0,0:0:0:0:
256,192,58123,1,0,0:0:0:0:
109,192,58294,1,0,0:0:0:0:
402,192,58466,1,0,0:0:0:0:
448,192,58466,1,0,0:0:0:0:
36,192,58808,1,0,0:0:0:0:
329,192,59151,1,0,0:0:0:0:
402,192,59151,1,0,0:0:0:0:
64,192,59494,1,0,0:0:0:0:
402,192,59837,1,0,0:0:0:0:
475,192,59837,1,0,0:0:0:0:
64,192,60180,1,0,0:0:0:0:
402,192,60523,1,0,0:0:0:0:
329,192,60523,1,0,0:0:0:0:
109,192,60694,1,0,0:0:0:0:
256,192,60866,1,0,0:0:0:0:
402,192,61037,1,0,0:0:0:0:
36,192,61208,128,0,61551:0:0:0:0:
475,192,61208,1,0,0:0:0:0:
329,192,61551,1,0,0:0:0:0:
475,192,61723,1,0,0:0:0:0:
109,192,61894,1,0,0:0:0:0:
256,192,62066,1,0,0:0:0:0:
402,192,62237,128,0,62580:0:0:0:0:
182,192,62580,1,0,0:0:0:0:
109,192,62580,1,0,0:0:0:0:
320,192,62923,1,0,0:0:0:0:
36,192,62923,128,0,63266:0:0:0:0:
475,192,63437,1,0,0:0:0:0:
329,192,63608,1,0,0:0:0:0:
192,192,63780,1,0,0:0:0:0:
64,192,63951,1,0,0:0:0:0:
402,192,63951,1,0,0:0:0:0:
192,192,64466,1,0,0:0:0:0:
64,192,64637,1,0,0:0:0:0:
402,192,64637,1,0,0:0:0:0:
192,192,65151,1,0,0:0:0:0:
402,192,65323,1,0,0:0:0:0:
64,192,65323,1,0,0:0:0:0:
329,192,65666,1,0,0:0:0:0:
192,192,65666,1,0,0:0:0:0:
256,192,66008,1,0,0:0:0:0:
109,192,66008,1,0,0:0:0:0:
192,192,66351,1,0,0:0:0:0:
475,192,66523,1,0,0:0:0:0:
64,192,66694,1,0,0:0:0:0:
402,192,66694,1,0,0:0:0:0:
320,192,67037,1,0,0:0:0:0:
320,192,67380,1,0,0:0:0:0:
320,192,67723,1,0,0:0:0:0:
109,192,68066,1,0,0:0:0:0:
256,192,68408,1,0,0:0:0:0:
402,192,68751,1,0,0:0:0:0:
256,192,69094,1,0,0:0:0:0:
109,192,69437,1,0,0:0:0:0:
256,192,69780,1,0,0:0:0:0:
402,192,70123,1,0,0:0:0:0:
256,192,70466,1,0,0:0:0:0:
109,192,70808,1,0,0:0:0:0:
256,192,71151,1,0,0:0:0:0:
402,192,71494,1,0,0:0:0:0:
475,192,71837,1,0,0:0:0:0:
329,192,72180,1,0,0:0:0:0:
64,192,72180,1,0,0:0:0:0:
182,192,72523,1,0,0:0:0:0:
475,192,72866,1,0,0:0:0:0:
109,192,72866,1,0,0:0:0:0:
329,192,73208,1,0,0:0:0:0:
402,192,73551,1,0,0:0:0:0:
64,192,73551,1,0,0:0:0:0:
256,192,73894,1,0,0:0:0:0:
182,192,74237,1,0,0:0:0:0:
475,192,74237,1,0,0:0:0:0:
329,192,74580,1,0,0:0:0:0:
402,192,74923,1,0,0:0:0:0:
109,192,74923,1,0,0:0:0:0:
329,192,75266,1,0,0:0:0:0:
256,192,75608,1,0,0:0:0:0:
182,192,75608,1,0,0:0:0:0:
329,192,75951,1,0,0:0:0:0:
36,192,76294,1,0,0:0:0:0:
475,192,76294,1,0,0:0:0:0:
182,192,76637,1,0,0:0:0:0:
329,192,76980,1,0,0:0:0:0:
109,192,76980,1,0,0:0:0:0:
256,192,77323,1,0,0:0:0:0:
402,192,77666,1,0,0:0:0:0:
182,192,77666,128,0,78008:0:0:0:0:
36,192,78008,128,0,78351:0:0:0:0:
402,192,78351,128,0,78694:0:0:0:0:
109,192,78694,128,0,79037:0:0:0:0:
475,192,79037,128,0,79380:0:0:0:0:
36,192,79380,128,0,79723:0:0:0:0:
256,192,79723,128,0,80066:0:0:0:0:
109,192,80066,128,0,80408:0:0:0:0:
402,192,80408,128,0,80751:0:0:0:0:
36,192,80751,128,0,81094:0:0:0:0:
475,192,81094,128,0,81437:0:0:0:0:
182,192,81437,128,0,81780:0:0:0:0:
402,192,81780,128,0,82123:0:0:0:0:
36,192,82123,128,0,82466:0:0:0:0:
256,192,82466,128,0,82808:0:0:0:0:
109,192,82808,128,0,83151:0:0:0:0:
475,192,83151,128,0,83494:0:0:0:0:
36,192,83494,128,0,83837:0:0:0:0:
329,192,83837,128,0,84180:0:0:0:0:
109,192,84180,128,0,84523:0:0:0:0:
475,192,84523,128,0,84866:0:0:0:0:
36,192,84866,128,0,85208:0:0:0:0:
256,192,85208,128,0,85551:0:0:0:0:
109,192,85551,128,0,85894:0:0:0:0:
475,192,85894,128,0,86237:0:0:0:0:
182,192,86237,128,0,86580:0:0:0:0:
402,192,86580,128,0,86923:0:0:0:0:
109,192,86923,128,0,87266:0:0:0:0:
329,192,87266,128,0,87608:0:0:0:0:
36,192,87608,128,0,87951:0:0:0:0:
402,192,87951,1,0,0:0:0:0:
109,192,88294,1,0,0:0:0:0:
448,192,88637,1,0,0:0:0:0:
256,192,88637,1,0,0:0:0:0:
109,192,88980,1,0,0:0:0:0:
402,192,89323,1,0,0:0:0:0:
192,192,89666,1,0,0:0:0:0:
320,192,90008,1,0,0:0:0:0:
36,192,90351,1,0,0:0:0:0:
402,192,90694,1,0,0:0:0:0:
192,192,91037,1,0,0:0:0:0:
475,192,91380,128,0,91723:0:0:0:0:
64,192,91380,1,0,0:0:0:0:
329,192,91723,128,0,92066:0:0:0:0:
182,192,92066,128,0,92408:0:0:0:0:
36,192,92408,128,0,92751:0:0:0:0:
402,192,92751,1,0,0:0:0:0:
182,192,93094,1,0,0:0:0:0:
475,192,93437,1,0,0:0:0:0:
36,192,93780,1,0,0:0:0:0:
182,192,94123,1,0,0:0:0:0:
329,192,94123,1,0,0:0:0:0:
109,192,94466,1,0,0:0:0:0:
182,192,94808,1,0,0:0:0:0:
329,192,94808,1,0,0:0:0:0:
402,192,95151,1,0,0:0:0:0:
182,192,95494,1,0,0:0:0:0:
329,192,95494,1,0,0:0:0:0:
448,192,95837,1,0,0:0:0:0:
36,192,95837,1,0,0:0:0:0:
109,192,96523,1,0,0:0:0:0:
402,192,96523,1,0,0:0:0:0:
182,192,96866,1,0,0:0:0:0:
329,192,96866,1,0,0:0:0:0:
64,192,97208,1,0,0:0:0:0:
109,192,97551,1,0,0:0:0:0:
475,192,97551,1,0,0:0:0:0:
329,192,97894,1,0,0:0:0:0:
402,192,98237,1,0,0:0:0:0:
182,192,98237,1,0,0:0:0:0:
64,192,98580,1,0,0:0:0:0:
109,192,98923,1,0,0:0:0:0:
475,192,98923,1,0,0:0:0:0:
329,192,99266,1,0,0:0:0:0:
182,192,99608,1,0,0:0:0:0:
448,192,99608,1,0,0:0:0:0:
256,192,99951,1,0,0:0:0:0:
402,192,100294,1,0,0:0:0:0:
320,192,100466,1,0,0:0:0:0:
182,192,100808,1,0,0:0:0:0:
109,192,100980,1,0,0:0:0:0:
256,192,101323,1,0,0:0:0:0:
475,192,101494,1,0,0:0:0:0:
36,192,101666,1,0,0:0:0:0:
329,192,102008,1,0,0:0:0:0:
182,192,102008,1,0,0:0:0:0:
448,192,102351,1,0,0:0:0:0:
109,192,102351,1,0,0:0:0:0:
64,192,102694,1,0,0:0:0:0:
256,192,103037,1,0,0:0:0:0:
448,192,103380,1,0,0:0:0:0:
192,192,103723,1,0,0:0:0:0:
402,192,104066,1,0,0:0:0:0:
109,192,104066,128,0,104751:0:0:0:0:
448,192,104751,1,0,0:0:0:0:
64,192,105094,1,0,0:0:0:0:
256,192,105094,1,0,0:0:0:0:
182,192,105437,1,0,0:0:0:0:
109,192,105780,1,0,0:0:0:0:
402,192,106123,1,0,0:0:0:0:
320,192,106466,1,0,0:0:0:0:
256,192,106466,1,0,0:0:0:0:
109,192,106808,1,0,0:0:0:0:
448,192,107151,1,0,0:0:0:0:
256,192,107323,1,0,0:0:0:0:
182,192,107494,1,0,0:0:0:0:
329,192,107837,1,0,0:0:0:0:
64,192,107837,1,0,0:0:0:0:
402,192,108180,1,0,0:0:0:0:
109,192,108523,1,0,0:0:0:0:
256,192,108866,1,0,0:0:0:0:
64,192,109208,1,0,0:0:0:0:
402,192,109551,1,0,0:0:0:0:
109,192,109894,1,0,0:0:0:0:
256,192,110237,1,0,0:0:0:0:
64,192,110580,1,0,0:0:0:0:
448,192,110580,1,0,0:0:0:0:
109,192,110923,1,0,0:0:0:0:
402,192,111266,1,0,0:0:0:0:
64,192,111608,1,0,0:0:0:0:
182,192,111951,1,0,0:0:0:0:
402,192,112294,1,0,0:0:0:0:
448,192,112637,1,0,0:0:0:0:
109,192,112980,1,0,0:0:0:0:
320,192,113151,1,0,0:0:0:0:
182,192,113323,128,0,113666:0:0:0:0:
402,192,113323,1,0,0:0:0:0:
109,192,113666,128,0,114008:0:0:0:0:
475,192,114008,128,0,114351:0:0:0:0:
256,192,114351,128,0,114694:0:0:0:0:
36,192,114694,128,0,115037:0:0:0:0:
329,192,114694,1,0,0:0:0:0:
182,192,115037,128,0,115380:0:0:0:0:
329,192,115380,1,0,0:0:0:0:
109,192,115723,1,0,0:0:0:0:
402,192,115723,1,0,0:0:0:0:
448,192,116066,1,0,0:0:0:0:
64,192,116066,1,0,0:0:0:0:
192,192,116751,1,0,0:0:0:0:
320,192,116751,1,0,0:0:0:0:
475,192,117523,1,0,0:0:0:0:
36,192,117523,1,0,0:0:0:0:
329,192,117666,128,0,120351:0:0:0:0:
182,192,117666,1,0,0:0:0:0:
