osu file format v14

[General]
AudioFilename: audio.mp3
AudioLeadIn: 0
PreviewTime: 45313
Countdown: 0
SampleSet: Normal
StackLeniency: 0.7
Mode: 1
LetterboxInBreaks: 0
WidescreenStoryboard: 0

[Editor]
DistanceSpacing: 1
BeatDivisor: 8
GridSize: 16
TimelineZoom: 2.2

[Metadata]
Title:Come to Life
TitleUnicode:Come to Life
Artist:ARM (IOSYS) feat. Nicole Curry
ArtistUnicode:ARM (IOSYS) feat. Nicole Curry
Creator:Nofool
Version:Muzukashii
Source:DanceDanceRevolution A
Tags:ddr Janelle Akina Hirakawa square_head BEMANI
BeatmapID:1363511
BeatmapSetID:642762

[Difficulty]
HPDrainRate:6
CircleSize:6
OverallDifficulty:5
ApproachRate:8
SliderMultiplier:1.4
SliderTickRate:1

[Events]
//Background and Video events
0,0,"BG22.jpg",0,0
//Break Periods
//Storyboard Layer 0 (Background)
//Storyboard Layer 1 (Fail)
//Storyboard Layer 2 (Pass)
//Storyboard Layer 3 (Foreground)
//Storyboard Sound Samples

[TimingPoints]
-20,333.333,4,1,0,80,1,0
1271,-111.111111111111,4,1,0,80,0,0
1438,-106.382978723404,4,1,0,80,0,0
1604,-102.040816326531,4,1,0,80,0,0
1771,-98.0392156862745,4,1,0,80,0,0
1938,-94.3396226415094,4,1,0,80,0,0
2271,-100,4,1,0,80,0,0
3604,-71.4285714285714,4,1,0,80,0,0
3938,-100,4,1,0,80,0,0
4938,-71.4285714285714,4,1,0,80,0,0
5271,-100,4,1,0,80,0,0
6270,-71.4285714285714,4,1,0,80,0,0
6604,-90.9090909090909,4,1,0,80,0,0
6938,-94.3396226415094,4,1,0,80,0,0
7271,-99.009900990099,4,1,0,80,0,0
7604,-100,4,1,0,80,0,0
8937,-71.4285714285714,4,1,0,80,0,0
9271,-100,4,1,0,80,0,0
10270,-71.4285714285714,4,1,0,80,0,0
11938,-100,4,1,0,80,0,0
12271,-125,4,1,0,80,0,0
12438,-120.481927710843,4,1,0,80,0,0
12604,-116.279069767442,4,1,0,80,0,0
12771,-111.111111111111,4,1,0,80,0,0
12938,-105.263157894737,4,1,0,80,0,0
13104,-99.009900990099,4,1,0,80,0,0
13271,-90.9090909090909,4,1,0,80,0,0
13313,-90.9090909090909,4,1,0,80,0,1
17604,-94.3396226415094,4,1,0,80,0,1
17938,-99.009900990099,4,1,0,80,0,1
18104,-100,4,1,0,80,0,1
18521,-100,4,1,0,80,0,0
18771,-98.0392156862745,4,1,0,80,0,0
18938,-96.1538461538461,4,1,0,80,0,0
19104,-94.3396226415094,4,1,0,80,0,0
19271,-92.5925925925926,4,1,0,80,0,0
19604,-89.2857142857143,4,1,0,80,0,0
19938,-86.2068965517241,4,1,0,80,0,0
20104,-83.3333333333333,4,1,0,80,0,0
20271,-80.6451612903226,4,1,0,80,0,0
20438,-78.125,4,1,0,80,0,0
20604,-75.7575757575758,4,1,0,80,0,0
20938,-71.4285714285714,4,1,0,80,0,0
22271,-102.040816326531,4,1,0,80,0,0
22438,-104.166666666667,4,1,0,80,0,0
22604,-106.382978723404,4,1,0,80,0,0
23271,-125,4,1,0,80,0,0
34104,-121.951219512195,4,1,0,80,0,0
34271,-116.279069767442,4,1,0,80,0,0
34438,-113.636363636364,4,1,0,80,0,0
34604,-111.111111111111,4,1,0,80,0,0
34646,-111.111111111111,4,1,0,80,0,1
34938,-109.89010989011,4,1,0,80,0,1
35271,-108.695652173913,4,1,0,80,0,1
35604,-107.52688172043,4,1,0,80,0,1
35938,-106.382978723404,4,1,0,80,0,1
36271,-105.263157894737,4,1,0,80,0,1
36604,-104.166666666667,4,1,0,80,0,1
36938,-103.092783505155,4,1,0,80,0,1
37271,-102.040816326531,4,1,0,80,0,1
37604,-101.010101010101,4,1,0,80,0,1
37938,-100,4,1,0,80,0,1
38271,-99.009900990099,4,1,0,80,0,1
38604,-98.0392156862745,4,1,0,80,0,1
38938,-97.0873786407767,4,1,0,80,0,1
39271,-96.1538461538461,4,1,0,80,0,1
39604,-95.2380952380952,4,1,0,80,0,1
39938,-94.3396226415094,4,1,0,80,0,1
40104,-93.4579439252336,4,1,0,80,0,1
40271,-92.5925925925926,4,1,0,80,0,1
40438,-91.743119266055,4,1,0,80,0,1
40604,-90.9090909090909,4,1,0,80,0,1
40771,-90.0900900900901,4,1,0,80,0,1
40938,-89.2857142857143,4,1,0,80,0,1
41104,-88.4955752212389,4,1,0,80,0,1
41271,-87.719298245614,4,1,0,80,0,1
41438,-86.9565217391304,4,1,0,80,0,1
41604,-86.2068965517241,4,1,0,80,0,1
41771,-85.4700854700855,4,1,0,80,0,1
41938,-84.7457627118644,4,1,0,80,0,1
42104,-84.0336134453781,4,1,0,80,0,1
42271,-83.3333333333333,4,1,0,80,0,1
42438,-82.6446280991736,4,1,0,80,0,1
42604,-81.9672131147541,4,1,0,80,0,1
42771,-81.3008130081301,4,1,0,80,0,1
42938,-80.6451612903226,4,1,0,80,0,1
43104,-80,4,1,0,80,0,1
43271,-79.3650793650794,4,1,0,80,0,1
43438,-78.7401574803149,4,1,0,80,0,1
43604,-78.125,4,1,0,80,0,1
43771,-77.5193798449612,4,1,0,80,0,1
43938,-76.9230769230769,4,1,0,80,0,1
45271,-76.9230769230769,4,1,0,80,0,0
45938,-125,4,1,0,80,0,0
46604,-76.9230769230769,4,1,0,80,0,0
47938,-75.7575757575758,4,1,0,80,0,0
48104,-74.6268656716418,4,1,0,80,0,0
48271,-73.5294117647059,4,1,0,80,0,0
48438,-72.463768115942,4,1,0,80,0,0
48604,-71.4285714285714,4,1,0,80,0,0
48771,-70.4225352112676,4,1,0,80,0,0
48938,-73.5294117647059,4,1,0,80,0,0
49104,-75.7575757575758,4,1,0,80,0,0
49271,-76.9230769230769,4,1,0,80,0,0
50604,-75.7575757575758,4,1,0,80,0,0
50771,-74.6268656716418,4,1,0,80,0,0
50938,-73.5294117647059,4,1,0,80,0,0
51104,-72.463768115942,4,1,0,80,0,0
51271,-71.4285714285714,4,1,0,80,0,0
52104,-76.9230769230769,4,1,0,80,0,0
53271,-75.7575757575758,4,1,0,80,0,0
53437,-74.6268656716418,4,1,0,80,0,0
53604,-73.5294117647059,4,1,0,80,0,0
53771,-72.463768115942,4,1,0,80,0,0
53937,-71.4285714285714,4,1,0,80,0,0
54271,-76.9230769230769,4,1,0,80,0,0
54604,-83.3333333333333,4,1,0,80,0,0
54771,-84.7457627118644,4,1,0,80,0,0
54938,-86.2068965517241,4,1,0,80,0,0
55104,-87.719298245614,4,1,0,80,0,0
55188,-88.4955752212389,4,1,0,80,0,0
55271,-89.2857142857143,4,1,0,80,0,0
55438,-90.9090909090909,4,1,0,80,0,0
55771,-94.3396226415094,4,1,0,80,0,0
55938,-96.1538461538461,4,1,0,80,0,0
56104,-98.0392156862745,4,1,0,80,0,0
56271,-100,4,1,0,80,0,0
56438,-101.010101010101,4,1,0,80,0,0
56604,-102.040816326531,4,1,0,80,0,0
56771,-103.092783505155,4,1,0,80,0,0
57104,-105.263157894737,4,1,0,80,0,0
57604,-76.9230769230769,4,1,0,80,0,0
58604,-75.7575757575758,4,1,0,80,0,0
58770,-74.6268656716418,4,1,0,80,0,0
58937,-73.5294117647059,4,1,0,80,0,0
59104,-72.463768115942,4,1,0,80,0,0
59270,-71.4285714285714,4,1,0,80,0,0
59437,-70.4225352112676,4,1,0,80,0,0
59604,-73.5294117647059,4,1,0,80,0,0
59770,-75.7575757575758,4,1,0,80,0,0
59937,-76.9230769230769,4,1,0,80,0,0
63938,-78.125,4,1,0,80,0,0
64035,-79.3650793650794,4,1,0,80,0,0
64146,-80.6451612903226,4,1,0,80,0,0
64257,-81.9672131147541,4,1,0,80,0,0
64368,-83.3333333333333,4,1,0,80,0,0
64479,-84.7457627118644,4,1,0,80,0,0
64591,-86.2068965517241,4,1,0,80,0,0
64702,-87.719298245614,4,1,0,80,0,0
64813,-89.2857142857143,4,1,0,80,0,0
64924,-90.9090909090909,4,1,0,80,0,0
65104,-92.5925925925926,4,1,0,80,0,0
65438,-94.3396226415094,4,1,0,80,0,0
65604,-95.2380952380952,4,1,0,80,0,0
65771,-96.1538461538461,4,1,0,80,0,0
66104,-98.0392156862745,4,1,0,80,0,0
66271,-99.009900990099,4,1,0,80,0,0
66438,-100,4,1,0,80,0,0
66771,-102.040816326531,4,1,0,80,0,0
66938,-103.092783505155,4,1,0,80,0,0
67104,-104.166666666667,4,1,0,80,0,0
67271,-105.263157894737,4,1,0,80,0,0
67438,-106.382978723404,4,1,0,80,0,0
67604,-107.52688172043,4,1,0,80,0,0
67771,-108.695652173913,4,1,0,80,0,0
67938,-109.89010989011,4,1,0,80,0,0
68438,-111.111111111111,4,1,0,80,0,0
78104,-108.695652173913,4,1,0,80,0,0
78271,-104.166666666667,4,1,0,80,0,0
78438,-102.040816326531,4,1,0,80,0,0
78604,-100,4,1,0,80,0,0
78646,-100,4,1,0,80,0,1
78938,-99.0099009900991,4,1,0,80,0,1
79271,-98.0392156862745,4,1,0,80,0,1
79604,-97.0873786407766,4,1,0,80,0,1
79938,-96.153846153846,4,1,0,80,0,1
80271,-95.2380952380954,4,1,0,80,0,1
80604,-94.3396226415097,4,1,0,80,0,1
80938,-93.4579439252339,4,1,0,80,0,1
81271,-92.5925925925929,4,1,0,80,0,1
81604,-91.743119266055,4,1,0,80,0,1
81938,-90.9090909090909,4,1,0,80,0,1
82271,-90.0900900900901,4,1,0,80,0,1
82604,-89.2857142857143,4,1,0,80,0,1
82938,-88.4955752212389,4,1,0,80,0,1
83271,-87.719298245614,4,1,0,80,0,1
83604,-86.9565217391304,4,1,0,80,0,1
83938,-86.2068965517241,4,1,0,80,0,1
84104,-85.4700854700855,4,1,0,80,0,1
84271,-84.7457627118644,4,1,0,80,0,1
84438,-84.0336134453781,4,1,0,80,0,1
84604,-83.3333333333333,4,1,0,80,0,1
84771,-82.6446280991736,4,1,0,80,0,1
84938,-81.9672131147541,4,1,0,80,0,1
85104,-81.3008130081301,4,1,0,80,0,1
85271,-80.6451612903226,4,1,0,80,0,1
85438,-80,4,1,0,80,0,1
85604,-79.3650793650794,4,1,0,80,0,1
85771,-78.7401574803149,4,1,0,80,0,1
85938,-78.125,4,1,0,80,0,1
86104,-77.5193798449612,4,1,0,80,0,1
86271,-76.9230769230769,4,1,0,80,0,1
86438,-76.3358778625954,4,1,0,80,0,1
86604,-75.7575757575758,4,1,0,80,0,1
86771,-75.187969924812,4,1,0,80,0,1
86938,-74.6268656716418,4,1,0,80,0,1
87104,-74.0740740740741,4,1,0,80,0,1
87271,-73.5294117647059,4,1,0,80,0,1
87438,-72.992700729927,4,1,0,80,0,1
87604,-72.463768115942,4,1,0,80,0,1
87771,-71.9424460431655,4,1,0,80,0,1
87938,-71.4285714285714,4,1,0,80,0,1
88813,-100,4,1,0,80,0,0
89271,-111.111111111111,4,1,0,80,0,0
89604,-108.695652173913,4,1,0,80,0,0
89938,-106.382978723404,4,1,0,80,0,0
90188,-105.263157894737,4,1,0,80,0,0
90438,-104.166666666667,4,1,0,80,0,0
90771,-102.040816326531,4,1,0,80,0,0
90938,-101.010101010101,4,1,0,80,0,0
91271,-99.009900990099,4,1,0,80,0,0
91604,-97.0873786407767,4,1,0,80,0,0
91771,-96.1538461538461,4,1,0,80,0,0
91938,-95.2380952380952,4,1,0,80,0,0
92271,-93.4579439252336,4,1,0,80,0,0
92604,-91.743119266055,4,1,0,80,0,0
92854,-90.9090909090909,4,1,0,80,0,0
93104,-90.0900900900901,4,1,0,80,0,0
93438,-88.4955752212389,4,1,0,80,0,0
93604,-87.719298245614,4,1,0,80,0,0
93938,-86.2068965517241,4,1,0,80,0,0
94271,-84.7457627118644,4,1,0,80,0,0
94438,-84.0336134453781,4,1,0,80,0,0
94604,-83.3333333333333,4,1,0,80,0,0
94771,-82.6446280991736,4,1,0,80,0,0
94938,-81.9672131147541,4,1,0,80,0,0
95104,-81.3008130081301,4,1,0,80,0,0
95271,-80.6451612903226,4,1,0,80,0,0
95438,-80,4,1,0,80,0,0
95604,-79.3650793650794,4,1,0,80,0,0
95771,-78.7401574803149,4,1,0,80,0,0
95938,-78.125,4,1,0,80,0,0
96104,-77.5193798449612,4,1,0,80,0,0
96271,-76.9230769230769,4,1,0,80,0,0
96438,-76.3358778625954,4,1,0,80,0,0
96604,-75.7575757575758,4,1,0,80,0,0
96771,-75.187969924812,4,1,0,80,0,0
96938,-74.6268656716418,4,1,0,80,0,0
97104,-74.0740740740741,4,1,0,80,0,0
97271,-73.5294117647059,4,1,0,80,0,0
97438,-72.992700729927,4,1,0,80,0,0
97604,-72.463768115942,4,1,0,80,0,0
97771,-71.9424460431655,4,1,0,80,0,0
97938,-71.4285714285714,4,1,0,80,0,0
98104,-70.9219858156028,4,1,0,80,0,0
98271,-70.4225352112676,4,1,0,80,0,0
98438,-69.9300699300699,4,1,0,80,0,0
98604,-69.4444444444444,4,1,0,80,0,0
98952,-76.9230769230769,4,1,0,80,0,0
99938,-100,4,1,0,80,0,0
101271,-125,4,1,0,80,0,0
104021,-123.456790123457,4,1,0,80,0,0
104188,-120.481927710843,4,1,0,80,0,0
104354,-117.647058823529,4,1,0,80,0,0
104521,-114.942528735632,4,1,0,80,0,0
104604,-113.636363636364,4,1,0,80,0,0
104938,-106.382978723404,4,1,0,80,0,0
105271,-100,4,1,0,80,0,0
105313,-100,4,1,0,80,0,1
105438,-99.009900990099,4,1,0,80,0,1
105604,-98.0392156862745,4,1,0,80,0,1
105771,-97.0873786407767,4,1,0,80,0,1
105938,-96.1538461538461,4,1,0,80,0,1
106104,-95.2380952380952,4,1,0,80,0,1
106271,-94.3396226415094,4,1,0,80,0,1
106438,-93.4579439252336,4,1,0,80,0,1
106604,-92.5925925925926,4,1,0,80,0,1
106771,-91.743119266055,4,1,0,80,0,1
106938,-90.9090909090909,4,1,0,80,0,1
107104,-90.0900900900901,4,1,0,80,0,1
107271,-89.2857142857143,4,1,0,80,0,1
107438,-88.4955752212389,4,1,0,80,0,1
107604,-87.719298245614,4,1,0,80,0,0
107771,-94.3396226415094,4,1,0,80,0,0
107938,-100,4,1,0,80,0,0
108188,-104.166666666667,4,1,0,80,0,0
108271,-105.263157894737,4,1,0,80,0,0
108438,-107.52688172043,4,1,0,80,0,0
108688,-109.89010989011,4,1,0,80,0,0
108938,-111.111111111111,4,1,0,80,0,0
109938,-108.695652173913,4,1,0,80,0,0
110104,-106.382978723404,4,1,0,80,0,0
110271,-104.166666666667,4,1,0,80,0,0
110438,-102.040816326531,4,1,0,80,0,0
110604,-100,4,1,0,80,0,0
110646,-100,4,1,0,80,0,1
110771,-99.009900990099,4,1,0,80,0,1
110938,-98.0392156862745,4,1,0,80,0,1
111104,-97.0873786407767,4,1,0,80,0,1
111271,-96.1538461538461,4,1,0,80,0,1
111438,-95.2380952380952,4,1,0,80,0,1
111604,-94.3396226415094,4,1,0,80,0,1
111771,-93.4579439252336,4,1,0,80,0,1
111938,-92.5925925925926,4,1,0,80,0,1
112104,-91.743119266055,4,1,0,80,0,1
112271,-90.9090909090909,4,1,0,80,0,1
112438,-90.0900900900901,4,1,0,80,0,1
112604,-89.2857142857143,4,1,0,80,0,1
112771,-88.4955752212389,4,1,0,80,0,1
112938,-87.719298245614,4,1,0,80,0,1
113104,-86.9565217391304,4,1,0,80,0,1
113271,-86.2068965517241,4,1,0,80,0,1
113438,-85.4700854700855,4,1,0,80,0,1
113604,-84.7457627118644,4,1,0,80,0,1
113771,-84.0336134453781,4,1,0,80,0,1
113938,-83.3333333333333,4,1,0,80,0,1
114104,-82.6446280991736,4,1,0,80,0,1
114271,-81.9672131147541,4,1,0,80,0,1
114438,-81.3008130081301,4,1,0,80,0,1
114604,-80.6451612903226,4,1,0,80,0,1
114771,-80,4,1,0,80,0,1
114938,-79.3650793650794,4,1,0,80,0,1
115104,-78.7401574803149,4,1,0,80,0,1
115271,-78.125,4,1,0,80,0,1
115938,-78.125,4,1,0,80,0,0
117104,-111.111111111111,4,1,0,80,0,0
118604,-125,4,1,0,80,0,0

[HitObjects]
256,192,1313,5,0,0:0:0:0:
256,192,1479,1,8,0:0:0:0:
256,192,1646,1,0,0:0:0:0:
256,192,1979,1,12,0:0:0:0:
256,192,2313,1,8,0:0:0:0:
256,192,2479,1,8,0:0:0:0:
256,192,2646,1,0,0:0:0:0:
256,192,2979,1,8,0:0:0:0:
256,192,3146,1,0,0:0:0:0:
256,192,3229,1,0,0:0:0:0:
256,192,3313,1,0,0:0:0:0:
256,192,3479,1,0,0:0:0:0:
256,192,3646,1,12,0:0:0:0:
256,192,3979,1,0,0:0:0:0:
256,192,4313,1,8,0:0:0:0:
256,192,4479,1,0,0:0:0:0:
256,192,4646,1,0,0:0:0:0:
256,192,4729,1,0,0:0:0:0:
256,192,4813,1,0,0:0:0:0:
256,192,4979,1,12,0:0:0:0:
256,192,5313,1,8,0:0:0:0:
256,192,5646,1,0,0:0:0:0:
256,192,5813,1,8,0:0:0:0:
256,192,5896,1,8,0:0:0:0:
256,192,5979,1,8,0:0:0:0:
256,192,6146,1,0,0:0:0:0:
256,192,6313,1,12,0:0:0:0:
256,192,6646,1,0,0:0:0:0:
256,192,6979,1,8,0:0:0:0:
256,192,7313,1,0,0:0:0:0:
256,192,7646,1,0,0:0:0:0:
256,192,7813,1,8,0:0:0:0:
256,192,7979,1,0,0:0:0:0:
256,192,8313,1,8,0:0:0:0:
256,192,8479,1,0,0:0:0:0:
256,192,8563,1,0,0:0:0:0:
256,192,8646,1,0,0:0:0:0:
256,192,8813,1,0,0:0:0:0:
256,192,8979,1,12,0:0:0:0:
256,192,9313,1,0,0:0:0:0:
256,192,9646,1,8,0:0:0:0:
256,192,9813,1,0,0:0:0:0:
256,192,9979,1,0,0:0:0:0:
256,192,10063,1,0,0:0:0:0:
256,192,10146,1,0,0:0:0:0:
256,192,10313,1,12,0:0:0:0:
256,192,10479,1,12,0:0:0:0:
256,192,10646,12,0,11813,0:0:0:0:
256,192,11979,5,4,0:0:0:0:
256,192,12313,1,0,0:0:0:0:
256,192,12646,1,8,0:0:0:0:
256,192,12979,1,8,0:0:0:0:
256,192,13146,1,8,0:0:0:0:
256,192,13313,1,0,0:0:0:0:
256,192,13479,1,0,0:0:0:0:
256,192,13646,1,8,0:0:0:0:
256,192,13813,1,0,0:0:0:0:
256,192,13896,1,0,0:0:0:0:
256,192,13979,1,0,0:0:0:0:
256,192,14146,1,0,0:0:0:0:
256,192,14313,1,12,0:0:0:0:
256,192,14646,1,0,0:0:0:0:
256,192,14813,1,0,0:0:0:0:
256,192,14979,1,8,0:0:0:0:
256,192,15146,1,0,0:0:0:0:
256,192,15313,1,0,0:0:0:0:
256,192,15396,1,0,0:0:0:0:
256,192,15479,1,0,0:0:0:0:
256,192,15646,1,12,0:0:0:0:
256,192,15979,1,8,0:0:0:0:
256,192,16063,1,8,0:0:0:0:
256,192,16146,1,8,0:0:0:0:
256,192,16313,1,0,0:0:0:0:
256,192,16479,1,8,0:0:0:0:
256,192,16563,1,8,0:0:0:0:
256,192,16646,1,8,0:0:0:0:
256,192,16813,1,0,0:0:0:0:
256,192,16979,1,12,0:0:0:0:
256,192,17313,1,0,0:0:0:0:
256,192,17646,1,8,0:0:0:0:
256,192,17979,1,0,0:0:0:0:
256,192,18313,1,8,0:0:0:0:
256,192,18479,1,8,0:0:0:0:
256,192,18646,1,4,0:0:0:0:
256,192,18979,1,0,0:0:0:0:
256,192,19146,1,8,0:0:0:0:
256,192,19313,1,0,0:0:0:0:
256,192,19646,1,12,0:0:0:0:
256,192,19979,1,0,0:0:0:0:
256,192,20146,1,0,0:0:0:0:
256,192,20313,1,0,0:0:0:0:
256,192,20646,1,0,0:0:0:0:
256,192,20979,1,12,0:0:0:0:
256,192,21146,1,12,0:0:0:0:
256,192,21313,12,0,22146,0:0:0:0:
256,192,22313,5,8,0:0:0:0:
256,192,22479,1,8,0:0:0:0:
256,192,22646,1,0,0:0:0:0:
256,192,23313,1,0,0:0:0:0:
256,192,23479,1,0,0:0:0:0:
256,192,23646,1,8,0:0:0:0:
256,192,23813,1,8,0:0:0:0:
256,192,23979,1,4,0:0:0:0:
256,192,24479,1,0,0:0:0:0:
256,192,24979,1,0,0:0:0:0:
256,192,26646,1,8,0:0:0:0:
256,192,27146,1,8,0:0:0:0:
256,192,27646,1,8,0:0:0:0:
256,192,28646,1,8,0:0:0:0:
256,192,29313,1,0,0:0:0:0:
256,192,29813,1,0,0:0:0:0:
256,192,29979,1,8,0:0:0:0:
256,192,30313,1,0,0:0:0:0:
256,192,30979,1,0,0:0:0:0:
256,192,31313,1,8,0:0:0:0:
256,192,31979,1,0,0:0:0:0:
256,192,32479,1,0,0:0:0:0:
256,192,32646,1,8,0:0:0:0:
256,192,32979,1,4,0:0:0:0:
256,192,33979,1,8,0:0:0:0:
256,192,34146,1,0,0:0:0:0:
256,192,34313,1,8,0:0:0:0:
256,192,34479,1,8,0:0:0:0:
256,192,34646,1,0,0:0:0:0:
256,192,35146,1,8,0:0:0:0:
256,192,35313,1,0,0:0:0:0:
256,192,35646,1,8,0:0:0:0:
256,192,35979,1,0,0:0:0:0:
256,192,36313,1,8,0:0:0:0:
256,192,36646,1,0,0:0:0:0:
256,192,36813,1,0,0:0:0:0:
256,192,36979,1,8,0:0:0:0:
256,192,37313,1,0,0:0:0:0:
256,192,37813,1,8,0:0:0:0:
256,192,37979,1,8,0:0:0:0:
256,192,38313,1,8,0:0:0:0:
256,192,38646,1,0,0:0:0:0:
256,192,38979,1,8,0:0:0:0:
256,192,39146,1,0,0:0:0:0:
256,192,39313,1,0,0:0:0:0:
256,192,39646,1,8,0:0:0:0:
256,192,39813,1,0,0:0:0:0:
256,192,39979,1,8,0:0:0:0:
256,192,40313,1,8,0:0:0:0:
256,192,40646,1,8,0:0:0:0:
256,192,40813,1,8,0:0:0:0:
256,192,40896,1,8,0:0:0:0:
256,192,40979,1,8,0:0:0:0:
256,192,41146,1,0,0:0:0:0:
256,192,41313,1,8,0:0:0:0:
256,192,41646,1,8,0:0:0:0:
256,192,41979,1,8,0:0:0:0:
256,192,42146,1,8,0:0:0:0:
256,192,42229,1,8,0:0:0:0:
256,192,42313,1,8,0:0:0:0:
256,192,42479,1,0,0:0:0:0:
256,192,42646,1,8,0:0:0:0:
256,192,42813,1,8,0:0:0:0:
256,192,42896,1,8,0:0:0:0:
256,192,42979,1,8,0:0:0:0:
256,192,43146,1,0,0:0:0:0:
256,192,43313,1,8,0:0:0:0:
256,192,43479,1,8,0:0:0:0:
256,192,43563,1,8,0:0:0:0:
256,192,43646,1,8,0:0:0:0:
256,192,43813,1,0,0:0:0:0:
256,192,43979,2,8,L|448:192,4,181.999991668702
256,192,45979,1,0,0:0:0:0:
256,192,46313,1,8,0:0:0:0:
256,192,46646,1,4,0:0:0:0:
256,192,46979,1,4,0:0:0:0:
256,192,47313,1,4,0:0:0:0:
256,192,47813,1,4,0:0:0:0:
256,192,47979,1,12,0:0:0:0:
256,192,48313,1,4,0:0:0:0:
256,192,48479,1,4,0:0:0:0:
256,192,48646,1,12,0:0:0:0:
256,192,48979,1,12,0:0:0:0:
256,192,49146,1,12,0:0:0:0:
256,192,49313,1,4,0:0:0:0:
256,192,49646,1,4,0:0:0:0:
256,192,49979,1,4,0:0:0:0:
256,192,50479,1,4,0:0:0:0:
256,192,50646,1,12,0:0:0:0:
256,192,50979,1,4,0:0:0:0:
256,192,51146,1,4,0:0:0:0:
256,192,51313,1,12,0:0:0:0:
256,192,51646,1,12,0:0:0:0:
256,192,51813,1,4,0:0:0:0:
256,192,52146,1,4,0:0:0:0:
256,192,52313,1,4,0:0:0:0:
256,192,52646,1,4,0:0:0:0:
256,192,53146,1,4,0:0:0:0:
256,192,53313,1,12,0:0:0:0:
256,192,53646,1,4,0:0:0:0:
256,192,53813,1,4,0:0:0:0:
256,192,53979,1,12,0:0:0:0:
256,192,54313,2,8,L|352:192,1,90.9999958343508
256,192,54646,1,0,0:0:0:0:
256,192,54979,1,8,0:0:0:0:
256,192,55146,1,0,0:0:0:0:
256,192,55229,1,0,0:0:0:0:
256,192,55313,1,0,0:0:0:0:
256,192,55479,1,8,0:0:0:0:
256,192,55813,1,0,0:0:0:0:
256,192,55979,1,0,0:0:0:0:
256,192,56313,1,8,0:0:0:0:
256,192,56479,1,0,0:0:0:0:
256,192,56563,1,0,0:0:0:0:
256,192,56646,1,0,0:0:0:0:
256,192,56813,1,8,0:0:0:0:
256,192,57146,1,0,0:0:0:0:
256,192,57646,1,4,0:0:0:0:
256,192,57979,1,4,0:0:0:0:
256,192,58479,1,4,0:0:0:0:
256,192,58646,1,12,0:0:0:0:
256,192,58979,1,4,0:0:0:0:
256,192,59146,1,4,0:0:0:0:
256,192,59313,1,12,0:0:0:0:
256,192,59646,1,12,0:0:0:0:
256,192,59813,1,12,0:0:0:0:
256,192,59979,1,4,0:0:0:0:
256,192,60313,1,4,0:0:0:0:
256,192,60646,1,4,0:0:0:0:
256,192,61146,1,4,0:0:0:0:
256,192,61313,1,8,0:0:0:0:
256,192,61396,1,8,0:0:0:0:
256,192,61479,1,8,0:0:0:0:
256,192,61646,1,0,0:0:0:0:
256,192,61813,1,0,0:0:0:0:
256,192,61979,1,8,0:0:0:0:
256,192,62313,1,12,0:0:0:0:
256,192,62479,1,12,0:0:0:0:
256,192,62813,1,4,0:0:0:0:
256,192,62979,1,4,0:0:0:0:
256,192,63313,1,4,0:0:0:0:
256,192,63813,1,12,0:0:0:0:
256,192,63979,1,0,0:0:0:0:
256,192,64091,1,0,0:0:0:0:
256,192,64313,1,0,0:0:0:0:
256,192,64424,1,0,0:0:0:0:
256,192,64646,1,0,0:0:0:0:
256,192,64757,1,0,0:0:0:0:
256,192,64979,1,0,0:0:0:0:
256,192,65146,2,8,L|336:192,1,75.6000018457032
256,192,65479,1,0,0:0:0:0:
256,192,65646,1,8,0:0:0:0:
256,192,65813,2,0,L|336:192,1,72.7999995556641
256,192,66146,1,8,0:0:0:0:
256,192,66313,1,0,0:0:0:0:
256,192,66479,2,8,L|336:192,1,70
256,192,66813,1,0,0:0:0:0:
256,192,66896,1,0,0:0:0:0:
256,192,66979,1,0,0:0:0:0:
256,192,67146,1,8,0:0:0:0:
256,192,67479,1,0,0:0:0:0:
256,192,67646,1,8,0:0:0:0:
256,192,67813,1,0,0:0:0:0:
256,192,67979,1,0,0:0:0:0:
256,192,68479,1,0,0:0:0:0:
256,192,68979,1,4,0:0:0:0:
256,192,69146,12,0,70479,0:0:0:0:
256,192,70646,5,0,0:0:0:0:
256,192,70979,1,8,0:0:0:0:
256,192,71146,1,0,0:0:0:0:
256,192,71229,1,0,0:0:0:0:
256,192,71313,1,0,0:0:0:0:
256,192,71479,1,0,0:0:0:0:
256,192,71646,1,8,0:0:0:0:
256,192,71979,1,0,0:0:0:0:
256,192,72146,1,0,0:0:0:0:
256,192,72313,1,8,0:0:0:0:
256,192,72479,1,0,0:0:0:0:
256,192,72563,1,0,0:0:0:0:
256,192,72646,1,0,0:0:0:0:
256,192,72813,1,0,0:0:0:0:
256,192,72979,1,8,0:0:0:0:
256,192,73146,1,8,0:0:0:0:
256,192,73313,1,0,0:0:0:0:
256,192,73646,1,8,0:0:0:0:
256,192,73813,1,0,0:0:0:0:
256,192,73896,1,0,0:0:0:0:
256,192,73979,1,0,0:0:0:0:
256,192,74146,1,0,0:0:0:0:
256,192,74313,1,8,0:0:0:0:
256,192,74646,1,0,0:0:0:0:
256,192,74813,1,0,0:0:0:0:
256,192,74979,1,8,0:0:0:0:
256,192,75146,1,0,0:0:0:0:
256,192,75313,1,8,0:0:0:0:
256,192,75479,1,0,0:0:0:0:
256,192,75646,1,8,0:0:0:0:
256,192,75729,1,8,0:0:0:0:
256,192,75813,1,8,0:0:0:0:
256,192,75979,1,0,0:0:0:0:
256,192,76313,1,8,0:0:0:0:
256,192,76479,1,0,0:0:0:0:
256,192,76563,1,0,0:0:0:0:
256,192,76646,1,0,0:0:0:0:
256,192,76813,1,0,0:0:0:0:
256,192,76979,1,8,0:0:0:0:
256,192,77313,1,0,0:0:0:0:
256,192,77479,1,0,0:0:0:0:
256,192,77646,1,8,0:0:0:0:
256,192,77813,1,0,0:0:0:0:
256,192,77979,1,8,0:0:0:0:
256,192,78146,1,0,0:0:0:0:
256,192,78313,1,8,0:0:0:0:
256,192,78479,1,8,0:0:0:0:
256,192,78646,1,4,0:0:0:0:
256,192,79146,1,8,0:0:0:0:
256,192,79313,1,0,0:0:0:0:
256,192,79646,1,8,0:0:0:0:
256,192,79979,1,0,0:0:0:0:
256,192,80313,1,8,0:0:0:0:
256,192,80646,1,0,0:0:0:0:
256,192,80813,1,0,0:0:0:0:
256,192,80979,1,8,0:0:0:0:
256,192,81313,1,0,0:0:0:0:
256,192,81813,1,8,0:0:0:0:
256,192,81979,1,8,0:0:0:0:
256,192,82313,1,8,0:0:0:0:
256,192,82646,1,0,0:0:0:0:
256,192,82979,1,8,0:0:0:0:
256,192,83146,1,0,0:0:0:0:
256,192,83313,1,0,0:0:0:0:
256,192,83646,1,8,0:0:0:0:
256,192,83813,1,0,0:0:0:0:
256,192,83979,1,8,0:0:0:0:
256,192,84146,1,0,0:0:0:0:
256,192,84313,1,8,0:0:0:0:
256,192,84479,1,0,0:0:0:0:
256,192,84646,1,8,0:0:0:0:
256,192,84896,1,8,0:0:0:0:
256,192,85146,1,8,0:0:0:0:
256,192,85313,1,8,0:0:0:0:
256,192,85479,1,0,0:0:0:0:
256,192,85646,1,8,0:0:0:0:
256,192,85813,1,0,0:0:0:0:
256,192,85979,1,8,0:0:0:0:
256,192,86229,1,8,0:0:0:0:
256,192,86479,1,8,0:0:0:0:
256,192,86646,1,8,0:0:0:0:
256,192,86896,1,8,0:0:0:0:
256,192,87146,1,8,0:0:0:0:
256,192,87313,1,8,0:0:0:0:
256,192,87563,1,8,0:0:0:0:
256,192,87813,1,8,0:0:0:0:
256,192,87979,12,0,89146,0:0:0:0:
256,192,89313,5,0,0:0:0:0:
256,192,89646,1,0,0:0:0:0:
256,192,89979,1,8,0:0:0:0:
256,192,90229,1,0,0:0:0:0:
256,192,90479,1,0,0:0:0:0:
256,192,90813,1,0,0:0:0:0:
256,192,90979,1,0,0:0:0:0:
256,192,91313,1,8,0:0:0:0:
256,192,91646,1,0,0:0:0:0:
256,192,91813,1,0,0:0:0:0:
256,192,91979,1,0,0:0:0:0:
256,192,92313,1,0,0:0:0:0:
256,192,92646,1,8,0:0:0:0:
256,192,92896,1,0,0:0:0:0:
256,192,93146,1,0,0:0:0:0:
256,192,93479,1,0,0:0:0:0:
256,192,93646,1,0,0:0:0:0:
256,192,93979,1,8,0:0:0:0:
256,192,94313,1,0,0:0:0:0:
256,192,94479,1,0,0:0:0:0:
256,192,94646,1,8,0:0:0:0:
256,192,94979,1,0,0:0:0:0:
256,192,95313,1,8,0:0:0:0:
256,192,95646,1,0,0:0:0:0:
256,192,95979,1,8,0:0:0:0:
256,192,96146,1,0,0:0:0:0:
256,192,96313,1,0,0:0:0:0:
256,192,96479,1,8,0:0:0:0:
256,192,96646,1,8,0:0:0:0:
256,192,96813,1,0,0:0:0:0:
256,192,96896,1,0,0:0:0:0:
256,192,96979,1,0,0:0:0:0:
256,192,97146,1,0,0:0:0:0:
256,192,97313,1,8,0:0:0:0:
256,192,97563,1,8,0:0:0:0:
256,192,97729,1,8,0:0:0:0:
256,192,97813,1,8,0:0:0:0:
256,192,97979,1,8,0:0:0:0:
256,192,98229,1,8,0:0:0:0:
256,192,98396,1,8,0:0:0:0:
256,192,98479,1,8,0:0:0:0:
256,192,98646,2,8,L|368:192,1,100.800002460938
256,192,98979,1,0,0:0:0:0:
256,192,99979,1,4,0:0:0:0:
256,192,102646,1,0,0:0:0:0:
256,192,103146,1,0,0:0:0:0:
256,192,103646,1,0,0:0:0:0:
256,192,103979,1,8,0:0:0:0:
256,192,104063,1,8,0:0:0:0:
256,192,104229,1,8,0:0:0:0:
256,192,104396,1,8,0:0:0:0:
256,192,104646,1,0,0:0:0:0:
256,192,104979,1,8,0:0:0:0:
256,192,105313,1,0,0:0:0:0:
256,192,105479,1,0,0:0:0:0:
256,192,105646,1,8,0:0:0:0:
256,192,105813,1,0,0:0:0:0:
256,192,105896,1,0,0:0:0:0:
256,192,105979,1,0,0:0:0:0:
256,192,106146,1,0,0:0:0:0:
256,192,106313,1,8,0:0:0:0:
256,192,106479,1,8,0:0:0:0:
256,192,106813,1,0,0:0:0:0:
256,192,106979,1,8,0:0:0:0:
256,192,107146,1,0,0:0:0:0:
256,192,107229,1,0,0:0:0:0:
256,192,107313,1,0,0:0:0:0:
256,192,107479,1,0,0:0:0:0:
256,192,107646,1,8,0:0:0:0:
256,192,107813,1,0,0:0:0:0:
256,192,107979,1,8,0:0:0:0:
256,192,108313,1,8,0:0:0:0:
256,192,108479,1,0,0:0:0:0:
256,192,108729,1,0,0:0:0:0:
256,192,108979,1,8,0:0:0:0:
256,192,109313,1,0,0:0:0:0:
256,192,109479,1,0,0:0:0:0:
256,192,109646,1,8,0:0:0:0:
256,192,109813,1,0,0:0:0:0:
256,192,110146,1,0,0:0:0:0:
256,192,110313,1,8,0:0:0:0:
256,192,110479,1,8,0:0:0:0:
256,192,110646,1,4,0:0:0:0:
256,192,110813,1,0,0:0:0:0:
256,192,110979,1,8,0:0:0:0:
256,192,111146,1,0,0:0:0:0:
256,192,111229,1,0,0:0:0:0:
256,192,111313,1,0,0:0:0:0:
256,192,111479,1,0,0:0:0:0:
256,192,111646,1,8,0:0:0:0:
256,192,111813,1,0,0:0:0:0:
256,192,111979,1,0,0:0:0:0:
256,192,112313,1,8,0:0:0:0:
256,192,112646,1,0,0:0:0:0:
256,192,112813,1,0,0:0:0:0:
256,192,112979,1,8,0:0:0:0:
256,192,113146,1,0,0:0:0:0:
256,192,113229,1,0,0:0:0:0:
256,192,113313,1,0,0:0:0:0:
256,192,113479,1,0,0:0:0:0:
256,192,113646,1,8,0:0:0:0:
256,192,113813,1,0,0:0:0:0:
256,192,114146,1,0,0:0:0:0:
256,192,114313,1,8,0:0:0:0:
256,192,114646,1,0,0:0:0:0:
256,192,114813,1,0,0:0:0:0:
256,192,114979,1,8,0:0:0:0:
256,192,115146,1,0,0:0:0:0:
256,192,115313,2,8,L|352:192,3,89.6
256,192,115979,1,0,0:0:0:0:
256,192,117146,1,0,0:0:0:0:
256,192,118646,1,0,0:0:0:0:
256,192,119146,1,8,0:0:0:0:
256,192,119646,1,8,0:0:0:0:
256,192,119813,12,0,121313,0:0:0:0:
