osu file format v14

[General]
AudioFilename: audio.mp3
AudioLeadIn: 0
PreviewTime: 45812
Countdown: 1
SampleSet: None
StackLeniency: 0.7
Mode: 1
LetterboxInBreaks: 0
WidescreenStoryboard: 0

[Editor]
DistanceSpacing: 1.1
BeatDivisor: 4
GridSize: 8
TimelineZoom: 2.999999

[Metadata]
Title:Come to Life
TitleUnicode:Come to Life
Artist:ARM (IOSYS) feat. Nicole Curry
ArtistUnicode:ARM (IOSYS) feat. Nicole Curry
Creator:MMzz
Version:Inner Oni
Source:DanceDanceRevolution A
Tags:
BeatmapID:1199082
BeatmapSetID:566025

[Difficulty]
HPDrainRate:6
CircleSize:5
OverallDifficulty:6.5
ApproachRate:5
SliderMultiplier:1.4
SliderTickRate:1

[Events]
//Background and Video events
//Break Periods
//Storyboard Layer 0 (Background)
//Storyboard Layer 1 (Fail)
//Storyboard Layer 2 (Pass)
//Storyboard Layer 3 (Foreground)
//Storyboard Sound Samples

[TimingPoints]
479,333.333333333333,4,1,0,100,1,0
22478,-111.111111111111,4,1,0,100,0,0
33812,-100,4,1,0,100,0,0
45478,-50,4,1,0,100,0,0
45812,-83.3333333333333,4,1,0,100,0,1
53478,-83.3333333333333,4,1,0,100,0,0
53812,-111.111111111111,4,1,0,100,0,0
56312,-50,4,1,0,100,0,0
56812,-83.3333333333333,4,1,0,100,0,1
64312,-83.3333333333333,4,1,0,100,0,0
64645,-83.3333333333333,4,1,0,100,0,0
65312,-100,4,1,0,100,0,0
67145,-111.111111111111,4,1,0,100,0,0
69812,-100,4,1,0,100,0,0
99145,-111.111111111111,4,1,0,100,0,0
104478,-100,4,1,0,100,0,0

[HitObjects]
240,168,479,5,0,0:0:0:0:
200,160,562,1,0,0:0:0:0:
208,120,645,1,8,0:0:0:0:
232,120,701,1,8,0:0:0:0:
256,120,756,1,8,0:0:0:0:
280,120,812,1,0,0:0:0:0:
280,120,978,1,0,0:0:0:0:
280,120,1034,1,0,0:0:0:0:
280,120,1090,1,0,0:0:0:0:
280,120,1145,1,8,0:0:0:0:
128,144,1479,1,8,0:0:0:0:
256,120,1645,1,8,0:0:0:0:
256,120,1812,1,4,0:0:0:0:
256,120,1979,1,8,0:0:0:0:
256,120,2062,1,0,0:0:0:0:
256,120,2145,1,8,0:0:0:0:
256,120,2312,1,8,0:0:0:0:
256,120,2479,1,8,0:0:0:0:
256,120,2562,1,8,0:0:0:0:
256,120,2645,1,8,0:0:0:0:
256,120,2812,1,4,0:0:0:0:
120,192,3145,1,8,0:0:0:0:
192,152,3312,1,8,0:0:0:0:
224,136,3395,1,0,0:0:0:0:
224,136,3479,1,8,0:0:0:0:
224,136,3645,1,8,0:0:0:0:
224,136,3812,1,8,0:0:0:0:
224,136,3895,1,8,0:0:0:0:
224,136,3978,1,8,0:0:0:0:
224,136,4145,1,4,0:0:0:0:
352,224,4478,1,8,0:0:0:0:
320,200,4562,1,0,0:0:0:0:
288,176,4645,1,8,0:0:0:0:
256,160,4728,1,8,0:0:0:0:
256,160,4812,1,0,0:0:0:0:
256,160,4978,1,8,0:0:0:0:
256,160,5062,1,8,0:0:0:0:
256,160,5145,1,0,0:0:0:0:
256,160,5228,1,8,0:0:0:0:
256,160,5312,1,0,0:0:0:0:
256,160,5478,1,12,0:0:0:0:
112,104,5812,1,8,0:0:0:0:
144,120,5895,1,8,0:0:0:0:
224,128,6062,1,0,0:0:0:0:
224,128,6145,1,8,0:0:0:0:
224,128,6228,1,0,0:0:0:0:
144,128,6395,1,0,0:0:0:0:
184,128,6478,1,8,0:0:0:0:
256,104,6645,1,8,0:0:0:0:
256,104,6701,1,8,0:0:0:0:
232,88,6756,1,0,0:0:0:0:
208,72,6812,1,0,0:0:0:0:
120,40,6978,1,0,0:0:0:0:
176,88,7145,1,8,0:0:0:0:
256,80,7312,1,8,0:0:0:0:
256,80,7395,1,0,0:0:0:0:
256,80,7478,1,8,0:0:0:0:
256,80,7645,1,8,0:0:0:0:
256,80,7812,1,8,0:0:0:0:
256,80,7895,1,8,0:0:0:0:
256,80,7978,1,8,0:0:0:0:
256,80,8145,1,4,0:0:0:0:
256,80,8479,1,8,0:0:0:0:
256,80,8645,1,8,0:0:0:0:
256,80,8729,1,0,0:0:0:0:
256,80,8812,1,8,0:0:0:0:
256,80,8979,1,8,0:0:0:0:
256,80,9145,1,8,0:0:0:0:
256,80,9229,1,8,0:0:0:0:
256,80,9312,1,8,0:0:0:0:
256,80,9479,1,4,0:0:0:0:
184,112,9645,1,8,0:0:0:0:
136,176,9812,1,0,0:0:0:0:
168,152,9895,1,8,0:0:0:0:
224,208,10062,1,0,0:0:0:0:
168,152,10228,1,8,0:0:0:0:
224,208,10395,1,8,0:0:0:0:
200,184,10478,1,0,0:0:0:0:
200,184,10562,1,8,0:0:0:0:
200,184,10728,1,0,0:0:0:0:
200,184,10895,1,8,0:0:0:0:
200,184,11062,1,8,0:0:0:0:
200,184,11145,1,0,0:0:0:0:
72,104,11478,1,8,0:0:0:0:
120,128,11645,1,8,0:0:0:0:
192,144,11812,1,0,0:0:0:0:
272,152,11978,1,8,0:0:0:0:
200,144,12145,1,12,0:0:0:0:
272,152,12312,1,12,0:0:0:0:
200,136,12478,1,4,0:0:0:0:
200,144,12645,1,8,0:0:0:0:
200,144,12728,1,0,0:0:0:0:
200,144,12812,1,8,0:0:0:0:
200,144,12978,1,8,0:0:0:0:
200,144,13145,1,8,0:0:0:0:
200,144,13228,1,8,0:0:0:0:
200,144,13312,1,8,0:0:0:0:
200,144,13478,1,4,0:0:0:0:
200,144,13812,1,8,0:0:0:0:
200,144,13978,1,8,0:0:0:0:
200,144,14062,1,0,0:0:0:0:
200,144,14145,1,8,0:0:0:0:
200,144,14312,1,8,0:0:0:0:
200,144,14478,1,8,0:0:0:0:
200,144,14562,1,8,0:0:0:0:
200,144,14645,1,8,0:0:0:0:
200,144,14812,1,4,0:0:0:0:
200,144,15145,1,8,0:0:0:0:
200,144,15228,1,0,0:0:0:0:
200,144,15312,1,8,0:0:0:0:
200,144,15395,1,8,0:0:0:0:
200,144,15478,1,0,0:0:0:0:
200,144,15645,1,8,0:0:0:0:
200,144,15728,1,8,0:0:0:0:
200,144,15812,1,0,0:0:0:0:
200,144,15895,1,8,0:0:0:0:
200,144,15978,1,0,0:0:0:0:
200,144,16145,1,12,0:0:0:0:
200,144,16478,1,8,0:0:0:0:
200,144,16562,1,0,0:0:0:0:
200,144,16728,1,0,0:0:0:0:
200,144,16812,1,8,0:0:0:0:
200,144,16895,1,0,0:0:0:0:
200,144,17062,1,0,0:0:0:0:
200,144,17145,1,8,0:0:0:0:
200,144,17312,1,8,0:0:0:0:
200,144,17395,1,8,0:0:0:0:
200,144,17478,1,0,0:0:0:0:
200,144,17645,1,0,0:0:0:0:
200,144,17812,1,8,0:0:0:0:
248,80,17978,1,8,0:0:0:0:
224,112,18062,1,8,0:0:0:0:
224,112,18145,1,8,0:0:0:0:
224,112,18312,1,8,0:0:0:0:
224,112,18478,1,0,0:0:0:0:
224,112,18562,1,0,0:0:0:0:
224,112,18645,1,8,0:0:0:0:
224,112,18812,1,8,0:0:0:0:
224,112,19145,1,8,0:0:0:0:
224,112,19312,1,8,0:0:0:0:
224,112,19395,1,8,0:0:0:0:
224,112,19478,1,8,0:0:0:0:
184,40,19645,1,8,0:0:0:0:
224,112,19812,1,8,0:0:0:0:
208,80,19895,1,0,0:0:0:0:
208,80,19978,1,8,0:0:0:0:
208,80,20145,1,8,0:0:0:0:
208,80,20312,1,0,0:0:0:0:
160,144,20478,2,0,P|296:312|328:80,1,560
64,232,22478,1,0,0:0:0:0:
96,216,22645,1,0,0:0:0:0:
144,152,22812,1,8,0:0:0:0:
144,152,22978,1,8,0:0:0:0:
144,152,23145,1,4,0:0:0:0:
144,152,23645,1,8,0:0:0:0:
144,152,24145,1,8,0:0:0:0:
192,152,25478,1,0,0:0:0:0:
192,152,25645,1,0,0:0:0:0:
192,152,25812,1,8,0:0:0:0:
176,264,26145,1,8,0:0:0:0:
184,208,26312,1,0,0:0:0:0:
200,96,26645,1,0,0:0:0:0:
192,160,26812,1,8,0:0:0:0:
192,160,27478,1,0,0:0:0:0:
192,160,27812,1,8,0:0:0:0:
96,96,28145,1,8,0:0:0:0:
144,128,28312,1,8,0:0:0:0:
416,208,28478,1,0,0:0:0:0:
240,184,28978,1,0,0:0:0:0:
184,184,29145,1,8,0:0:0:0:
296,176,29478,1,0,0:0:0:0:
64,192,30145,1,0,0:0:0:0:
112,160,30312,1,0,0:0:0:0:
176,184,30478,1,8,0:0:0:0:
40,104,30812,1,0,0:0:0:0:
448,320,31145,1,8,0:0:0:0:
416,304,31228,1,0,0:0:0:0:
384,288,31312,1,0,0:0:0:0:
352,272,31395,1,0,0:0:0:0:
320,256,31478,1,8,0:0:0:0:
288,240,31562,1,8,0:0:0:0:
256,224,31645,1,0,0:0:0:0:
224,208,31728,1,0,0:0:0:0:
232,104,31812,1,8,0:0:0:0:
256,96,31895,1,0,0:0:0:0:
232,104,31978,1,0,0:0:0:0:
208,112,32062,1,0,0:0:0:0:
184,120,32145,1,12,0:0:0:0:
144,160,33145,5,0,0:0:0:0:
200,136,33312,1,0,0:0:0:0:
200,136,33367,1,0,0:0:0:0:
200,136,33423,1,0,0:0:0:0:
200,136,33478,1,8,0:0:0:0:
200,136,33645,1,8,0:0:0:0:
200,136,33812,1,0,0:0:0:0:
160,288,34145,1,8,0:0:0:0:
168,208,34312,1,8,0:0:0:0:
168,128,34478,1,0,0:0:0:0:
248,264,34812,1,8,0:0:0:0:
176,128,35145,1,0,0:0:0:0:
208,200,35312,1,0,0:0:0:0:
208,200,35478,1,8,0:0:0:0:
208,200,35645,1,8,0:0:0:0:
208,200,35812,1,0,0:0:0:0:
208,200,35978,1,0,0:0:0:0:
208,200,36145,1,8,0:0:0:0:
208,200,36478,1,0,0:0:0:0:
152,56,36812,1,8,0:0:0:0:
176,128,36978,1,8,0:0:0:0:
208,200,37145,1,0,0:0:0:0:
152,56,37478,1,8,0:0:0:0:
176,128,37645,1,8,0:0:0:0:
256,120,37812,1,0,0:0:0:0:
176,128,37978,1,0,0:0:0:0:
256,120,38145,1,8,0:0:0:0:
144,144,38312,1,0,0:0:0:0:
144,144,38478,1,0,0:0:0:0:
40,184,38728,1,0,0:0:0:0:
80,168,38812,1,8,0:0:0:0:
216,128,38978,1,0,0:0:0:0:
288,152,39145,1,8,0:0:0:0:
288,152,39478,1,8,0:0:0:0:
288,152,39812,1,8,0:0:0:0:
288,152,40145,1,8,0:0:0:0:
216,168,40312,1,0,0:0:0:0:
144,184,40478,1,8,0:0:0:0:
280,112,40812,1,8,0:0:0:0:
152,184,41145,1,8,0:0:0:0:
288,96,41478,1,8,0:0:0:0:
224,136,41645,1,0,0:0:0:0:
184,200,41812,1,8,0:0:0:0:
208,168,41895,1,0,0:0:0:0:
208,168,41978,1,0,0:0:0:0:
208,168,42062,1,0,0:0:0:0:
208,168,42145,1,8,0:0:0:0:
208,168,42228,1,0,0:0:0:0:
208,168,42312,1,0,0:0:0:0:
208,168,42395,1,0,0:0:0:0:
208,168,42478,1,8,0:0:0:0:
208,168,42562,1,8,0:0:0:0:
208,168,42645,1,0,0:0:0:0:
208,168,42728,1,0,0:0:0:0:
208,168,42812,1,8,0:0:0:0:
208,168,42895,1,8,0:0:0:0:
208,168,42978,1,0,0:0:0:0:
208,168,43062,1,0,0:0:0:0:
208,168,43145,1,8,0:0:0:0:
208,168,43228,1,0,0:0:0:0:
208,168,43312,5,0,0:0:0:0:
208,168,43395,1,0,0:0:0:0:
208,168,43478,1,8,0:0:0:0:
208,168,43562,1,0,0:0:0:0:
208,168,43645,1,0,0:0:0:0:
208,168,43728,1,0,0:0:0:0:
208,168,43812,1,8,0:0:0:0:
208,168,43895,1,8,0:0:0:0:
208,168,43978,1,0,0:0:0:0:
208,168,44062,1,0,0:0:0:0:
208,168,44145,1,8,0:0:0:0:
208,168,44228,1,8,0:0:0:0:
208,168,44312,1,8,0:0:0:0:
208,168,44395,1,8,0:0:0:0:
256,192,45478,5,12,0:0:0:0:
256,192,45812,1,4,0:0:0:0:
256,192,46145,1,4,0:0:0:0:
256,192,46478,1,12,0:0:0:0:
256,192,46728,1,12,0:0:0:0:
256,192,46978,1,12,0:0:0:0:
256,192,47145,1,4,0:0:0:0:
256,192,47312,1,4,0:0:0:0:
256,192,47478,1,12,0:0:0:0:
256,192,47645,1,4,0:0:0:0:
256,192,47812,1,4,0:0:0:0:
256,192,47978,1,4,0:0:0:0:
256,192,48145,1,12,0:0:0:0:
256,192,48312,1,12,0:0:0:0:
256,192,48478,1,4,0:0:0:0:
256,192,48812,1,4,0:0:0:0:
256,192,49145,1,12,0:0:0:0:
256,192,49395,1,12,0:0:0:0:
256,192,49645,1,12,0:0:0:0:
256,192,49812,1,4,0:0:0:0:
256,192,49978,1,4,0:0:0:0:
256,192,50145,1,12,0:0:0:0:
256,192,50312,1,12,0:0:0:0:
256,192,50478,1,4,0:0:0:0:
256,192,50645,1,12,0:0:0:0:
256,192,50812,1,4,0:0:0:0:
256,192,50978,1,12,0:0:0:0:
256,192,51312,1,4,0:0:0:0:
256,192,51478,1,4,0:0:0:0:
256,192,51812,1,12,0:0:0:0:
256,192,52062,1,12,0:0:0:0:
256,192,52312,1,12,0:0:0:0:
256,192,52478,1,4,0:0:0:0:
256,192,52645,1,12,0:0:0:0:
256,192,52812,1,12,0:0:0:0:
256,192,52978,1,4,0:0:0:0:
256,192,53145,1,12,0:0:0:0:
256,192,53312,1,12,0:0:0:0:
256,192,53478,1,12,0:0:0:0:
136,96,53812,1,0,0:0:0:0:
160,120,53895,1,0,0:0:0:0:
184,152,53978,1,0,0:0:0:0:
160,120,54062,1,0,0:0:0:0:
184,152,54145,1,8,0:0:0:0:
184,72,54312,1,8,0:0:0:0:
184,112,54395,1,8,0:0:0:0:
184,112,54478,1,0,0:0:0:0:
184,112,54562,1,0,0:0:0:0:
184,112,54645,1,8,0:0:0:0:
184,112,54812,1,8,0:0:0:0:
184,112,54895,1,0,0:0:0:0:
184,112,54978,1,8,0:0:0:0:
184,112,55062,1,8,0:0:0:0:
184,112,55145,1,0,0:0:0:0:
184,112,55228,1,0,0:0:0:0:
184,112,55312,1,8,0:0:0:0:
184,112,55478,1,8,0:0:0:0:
184,112,55562,1,0,0:0:0:0:
160,144,55645,1,0,0:0:0:0:
160,144,55728,1,8,0:0:0:0:
160,144,55812,1,8,0:0:0:0:
160,144,55895,1,0,0:0:0:0:
160,144,55978,1,8,0:0:0:0:
104,96,56145,1,0,0:0:0:0:
160,144,56312,1,12,0:0:0:0:
392,152,56812,1,4,0:0:0:0:
232,144,57145,1,12,0:0:0:0:
120,128,57395,1,12,0:0:0:0:
216,192,57645,1,12,0:0:0:0:
152,144,57812,1,4,0:0:0:0:
152,144,57978,1,4,0:0:0:0:
152,144,58145,1,12,0:0:0:0:
152,144,58312,1,4,0:0:0:0:
152,144,58478,1,4,0:0:0:0:
152,144,58645,1,4,0:0:0:0:
152,144,58812,1,12,0:0:0:0:
152,144,58978,1,12,0:0:0:0:
152,144,59145,1,4,0:0:0:0:
152,144,59478,1,4,0:0:0:0:
152,144,59812,1,12,0:0:0:0:
152,144,60062,1,12,0:0:0:0:
152,144,60312,1,12,0:0:0:0:
152,144,60478,1,0,0:0:0:0:
152,144,60562,1,0,0:0:0:0:
152,144,60645,1,0,0:0:0:0:
152,144,60728,1,0,0:0:0:0:
152,144,60812,1,8,0:0:0:0:
152,144,60895,1,8,0:0:0:0:
152,144,60978,1,0,0:0:0:0:
152,144,61062,1,0,0:0:0:0:
152,144,61145,1,8,0:0:0:0:
152,144,61312,1,12,0:0:0:0:
152,144,61478,1,4,0:0:0:0:
152,144,61645,1,12,0:0:0:0:
152,144,61978,1,4,0:0:0:0:
152,144,62145,1,4,0:0:0:0:
0,112,62478,1,12,0:0:0:0:
104,136,62728,1,12,0:0:0:0:
200,152,62978,1,12,0:0:0:0:
264,104,63145,1,0,0:0:0:0:
224,136,63256,1,0,0:0:0:0:
224,136,63367,1,0,0:0:0:0:
224,136,63478,1,8,0:0:0:0:
224,136,63590,1,8,0:0:0:0:
224,136,63701,1,8,0:0:0:0:
224,136,63812,1,0,0:0:0:0:
224,136,63923,1,0,0:0:0:0:
224,136,64034,1,8,0:0:0:0:
224,136,64145,1,0,0:0:0:0:
264,72,64312,1,12,0:0:0:0:
168,192,64645,1,0,0:0:0:0:
216,128,64812,1,8,0:0:0:0:
216,128,64978,1,4,0:0:0:0:
104,232,65312,1,8,0:0:0:0:
160,176,65478,1,0,0:0:0:0:
200,144,65645,1,12,0:0:0:0:
72,232,65978,1,8,0:0:0:0:
104,208,66062,1,0,0:0:0:0:
136,184,66145,1,8,0:0:0:0:
168,160,66228,1,8,0:0:0:0:
192,128,66312,1,0,0:0:0:0:
192,128,66395,1,0,0:0:0:0:
192,128,66478,1,8,0:0:0:0:
192,128,66645,1,0,0:0:0:0:
192,128,66812,1,8,0:0:0:0:
192,128,66978,1,8,0:0:0:0:
136,184,67145,1,0,0:0:0:0:
136,184,67645,1,0,0:0:0:0:
104,56,68145,2,4,B|136:296|136:296|400:240,1,503.999984619141
256,168,69812,1,4,0:0:0:0:
192,120,69978,1,0,0:0:0:0:
224,144,70062,1,0,0:0:0:0:
224,144,70145,1,8,0:0:0:0:
224,144,70312,1,8,0:0:0:0:
224,144,70478,1,0,0:0:0:0:
224,144,70645,1,8,0:0:0:0:
224,144,70728,1,8,0:0:0:0:
224,144,70812,1,0,0:0:0:0:
224,144,70895,1,0,0:0:0:0:
224,144,70978,1,8,0:0:0:0:
224,144,71145,1,0,0:0:0:0:
224,144,71312,1,8,0:0:0:0:
224,144,71395,1,8,0:0:0:0:
224,144,71478,1,0,0:0:0:0:
224,144,71645,1,8,0:0:0:0:
224,144,71812,1,0,0:0:0:0:
224,144,71895,1,0,0:0:0:0:
224,144,71978,1,8,0:0:0:0:
224,144,72062,1,0,0:0:0:0:
224,144,72145,1,8,0:0:0:0:
224,144,72312,1,8,0:0:0:0:
272,200,72478,1,0,0:0:0:0:
224,144,72645,1,8,0:0:0:0:
248,176,72728,1,8,0:0:0:0:
248,176,72812,1,0,0:0:0:0:
248,176,72978,1,8,0:0:0:0:
248,176,73145,1,0,0:0:0:0:
248,176,73228,1,0,0:0:0:0:
248,176,73312,1,8,0:0:0:0:
248,176,73395,1,8,0:0:0:0:
248,176,73478,1,0,0:0:0:0:
200,136,73645,1,8,0:0:0:0:
120,152,73812,1,0,0:0:0:0:
192,128,73978,1,8,0:0:0:0:
152,144,74062,1,8,0:0:0:0:
152,144,74145,1,0,0:0:0:0:
152,144,74312,1,8,0:0:0:0:
224,136,74478,1,0,0:0:0:0:
200,104,74562,1,0,0:0:0:0:
200,104,74645,1,8,0:0:0:0:
200,104,74728,1,0,0:0:0:0:
200,104,74812,1,8,0:0:0:0:
200,104,74978,1,0,0:0:0:0:
200,104,75145,1,0,0:0:0:0:
176,32,75312,1,0,0:0:0:0:
192,72,75395,1,0,0:0:0:0:
192,72,75478,1,8,0:0:0:0:
160,144,75645,1,8,0:0:0:0:
232,112,75812,1,0,0:0:0:0:
160,144,75978,1,8,0:0:0:0:
192,128,76062,1,8,0:0:0:0:
192,128,76145,1,0,0:0:0:0:
192,128,76228,1,0,0:0:0:0:
192,128,76312,1,8,0:0:0:0:
192,128,76478,1,0,0:0:0:0:
192,128,76645,1,8,0:0:0:0:
192,128,76728,1,8,0:0:0:0:
192,128,76812,1,0,0:0:0:0:
192,128,76978,1,8,0:0:0:0:
240,152,77145,1,0,0:0:0:0:
240,152,77312,1,0,0:0:0:0:
240,152,77367,1,0,0:0:0:0:
240,152,77423,1,0,0:0:0:0:
240,152,77478,1,8,0:0:0:0:
240,152,77645,1,8,0:0:0:0:
240,152,77812,1,12,0:0:0:0:
144,32,78145,1,8,0:0:0:0:
192,96,78312,1,0,0:0:0:0:
224,184,78478,1,8,0:0:0:0:
224,184,78812,1,8,0:0:0:0:
224,184,79145,1,8,0:0:0:0:
224,184,79312,1,8,0:0:0:0:
224,184,79395,1,8,0:0:0:0:
224,184,79478,1,8,0:0:0:0:
224,184,79645,1,0,0:0:0:0:
224,184,79812,1,8,0:0:0:0:
200,256,79978,1,0,0:0:0:0:
240,144,80145,1,8,0:0:0:0:
240,144,80478,1,8,0:0:0:0:
240,144,80812,1,8,0:0:0:0:
240,144,80978,1,0,0:0:0:0:
240,144,81145,1,8,0:0:0:0:
88,176,81478,1,8,0:0:0:0:
240,136,81812,1,8,0:0:0:0:
168,152,81978,1,8,0:0:0:0:
208,144,82062,1,8,0:0:0:0:
208,144,82145,1,8,0:0:0:0:
208,144,82312,1,0,0:0:0:0:
208,144,82478,1,8,0:0:0:0:
208,144,82728,1,8,0:0:0:0:
208,144,82812,1,0,0:0:0:0:
272,184,82978,1,0,0:0:0:0:
208,144,83145,1,8,0:0:0:0:
288,136,83312,1,0,0:0:0:0:
288,136,83395,1,0,0:0:0:0:
288,136,83478,1,8,0:0:0:0:
288,136,83645,1,0,0:0:0:0:
288,136,83812,1,8,0:0:0:0:
288,136,84062,1,8,0:0:0:0:
288,136,84145,1,0,0:0:0:0:
288,136,84312,1,0,0:0:0:0:
224,96,84478,1,8,0:0:0:0:
296,128,84645,1,0,0:0:0:0:
264,112,84728,1,0,0:0:0:0:
224,104,84812,1,8,0:0:0:0:
304,112,84978,1,0,0:0:0:0:
224,104,85145,1,8,0:0:0:0:
120,160,85395,1,8,0:0:0:0:
152,144,85478,1,0,0:0:0:0:
152,144,85645,1,0,0:0:0:0:
232,160,85812,1,8,0:0:0:0:
232,160,85978,1,0,0:0:0:0:
232,160,86062,1,8,0:0:0:0:
232,160,86228,1,8,0:0:0:0:
232,160,86312,1,0,0:0:0:0:
232,160,86478,1,8,0:0:0:0:
232,160,86562,1,0,0:0:0:0:
232,160,86645,1,0,0:0:0:0:
232,160,86728,1,8,0:0:0:0:
232,160,86895,1,8,0:0:0:0:
232,160,86978,1,0,0:0:0:0:
232,160,87145,1,8,0:0:0:0:
232,160,87228,1,0,0:0:0:0:
232,160,87312,1,0,0:0:0:0:
232,160,87395,1,8,0:0:0:0:
232,160,87478,1,0,0:0:0:0:
232,160,87562,1,8,0:0:0:0:
232,160,87645,1,0,0:0:0:0:
232,160,87812,1,8,0:0:0:0:
232,160,87895,1,0,0:0:0:0:
232,160,87978,1,0,0:0:0:0:
232,160,88062,1,8,0:0:0:0:
240,120,88145,1,0,0:0:0:0:
240,120,88228,1,8,0:0:0:0:
240,120,88312,1,8,0:0:0:0:
240,120,88395,1,0,0:0:0:0:
240,120,88478,1,8,0:0:0:0:
136,240,88812,1,0,0:0:0:0:
232,128,89145,1,8,0:0:0:0:
176,176,89312,1,0,0:0:0:0:
208,152,89395,1,0,0:0:0:0:
208,152,89562,1,8,0:0:0:0:
208,152,89645,1,0,0:0:0:0:
208,152,89812,1,8,0:0:0:0:
208,152,89978,1,0,0:0:0:0:
208,152,90145,1,0,0:0:0:0:
208,152,90478,1,8,0:0:0:0:
208,152,90812,1,0,0:0:0:0:
208,152,90978,1,0,0:0:0:0:
208,152,91145,1,8,0:0:0:0:
208,152,91478,1,0,0:0:0:0:
208,152,91812,1,8,0:0:0:0:
208,152,91978,1,0,0:0:0:0:
208,152,92062,1,0,0:0:0:0:
208,152,92228,1,8,0:0:0:0:
208,152,92312,1,0,0:0:0:0:
208,152,92478,1,8,0:0:0:0:
208,152,92645,1,0,0:0:0:0:
208,152,92812,1,0,0:0:0:0:
56,192,93145,1,8,0:0:0:0:
184,104,93478,1,0,0:0:0:0:
184,104,93645,1,0,0:0:0:0:
184,104,93812,1,8,0:0:0:0:
184,104,93895,1,0,0:0:0:0:
184,104,93978,1,0,0:0:0:0:
184,104,94062,1,0,0:0:0:0:
184,104,94145,1,8,0:0:0:0:
184,104,94228,1,0,0:0:0:0:
184,104,94312,1,0,0:0:0:0:
184,104,94395,1,0,0:0:0:0:
184,104,94478,1,8,0:0:0:0:
184,104,94562,1,8,0:0:0:0:
184,104,94645,1,0,0:0:0:0:
184,104,94728,1,0,0:0:0:0:
184,104,94812,1,8,0:0:0:0:
184,104,94895,1,8,0:0:0:0:
184,104,94978,1,0,0:0:0:0:
184,104,95062,1,0,0:0:0:0:
184,104,95145,1,8,0:0:0:0:
184,104,95228,1,0,0:0:0:0:
184,104,95312,1,8,0:0:0:0:
184,104,95395,1,0,0:0:0:0:
184,104,95478,1,8,0:0:0:0:
184,104,95562,1,0,0:0:0:0:
184,104,95645,1,8,0:0:0:0:
184,104,95728,1,0,0:0:0:0:
184,104,95812,1,8,0:0:0:0:
184,104,95895,1,8,0:0:0:0:
184,104,95978,1,8,0:0:0:0:
184,104,96062,1,0,0:0:0:0:
184,104,96145,1,8,0:0:0:0:
184,104,96228,1,8,0:0:0:0:
184,104,96312,1,8,0:0:0:0:
184,104,96395,1,8,0:0:0:0:
184,104,96478,1,0,0:0:0:0:
184,104,96728,1,0,0:0:0:0:
184,104,96895,1,0,0:0:0:0:
184,104,96978,1,0,0:0:0:0:
184,104,97145,1,8,0:0:0:0:
88,168,97395,1,8,0:0:0:0:
120,144,97561,1,8,0:0:0:0:
80,144,97645,1,8,0:0:0:0:
256,192,97812,12,0,98978,0:0:0:0:
192,160,99145,5,4,0:0:0:0:
384,272,99645,1,0,0:0:0:0:
208,168,100145,1,8,0:0:0:0:
192,136,101812,1,8,0:0:0:0:
192,136,102312,1,8,0:0:0:0:
192,136,102812,1,8,0:0:0:0:
192,136,103145,1,0,0:0:0:0:
192,136,103228,1,0,0:0:0:0:
192,136,103395,1,8,0:0:0:0:
192,136,103562,1,8,0:0:0:0:
192,136,103728,1,8,0:0:0:0:
192,136,103812,1,0,0:0:0:0:
192,136,104145,1,12,0:0:0:0:
304,240,104478,1,4,0:0:0:0:
264,176,104645,1,8,0:0:0:0:
264,176,104728,1,8,0:0:0:0:
264,176,104812,1,0,0:0:0:0:
264,176,104978,1,8,0:0:0:0:
264,176,105145,1,0,0:0:0:0:
264,176,105312,1,8,0:0:0:0:
264,176,105395,1,0,0:0:0:0:
264,176,105478,1,0,0:0:0:0:
264,176,105562,1,0,0:0:0:0:
264,176,105645,1,8,0:0:0:0:
264,176,105812,1,0,0:0:0:0:
264,176,105978,1,8,0:0:0:0:
264,176,106062,1,8,0:0:0:0:
264,176,106145,1,0,0:0:0:0:
264,176,106312,1,8,0:0:0:0:
264,176,106478,1,0,0:0:0:0:
264,176,106645,1,8,0:0:0:0:
264,176,106728,1,8,0:0:0:0:
264,176,106812,1,0,0:0:0:0:
264,176,106895,1,0,0:0:0:0:
264,176,106978,1,8,0:0:0:0:
264,176,107145,1,0,0:0:0:0:
264,176,107395,1,0,0:0:0:0:
264,176,107478,1,8,0:0:0:0:
264,176,107645,1,0,0:0:0:0:
264,176,107812,1,8,0:0:0:0:
240,144,107895,5,0,0:0:0:0:
216,120,107978,1,8,0:0:0:0:
216,120,108062,1,8,0:0:0:0:
216,120,108145,1,0,0:0:0:0:
120,184,108395,1,8,0:0:0:0:
152,160,108478,1,0,0:0:0:0:
224,120,108645,1,0,0:0:0:0:
160,160,108812,1,8,0:0:0:0:
192,144,108895,1,8,0:0:0:0:
192,144,108978,1,8,0:0:0:0:
192,144,109062,1,0,0:0:0:0:
192,144,109145,1,8,0:0:0:0:
192,144,109312,1,0,0:0:0:0:
192,144,109478,1,12,0:0:0:0:
40,176,109812,1,4,0:0:0:0:
120,168,109978,1,8,0:0:0:0:
160,168,110062,1,8,0:0:0:0:
200,160,110145,1,0,0:0:0:0:
200,160,110312,1,8,0:0:0:0:
200,160,110478,1,0,0:0:0:0:
200,160,110645,1,8,0:0:0:0:
200,160,110728,1,8,0:0:0:0:
200,160,110812,1,0,0:0:0:0:
200,160,110895,1,0,0:0:0:0:
200,160,110978,1,8,0:0:0:0:
200,160,111145,1,0,0:0:0:0:
200,160,111312,1,8,0:0:0:0:
200,160,111395,1,8,0:0:0:0:
200,160,111478,1,0,0:0:0:0:
200,160,111645,1,8,0:0:0:0:
200,160,111812,1,0,0:0:0:0:
200,160,111978,1,8,0:0:0:0:
200,160,112062,1,8,0:0:0:0:
200,160,112145,1,0,0:0:0:0:
200,160,112228,1,8,0:0:0:0:
200,160,112312,1,0,0:0:0:0:
200,160,112478,1,0,0:0:0:0:
120,168,112645,1,8,0:0:0:0:
160,168,112728,1,8,0:0:0:0:
160,168,112812,1,0,0:0:0:0:
160,168,112978,1,8,0:0:0:0:
160,168,113145,1,0,0:0:0:0:
160,168,113312,1,8,0:0:0:0:
160,168,113395,1,8,0:0:0:0:
160,168,113478,1,0,0:0:0:0:
160,168,113562,1,0,0:0:0:0:
160,168,113645,1,8,0:0:0:0:
160,168,113812,1,0,0:0:0:0:
232,192,113978,5,8,0:0:0:0:
192,176,114062,1,8,0:0:0:0:
192,176,114145,1,0,0:0:0:0:
192,176,114312,1,8,0:0:0:0:
192,176,114478,1,8,0:0:0:0:
192,176,114562,1,8,0:0:0:0:
192,176,114645,1,0,0:0:0:0:
192,176,114728,1,0,0:0:0:0:
192,176,114812,1,8,0:0:0:0:
192,176,114895,1,8,0:0:0:0:
192,176,114978,1,8,0:0:0:0:
192,176,115062,1,0,0:0:0:0:
240,184,115145,5,8,0:0:0:0:
240,184,116312,1,0,0:0:0:0:
256,192,117812,12,0,120478,0:0:0:0:
