osu file format v14

[General]
AudioFilename: audio.ogg
AudioLeadIn: 0
PreviewTime: 92724
Countdown: 0
SampleSet: Soft
StackLeniency: 0.7
Mode: 2
LetterboxInBreaks: 0
WidescreenStoryboard: 1

[Editor]
Bookmarks: 28724,47010,67581,83581,92724,111010,130438,138438,267581
DistanceSpacing: 4
BeatDivisor: 6
GridSize: 8
TimelineZoom: 4.899997

[Metadata]
Title:Come to Life (Camellia's "Not on your life though!" Remix)
TitleUnicode:Come to Life (かめりあ's "Not on your life though!" Remix)
Artist:ARM (IOSYS) feat. Nicole Curry
ArtistUnicode:ARM (IOSYS) feat. Nicole Curry
Creator:Unlucky_w
Version:Overdose
Source:DanceDanceRevolution A
Tags:cametek kamelcamellia かめるかめりあ ddr janelle akina hirakawa square_head bemani hardcore edm hardtek instrumental electronic english frenchcore Animal strike! アニマル・ストライク! jubeat festo pop'n music peace ポップンタイムトリップ GRAND PRIX 楽曲パック vol.11 future bass video game videogame
BeatmapID:4527640
BeatmapSetID:2149243

[Difficulty]
HPDrainRate:5.5
CircleSize:4
OverallDifficulty:9.4
ApproachRate:9.4
SliderMultiplier:1.8
SliderTickRate:2

[Events]
//Background and Video events
0,0,"dj jesuss.png",0,0
//Break Periods
//Storyboard Layer 0 (Background)
//Storyboard Layer 1 (Fail)
//Storyboard Layer 2 (Pass)
//Storyboard Layer 3 (Foreground)
//Storyboard Layer 4 (Overlay)
//Storyboard Sound Samples

[TimingPoints]
1296,285.714285714286,4,2,1,40,1,0
26153,-100,4,2,3,80,0,0
27581,-100,4,2,3,100,0,0
47010,-100,4,2,2,100,0,0
55867,-66.6666666666667,4,2,2,100,0,0
56153,-100,4,2,2,100,0,0
62438,-76.9230769230769,4,2,2,100,0,0
62724,-100,4,2,2,100,0,0
68153,-83.3333333333333,4,2,2,100,0,0
68438,-100,4,2,2,100,0,0
74153,-71.4285714285714,4,2,2,100,0,0
74438,-100,4,2,2,100,0,0
81296,-100,4,2,3,100,0,0
92724,-100,4,2,2,100,0,0
95010,-83.3333333333333,4,2,2,100,0,0
95296,-100,4,2,2,100,0,0
111010,-100,4,2,1,60,0,0
127010,-100,4,2,1,80,0,0
130153,-100,4,2,3,100,0,0
138438,-100,4,2,1,100,0,0
139581,-100,4,2,1,100,0,1
148153,-100,4,2,1,100,0,0
148724,-100,4,2,1,100,0,1
156153,-100,4,2,3,100,0,1
156724,-100,4,2,1,100,0,0
157867,-100,4,2,1,100,0,1
158724,-66.6666666666667,4,2,1,100,0,1
159010,-100,4,2,1,100,0,1
163296,-66.6666666666667,4,2,1,100,0,1
163581,-100,4,2,1,100,0,1
166724,-100,4,2,1,100,0,0
167010,-100,4,2,1,100,0,1
167867,-66.6666666666667,4,2,1,100,0,1
168153,-100,4,2,1,100,0,1
172438,-66.6666666666667,4,2,1,100,0,1
172724,-100,4,2,1,100,0,1
176153,-100,4,2,1,100,0,0
189867,-83.3333333333333,4,2,1,100,0,0
191867,-100,4,2,1,100,0,0
194438,-100,4,2,1,100,0,1
202438,-100,4,2,1,100,0,0
203581,-100,4,2,1,100,0,1
210153,-100,4,2,1,80,0,0
211010,-100,4,2,3,80,0,0
211081,-100,4,2,1,80,0,0
212153,-100,4,2,3,100,0,0
230224,-66.6666666666667,4,2,3,100,0,0
231081,-100,4,2,3,100,0,0
234724,-66.6666666666667,4,2,1,100,0,0
235296,-100,4,2,1,100,0,0
235581,-83.3333333333333,4,2,1,100,0,1
251581,-100,4,2,2,100,0,0
253867,-83.3333333333333,4,2,1,100,0,1
256153,-100,4,2,2,100,0,0
258153,-83.3333333333333,4,2,1,100,0,0
258438,-83.3333333333333,4,2,1,100,0,1
261867,-100,4,2,1,100,0,1
265296,-166.666666666667,4,2,1,100,0,0

[Colours]
Combo1 : 18,119,243
Combo2 : 187,98,221
Combo3 : 30,225,88

[HitObjects]
256,192,8438,12,0,9867,0:0:0:0:
245,73,10153,5,0,0:0:0:0:
332,90,10296,1,0,0:0:0:0:
198,112,10438,6,0,L|189:228,1,90,2|0,0:0|0:0,0:0:0:0:
319,201,10724,2,0,L|329:306,1,90
201,301,11010,1,0,0:0:0:0:
182,273,11296,6,0,L|77:266,1,90,2|0,0:0|0:0,0:0:0:0:
205,249,11581,2,0,L|303:240,1,90
186,133,11867,1,0,0:0:0:0:
146,323,12153,5,2,0:0:0:0:
164,292,12224,1,0,0:0:0:0:
198,265,12296,1,0,0:0:0:0:
240,250,12367,1,0,0:0:0:0:
294,240,12438,1,0,0:0:0:0:
211,224,12581,1,0,0:0:0:0:
333,207,12724,6,0,L|345:102,1,90
237,98,13010,1,0,0:0:0:0:
131,136,13153,2,0,L|118:260,1,90
229,249,13438,1,0,0:0:0:0:
333,306,13581,2,0,L|207:294,1,90
373,284,13867,6,0,L|384:177,1,90
250,86,14153,2,0,L|236:202,1,90
366,333,14438,1,0,0:0:0:0:
390,302,14510,1,0,0:0:0:0:
369,259,14581,1,0,0:0:0:0:
312,245,14653,1,0,0:0:0:0:
259,235,14724,1,0,0:0:0:0:
235,206,14796,1,0,0:0:0:0:
258,168,14867,1,0,0:0:0:0:
317,153,14938,1,0,0:0:0:0:
387,55,15010,6,0,L|403:157,1,90,2|0,0:0|0:0,0:0:0:0:
270,163,15296,2,0,L|257:265,1,90
381,283,15581,1,0,0:0:0:0:
393,330,15867,6,0,L|283:344,1,90,2|0,0:0|0:0,0:0:0:0:
193,282,16153,2,0,L|302:292,1,90
399,218,16438,1,0,0:0:0:0:
435,323,16724,5,2,0:0:0:0:
417,292,16795,1,0,0:0:0:0:
383,265,16867,1,0,0:0:0:0:
341,250,16938,1,0,0:0:0:0:
287,240,17009,1,0,0:0:0:0:
370,224,17152,1,0,0:0:0:0:
249,209,17296,6,0,L|239:90,1,90
357,99,17581,1,0,0:0:0:0:
213,99,17724,2,0,L|90:90,1,90
222,298,18010,1,0,0:0:0:0:
337,268,18153,2,0,L|348:160,1,90
218,177,18438,6,0,L|205:77,1,90
336,72,18724,2,0,L|226:66,1,90
390,302,19010,2,0,L|400:196,1,90
256,296,19296,2,0,L|152:285,1,90
297,272,19581,6,0,L|306:173,1,90,2|0,0:0|0:0,0:0:0:0:
178,177,19867,2,0,L|172:58,1,90
292,74,20153,1,0,0:0:0:0:
312,294,20438,6,0,L|419:305,1,90,2|0,0:0|0:0,0:0:0:0:
281,255,20724,2,0,L|174:243,1,90
316,180,21010,1,0,0:0:0:0:
330,81,21296,6,0,L|210:68,1,90,2|0,0:0|0:0,0:0:0:0:
115,184,21581,2,0,L|234:169,1,90
332,173,21867,2,0,L|341:275,1,90
214,337,22153,2,0,L|202:214,1,90
345,285,22438,6,0,L|455:294,1,90
313,178,22724,2,0,L|199:190,1,90
349,35,23010,2,0,L|364:158,1,90
216,138,23296,1,0,0:0:0:0:
195,173,23367,1,0,0:0:0:0:
220,206,23438,1,0,0:0:0:0:
269,212,23510,1,0,0:0:0:0:
326,216,23581,5,0,0:0:0:0:
351,254,23653,1,0,0:0:0:0:
327,287,23724,1,0,0:0:0:0:
276,297,23796,1,0,0:0:0:0:
222,288,23867,1,0,0:0:0:0:
198,259,23938,1,0,0:0:0:0:
223,217,24010,1,0,0:0:0:0:
275,203,24081,1,0,0:0:0:0:
334,84,24153,6,0,L|212:95,1,90,2|0,0:0|0:0,0:0:0:0:
118,152,24438,2,0,L|223:160,1,90
72,302,24724,1,0,0:0:0:0:
55,209,25010,6,0,L|152:217,1,90,2|0,0:0|0:0,0:0:0:0:
263,142,25296,2,0,L|150:157,1,90
301,300,25581,1,0,0:0:0:0:
360,64,25867,2,0,P|354:123|289:171,1,135,2|0,0:0|0:0,0:0:0:0:
125,173,26153,5,2,0:0:0:0:
59,255,26438,1,0,0:0:0:0:
179,312,26724,1,0,0:0:0:0:
379,252,27010,1,4,0:0:0:0:
416,67,27296,1,0,0:0:0:0:
400,113,27367,1,0,0:0:0:0:
368,149,27438,1,0,0:0:0:0:
311,173,27510,1,0,0:0:0:0:
247,190,27581,5,2,0:0:0:0:
328,209,27724,1,0,0:0:0:0:
195,240,27867,1,0,0:0:0:0:
115,264,28010,1,0,0:0:0:0:
336,326,28153,1,4,0:0:0:0:
416,67,28296,1,0,0:0:0:0:
440,103,28367,1,0,0:0:0:0:
426,146,28438,1,0,0:0:0:0:
381,173,28510,1,0,0:0:0:0:
330,188,28581,1,0,0:0:0:0:
111,339,28724,6,0,L|214:335,1,90,10|0,0:0|0:0,0:0:0:0:
326,297,29010,2,0,L|219:291,1,90,10|0,0:0|0:0,0:0:0:0:
106,276,29296,2,0,L|98:168,1,90,10|0,0:0|0:0,0:0:0:0:
354,69,29581,6,0,L|445:75,1,90,10|0,0:0|0:0,0:0:0:0:
321,100,29867,2,0,L|227:109,1,90,10|0,0:0|0:0,0:0:0:0:
359,157,30153,2,0,L|371:262,1,90,10|0,0:0|0:0,0:0:0:0:
241,279,30438,2,0,L|353:285,1,90,10|0,0:0|0:0,0:0:0:0:
95,334,30724,6,0,L|87:207,1,90,10|0,0:0|0:0,0:0:0:0:
215,215,31010,2,0,L|323:203,1,90,10|0,0:0|0:0,0:0:0:0:
177,138,31296,2,0,L|85:129,1,90,10|0,0:0|0:0,0:0:0:0:
213,335,31581,2,0,L|225:223,1,90,10|0,0:0|0:0,0:0:0:0:
92,195,31867,6,0,L|223:184,1,90,10|0,0:0|0:0,0:0:0:0:
308,78,32153,1,10,0:0:0:0:
262,93,32224,1,0,0:0:0:0:
213,107,32296,1,0,0:0:0:0:
350,327,32438,6,0,L|363:218,1,90,10|0,0:0|0:0,0:0:0:0:
242,211,32724,1,10,0:0:0:0:
191,198,32796,1,0,0:0:0:0:
242,176,32867,1,0,0:0:0:0:
365,144,33010,2,0,L|488:129,1,90,10|0,0:0|0:0,0:0:0:0:
212,323,33296,6,0,L|106:312,1,90,10|0,0:0|0:0,0:0:0:0:
253,296,33581,2,10,L|345:283,1,90,10|0,0:0|0:0,0:0:0:0:
208,266,33867,2,0,L|196:153,1,90,10|0,0:0|0:0,0:0:0:0:
441,96,34153,6,0,L|331:88,1,90,10|0,0:0|0:0,0:0:0:0:
235,165,34438,2,0,L|342:153,1,90,10|0,0:0|0:0,0:0:0:0:
440,292,34724,2,0,L|449:185,1,90,10|0,0:0|0:0,0:0:0:0:
226,312,35010,6,0,L|117:302,1,90,10|0,0:0|0:0,0:0:0:0:
257,274,35296,2,0,L|364:262,1,90,10|0,0:0|0:0,0:0:0:0:
223,218,35581,2,0,L|216:119,1,90,10|0,0:0|0:0,0:0:0:0:
95,122,35867,2,0,L|84:222,1,90,10|0,0:0|0:0,0:0:0:0:
210,311,36153,6,0,L|311:296,1,90,10|0,0:0|0:0,0:0:0:0:
239,282,36367,1,0,0:0:0:0:
183,264,36438,2,0,L|68:250,1,90,10|0,0:0|0:0,0:0:0:0:
219,81,36724,6,0,L|229:206,1,90,10|0,0:0|0:0,0:0:0:0:
100,266,37010,2,0,L|89:161,1,90,10|0,0:0|0:0,0:0:0:0:
234,222,37296,2,0,L|337:230,1,90,10|0,0:0|0:0,0:0:0:0:
197,289,37581,2,0,L|77:302,1,90,10|0,0:0|0:0,0:0:0:0:
392,333,37867,5,10,0:0:0:0:
308,295,38010,1,2,0:0:0:0:
395,226,38153,1,10,0:0:0:0:
305,203,38296,1,2,0:0:0:0:
396,114,38438,1,10,0:0:0:0:
483,57,38581,1,2,0:0:0:0:
263,321,38724,5,10,0:0:0:0:
180,284,38867,1,2,0:0:0:0:
263,244,39010,1,10,0:0:0:0:
352,208,39153,1,2,0:0:0:0:
304,188,39224,1,0,0:0:0:0:
149,142,39296,1,10,0:0:0:0:
72,203,39438,1,2,0:0:0:0:
157,253,39581,1,10,0:0:0:0:
66,323,39724,1,2,0:0:0:0:
292,328,39867,5,10,0:0:0:0:
201,292,40010,1,2,0:0:0:0:
292,246,40153,1,10,0:0:0:0:
392,285,40296,1,2,0:0:0:0:
289,170,40438,1,10,0:0:0:0:
397,209,40581,1,2,0:0:0:0:
292,246,40724,1,10,0:0:0:0:
185,214,40867,1,2,0:0:0:0:
148,197,40938,1,0,0:0:0:0:
284,56,41010,5,10,0:0:0:0:
192,98,41153,1,2,0:0:0:0:
285,136,41296,1,10,0:0:0:0:
321,152,41367,1,0,0:0:0:0:
192,323,41438,1,2,0:0:0:0:
92,275,41581,1,10,0:0:0:0:
197,225,41724,1,2,0:0:0:0:
187,148,41867,5,0,0:0:0:0:
286,110,42010,1,0,0:0:0:0:
390,150,42153,1,0,0:0:0:0:
294,206,42296,2,0,L|238:216,1,45
426,340,42438,5,10,0:0:0:0:
446,309,42510,1,0,0:0:0:0:
426,274,42581,1,0,0:0:0:0:
363,263,42653,1,0,0:0:0:0:
304,253,42724,1,8,0:0:0:0:
279,227,42796,1,0,0:0:0:0:
305,189,42867,1,0,0:0:0:0:
358,175,42938,1,0,0:0:0:0:
203,54,43010,5,8,0:0:0:0:
181,90,43082,1,0,0:0:0:0:
204,123,43153,1,0,0:0:0:0:
264,134,43225,1,0,0:0:0:0:
324,142,43296,1,8,0:0:0:0:
349,179,43368,1,0,0:0:0:0:
325,211,43439,1,0,0:0:0:0:
267,221,43510,1,0,0:0:0:0:
121,325,43581,5,8,0:0:0:0:
58,317,43653,1,0,0:0:0:0:
35,292,43724,1,0,0:0:0:0:
58,262,43796,1,0,0:0:0:0:
130,245,43867,1,8,0:0:0:0:
159,213,43938,1,0,0:0:0:0:
130,179,44010,1,0,0:0:0:0:
67,168,44081,1,0,0:0:0:0:
203,328,44153,6,0,L|259:320,1,45,8|0,0:0|0:0,0:0:0:0:
180,310,44296,2,0,L|170:261,1,45,8|0,0:0|0:0,0:0:0:0:
311,173,44438,2,0,L|375:164,1,45,8|0,0:0|0:0,0:0:0:0:
282,155,44581,2,0,L|266:82,1,45,8|0,0:0|0:0,0:0:0:0:
412,315,44724,5,8,0:0:0:0:
433,283,44796,1,8,0:0:0:0:
415,247,44867,1,8,0:0:0:0:
351,230,44938,1,8,0:0:0:0:
270,207,45010,2,0,L|240:157,1,45,8|8,0:0|0:0,0:0:0:0:
334,142,45153,2,0,L|351:86,1,45,8|8,0:0|0:0,0:0:0:0:
189,307,45296,6,0,L|127:296,1,45,8|8,0:0|0:0,0:0:0:0:
224,276,45438,2,0,L|282:267,1,45,8|8,0:0|0:0,0:0:0:0:
131,218,45581,2,0,L|64:209,1,45,8|8,0:0|0:0,0:0:0:0:
233,149,45724,2,0,L|308:143,1,45,8|8,0:0|0:0,0:0:0:0:
432,135,45867,5,0,0:0:0:0:
445,333,46153,1,2,0:3:0:0:
339,307,46296,1,2,0:3:0:0:
231,283,46438,1,2,0:3:0:0:
336,238,46581,1,2,0:3:0:0:
403,177,46724,1,2,0:3:0:0:
326,127,46867,1,2,0:3:0:0:
83,128,47010,6,0,L|70:238,1,90,10|0,0:0|0:0,0:0:0:0:
186,320,47296,2,0,L|198:252,1,45,2|0,0:0|0:0,0:0:0:0:
113,259,47438,2,0,L|106:208,1,45,2|0,0:0|0:0,0:0:0:0:
270,61,47581,1,4,0:0:0:0:
367,79,47724,1,8,0:0:0:0:
125,318,47867,6,0,L|245:309,1,90,10|0,0:0|0:0,0:0:0:0:
350,295,48153,2,0,L|248:288,1,90,2|0,0:0|0:0,0:0:0:0:
383,50,48438,1,0,0:0:0:0:
427,66,48486,1,0,0:0:0:0:
442,109,48534,1,0,0:0:0:0:
426,136,48581,1,0,0:0:0:0:
382,154,48629,1,0,0:0:0:0:
328,160,48676,1,0,0:0:0:0:
170,149,48724,5,6,0:0:0:0:
111,166,48796,1,0,0:0:0:0:
87,198,48867,1,0,0:0:0:0:
113,236,48938,1,0,0:0:0:0:
254,324,49010,2,0,L|370:316,1,90,10|0,0:0|0:0,0:0:0:0:
250,213,49296,2,0,L|356:220,1,90,2|0,0:0|0:0,0:0:0:0:
111,329,49581,6,0,L|105:231,1,90,10|0,0:0|0:0,0:0:0:0:
343,89,49867,2,0,L|463:100,1,90,6|0,0:0|0:0,0:0:0:0:
309,299,50153,2,0,L|302:242,1,45,2|0,0:0|0:0,0:0:0:0:
381,238,50296,2,0,L|390:177,1,45
308,156,50438,6,0,L|175:165,1,90,2|0,0:0|0:0,0:0:0:0:
447,298,50724,2,0,L|458:197,1,90,10|2,0:0|0:0,0:0:0:0:
213,247,51010,1,4,0:0:0:0:
312,223,51153,1,10,0:0:0:0:
222,196,51296,1,2,0:0:0:0:
133,169,51438,1,2,0:0:0:0:
413,127,51581,6,0,L|426:237,1,90,10|0,0:0|0:0,0:0:0:0:
310,319,51867,2,0,L|298:251,1,45,2|0,0:0|0:0,0:0:0:0:
383,258,52009,2,0,L|390:207,1,45,2|0,0:0|0:0,0:0:0:0:
226,60,52152,1,4,0:0:0:0:
129,78,52295,1,0,0:0:0:0:
362,317,52438,6,0,L|242:308,1,90,10|0,0:0|0:0,0:0:0:0:
137,294,52724,2,0,L|239:287,1,90,2|0,0:0|0:0,0:0:0:0:
97,127,53010,2,0,L|96:236,1,90,8|0,0:1|0:0,0:0:0:0:
329,231,53296,1,6,0:0:0:0:
390,219,53367,1,0,0:0:0:0:
411,188,53438,1,0,0:0:0:0:
388,151,53510,1,0,0:0:0:0:
237,332,53581,6,0,L|115:324,1,90,10|0,0:0|0:0,0:0:0:0:
237,181,53867,2,0,L|125:191,1,90,2|0,0:0|0:0,0:0:0:0:
386,316,54153,2,0,L|395:215,1,90,10|0,0:0|0:0,0:0:0:0:
159,104,54438,2,0,L|266:113,1,90,6|0,0:0|0:0,0:0:0:0:
113,307,54724,2,0,L|108:188,1,90,2|0,0:0|0:0,0:0:0:0:
246,188,55010,6,0,L|129:197,1,90,2|0,0:0|0:0,0:0:0:0:
379,89,55296,2,0,L|393:210,1,90,10|0,0:0|0:0,0:0:0:0:
151,320,55581,1,6,0:0:0:0:
323,321,55867,2,0,P|399:282|355:175,1,202.500007724762,4|0,0:1|0:0,0:1:0:0:
219,94,56153,6,0,L|89:106,1,90,10|0,0:0|0:0,0:0:0:0:
261,285,56438,2,0,L|268:216,1,45,2|0,0:0|0:0,0:0:0:0:
190,225,56581,2,0,L|181:171,1,45,2|0,0:0|0:0,0:0:0:0:
340,104,56724,1,4,0:0:0:0:
228,74,56867,1,0,0:0:0:0:
457,285,57010,6,0,L|344:300,1,90,10|0,0:0|0:0,0:0:0:0:
251,257,57296,2,0,L|357:267,1,90,2|0,0:0|0:0,0:0:0:0:
201,50,57581,1,0,0:0:0:0:
157,66,57629,1,0,0:0:0:0:
142,109,57677,1,0,0:0:0:0:
158,136,57724,1,0,0:0:0:0:
201,153,57772,1,0,0:0:0:0:
256,160,57819,1,0,0:0:0:0:
424,173,57867,5,6,0:0:0:0:
454,211,57938,1,0,0:0:0:0:
427,248,58010,1,0,0:0:0:0:
366,263,58081,1,0,0:0:0:0:
221,333,58153,2,0,L|91:323,1,90,10|0,0:0|0:0,0:0:0:0:
252,235,58438,2,0,L|371:217,1,90,2|0,0:0|0:0,0:0:0:0:
125,232,58724,6,0,L|115:124,1,90,10|0,0:0|0:0,0:0:0:0:
349,95,59010,2,0,L|461:78,1,90,6|0,0:0|0:0,0:0:0:0:
305,175,59296,2,0,L|295:228,1,45,2|0,0:0|0:0,0:0:0:0:
372,237,59438,2,0,L|383:285,1,45
304,320,59581,6,0,L|195:315,1,90,2|0,0:0|0:0,0:0:0:0:
440,294,59867,2,0,L|452:185,1,90,10|2,0:0|0:0,0:0:0:0:
219,111,60153,1,4,0:0:0:0:
318,135,60296,1,10,0:0:0:0:
228,162,60439,1,2,0:0:0:0:
139,189,60581,1,2,0:0:0:0:
413,127,60724,6,0,L|426:237,1,90,10|0,0:0|0:0,0:0:0:0:
310,319,61010,2,0,L|298:251,1,45,2|0,0:0|0:0,0:0:0:0:
383,258,61152,2,0,L|390:207,1,45,2|0,0:0|0:0,0:0:0:0:
226,60,61295,1,4,0:0:0:0:
330,275,61486,1,8,0:0:0:0:
143,323,61581,6,0,L|30:316,1,90,10|0,0:0|0:0,0:0:0:0:
179,266,61867,2,0,L|290:257,1,90,2|0,0:0|0:0,0:0:0:0:
140,97,62153,2,0,L|129:209,1,90
425,88,62438,2,0,P|459:172|329:234,1,233.999989288331,4|0,0:0|0:0,0:0:0:0:
154,235,62867,5,8,0:0:0:0:
116,111,63010,1,0,0:0:0:0:
148,143,63153,1,0,0:0:0:0:
96,138,63296,1,0,0:0:0:0:
166,125,63438,1,0,0:0:0:0:
79,183,63581,1,0,0:0:0:0:
185,73,63724,1,0,0:0:0:0:
48,123,63867,5,0,0:0:0:0:
201,155,64010,1,0,0:0:0:0:
118,182,64153,1,0,0:0:0:0:
223,215,64296,1,0,0:0:0:0:
132,244,64438,1,0,0:0:0:0:
38,274,64581,1,0,0:0:0:0:
259,333,64724,2,0,P|325:322|363:208,1,180,2|0,0:0|0:0,0:0:0:0:
297,164,65153,1,0,0:0:0:0:
92,81,65296,5,8,0:0:0:0:
119,146,65438,1,0,0:0:0:0:
174,196,65581,1,0,0:0:0:0:
250,222,65724,1,0,0:0:0:0:
420,81,66153,1,8,0:0:0:0:
393,146,66295,1,0,0:0:0:0:
307,184,66438,5,0,0:0:0:0:
252,198,66510,1,0,0:0:0:0:
228,229,66581,1,0,0:0:0:0:
254,259,66653,1,0,0:0:0:0:
314,310,66724,1,0,0:0:0:0:
385,332,66796,1,0,0:0:0:0:
410,307,66867,1,0,0:0:0:0:
386,265,66938,1,0,0:0:0:0:
328,249,67010,5,2,0:0:0:0:
251,227,67153,1,0,0:0:0:0:
384,175,67296,1,2,0:0:0:0:
459,144,67438,1,0,0:0:0:0:
233,65,67581,6,0,P|216:127|305:156,1,135,10|0,0:0|0:0,0:0:0:0:
420,185,67867,2,0,P|434:234|352:270,1,135,10|0,0:0|0:0,0:0:0:0:
187,294,68153,2,0,P|121:260|159:180,1,161.999995056153,4|0,0:0|0:0,0:0:0:0:
213,178,68438,1,2,0:0:0:0:
149,139,68534,1,2,0:0:0:0:
213,97,68629,1,2,0:0:0:0:
97,175,68724,2,0,L|88:293,1,90,2|0,0:0|0:0,0:0:0:0:
315,343,69010,6,0,L|324:226,1,90,10|0,0:0|0:0,0:0:0:0:
65,112,69296,1,6,0:0:0:0:
168,145,69438,1,8,0:0:0:0:
60,169,69581,2,0,L|51:274,1,90
266,331,69867,6,0,L|139:324,1,90,10|0,0:0|0:0,0:0:0:0:
276,254,70153,2,0,L|154:247,1,90,0|2,0:0|0:0,0:0:0:0:
415,124,70438,1,4,0:0:0:0:
512,98,70581,1,8,0:0:0:0:
282,332,70724,6,0,L|150:321,1,90,10|0,0:0|0:0,0:0:0:0:
319,296,71010,2,0,L|426:282,1,90
270,110,71296,2,0,L|270:232,1,90,8|0,0:1|0:0,0:0:0:0:
43,227,71581,5,6,0:0:0:0:
68,264,71676,1,0,0:0:0:0:
130,294,71772,1,0,0:0:0:0:
290,291,71867,1,2,0:0:0:0:
250,255,71962,1,0,0:0:0:0:
186,233,72057,1,0,0:0:0:0:
345,59,72153,6,0,L|355:161,1,90,10|0,0:0|0:0,0:0:0:0:
231,186,72438,2,0,L|350:193,1,90,10|2,0:0|0:0,0:0:0:0:
86,78,72724,2,0,L|77:196,1,90,8|2,0:0|0:0,0:0:0:0:
215,192,73010,2,0,L|117:201,1,90,10|0,0:0|0:0,0:0:0:0:
390,311,73296,5,8,0:0:0:0:
285,309,73438,1,8,0:0:0:0:
261,294,73474,1,0,0:0:0:0:
286,274,73510,1,0,0:0:0:0:
361,265,73581,2,0,L|372:157,1,90,10|0,0:0|0:0,0:0:0:0:
135,60,73867,6,0,P|120:118|187:165,1,135,10|0,0:0|0:0,0:0:0:0:
350,327,74153,2,0,P|417:295|332:213,1,188.999994232178,4|0,0:1|0:0,0:0:0:0:
225,329,74438,6,0,L|120:320,1,90,8|0,0:0|0:0,0:0:0:0:
259,289,74724,2,0,L|381:278,1,90
121,117,75010,1,4,0:0:0:0:
219,141,75153,1,4,0:0:0:0:
450,114,75296,6,0,L|330:133,1,90,8|0,0:0|0:0,0:0:0:0:
256,211,75581,2,0,L|366:222,1,90,2|2,0:0|0:0,0:0:0:0:
208,335,75867,1,2,0:0:0:0:
162,323,75915,1,0,0:0:0:0:
148,304,75962,1,0,0:0:0:0:
163,278,76010,1,2,0:0:0:0:
205,260,76057,1,0,0:0:0:0:
261,254,76105,1,0,0:0:0:0:
407,253,76153,5,6,0:0:0:0:
215,69,76438,2,0,L|203:205,1,135,10|0,0:0|0:0,0:0:0:0:
287,319,76724,2,0,P|280:254|230:197,1,135,2|0,0:0|0:0,0:0:0:0:
91,197,77010,2,0,P|99:146|177:100,1,135,8|0,0:0|0:0,0:0:0:0:
341,272,77296,2,0,P|401:224|374:174,1,135,4|0,0:0|0:0,0:0:0:0:
315,156,77581,1,2,0:0:0:0:
379,117,77677,1,2,0:0:0:0:
315,75,77772,1,2,0:0:0:0:
431,153,77867,2,0,L|440:271,1,90
218,336,78153,6,0,L|209:212,1,90,10|2,0:0|0:0,0:0:0:0:
461,238,78438,1,6,0:0:0:0:
357,207,78581,1,10,0:0:0:0:
465,173,78724,2,0,L|473:69,1,90,2|0,0:0|0:0,0:0:0:0:
237,338,79010,6,0,L|345:326,1,90,8|0,0:0|0:0,0:0:0:0:
224,217,79296,2,0,L|354:226,1,90,2|2,0:0|0:0,0:0:0:0:
85,284,79581,1,6,0:0:0:0:
197,261,79772,1,8,0:0:0:0:
383,73,79867,6,0,L|391:186,1,90,8|0,0:0|0:0,0:0:0:0:
269,192,80153,2,0,L|148:184,1,90,2|2,0:0|0:0,0:0:0:0:
321,333,80438,2,0,L|321:229,1,90,8|0,0:1|0:0,0:0:0:0:
95,66,80724,2,0,P|84:122|160:166,1,135,4|0,0:0|0:0,0:0:0:0:
282,193,81010,2,0,L|381:182,1,90,10|0,0:0|0:0,0:0:0:0:
142,299,81296,5,2,0:0:0:0:
183,218,81581,1,0,0:0:0:0:
359,116,81867,1,4,0:0:0:0:
420,333,82153,1,0,0:0:0:0:
399,301,82224,1,0,0:0:0:0:
366,276,82296,1,0,0:0:0:0:
324,258,82367,1,0,0:0:0:0:
268,248,82438,5,2,0:0:0:0:
185,235,82581,1,0,0:0:0:0:
310,210,82724,1,0,0:0:0:0:
394,189,82867,1,0,0:0:0:0:
171,84,83010,1,4,0:0:0:0:
74,104,83153,1,0,0:0:0:0:
55,144,83296,1,0,0:0:0:0:
65,185,83367,1,0,0:0:0:0:
87,218,83438,1,0,0:0:0:0:
126,243,83510,1,0,0:0:0:0:
266,325,83581,6,0,L|391:315,1,90,10|0,0:0|0:0,0:0:0:0:
221,306,83867,2,0,L|214:201,1,90,8|0,0:0|0:0,0:0:0:0:
349,185,84153,2,0,L|232:177,1,90,8|0,0:0|0:0,0:0:0:0:
381,303,84438,2,0,L|390:191,1,90,8|0,0:0|0:0,0:0:0:0:
248,97,84724,6,0,L|125:110,1,90,8|0,0:0|0:0,0:0:0:0:
214,122,84938,1,0,0:0:0:0:
283,144,85010,2,0,L|294:266,1,90,8|0,0:0|0:0,0:0:0:0:
164,295,85296,2,0,L|281:300,1,90,8|0,0:0|0:0,0:0:0:0:
117,240,85581,2,0,L|111:146,1,90,8|0,0:0|0:0,0:0:0:0:
268,117,85867,6,0,L|390:104,1,90,8|0,0:0|0:0,0:0:0:0:
238,149,86153,2,0,L|228:273,1,90,8|0,0:0|0:0,0:0:0:0:
365,284,86438,2,0,L|237:274,1,90,8|0,0:0|0:0,0:0:0:0:
330,258,86653,1,0,0:0:0:0:
404,239,86724,2,0,L|412:126,1,90,8|0,0:0|0:0,0:0:0:0:
266,53,87010,5,8,0:0:0:0:
238,89,87081,1,0,0:0:0:0:
264,126,87153,1,0,0:0:0:0:
327,138,87224,1,0,0:0:0:0:
389,146,87296,1,8,0:0:0:0:
418,185,87367,1,0,0:0:0:0:
394,229,87438,1,0,0:0:0:0:
330,243,87510,1,0,0:0:0:0:
268,253,87581,5,0,0:0:0:0:
188,266,87724,1,0,0:0:0:0:
318,284,87867,1,0,0:0:0:0:
397,311,88010,1,0,0:0:0:0:
159,340,88153,6,0,L|155:222,1,90,10|0,0:0|0:0,0:0:0:0:
382,74,88438,2,0,L|390:198,1,90,10|0,0:0|0:0,0:0:0:0:
161,115,88724,2,0,L|35:102,1,90,10|0,0:0|0:0,0:0:0:0:
308,284,89010,2,0,L|429:271,1,90,10|0,0:0|0:0,0:0:0:0:
170,345,89296,6,0,L|163:219,1,90,10|0,0:0|0:0,0:0:0:0:
227,229,89510,1,0,0:0:0:0:
366,76,89581,2,0,L|475:88,1,90,10|0,0:0|0:0,0:0:0:0:
228,312,89867,2,0,L|115:325,1,90,10|0,0:0|0:0,0:0:0:0:
382,210,90153,2,0,L|252:198,1,90,10|0,0:0|0:0,0:0:0:0:
68,88,90438,6,0,L|56:157,1,45,10|2,0:0|0:0,0:0:0:0:
144,145,90581,2,0,L|152:202,1,45,2|2,0:0|0:0,0:0:0:0:
295,329,90724,2,0,L|305:266,1,45,10|2,0:0|0:0,0:0:0:0:
218,274,90867,2,0,L|206:209,1,45,2|2,0:0|0:0,0:0:0:0:
354,103,91010,6,0,L|408:95,1,45,10|2,0:0|0:0,0:0:0:0:
260,163,91153,2,0,L|190:152,1,45,2|2,0:0|0:0,0:0:0:0:
372,285,91296,2,0,L|427:275,1,45,10|2,0:0|0:0,0:0:0:0:
251,256,91438,2,0,L|181:247,1,45,2|2,0:0|0:0,0:0:0:0:
65,226,91581,5,0,0:0:0:0:
62,101,91724,1,8,0:0:0:0:
62,101,91867,1,8,0:0:0:0:
214,118,92153,1,0,0:0:0:0:
232,147,92200,1,0,0:0:0:0:
213,177,92248,1,0,0:0:0:0:
164,186,92296,1,0,0:0:0:0:
62,211,92438,1,0,0:0:0:0:
119,231,92581,1,0,0:0:0:0:
346,100,92724,6,0,L|346:258,1,135,2|0,0:0|0:0,0:0:0:0:
257,333,93010,2,0,L|257:174,1,135
416,98,93296,2,0,L|415:198,1,90,2|0,0:0|0:0,0:0:0:0:
332,260,93510,2,0,L|332:151,1,90
414,266,93724,2,0,L|414:332,1,45
249,332,93867,6,0,L|249:261,1,45,2|0,0:0|0:0,0:0:0:0:
331,268,94010,2,0,L|331:204,1,45
249,220,94153,2,0,L|249:160,1,45,2|0,0:0|0:0,0:0:0:0:
164,161,94296,2,0,L|164:110,1,45
320,56,94438,6,0,L|321:135,1,45,2|0,0:0|0:0,0:0:0:0:
238,113,94581,2,0,L|238:184,1,45
76,159,94724,2,0,L|76:221,1,45,8|0,0:0|0:0,0:0:0:0:
159,206,94867,2,0,L|160:261,1,45
329,331,95010,6,0,P|394:311|363:225,1,161.999995056153,2|0,0:0|0:0,0:0:0:0:
220,238,95296,2,0,L|119:232,1,90,8|0,0:0|0:0,0:0:0:0:
358,69,95581,2,0,L|370:184,1,90,6|0,0:0|0:0,0:0:0:0:
282,173,95796,2,0,L|272:282,1,90
359,275,96010,2,0,L|368:355,1,45
206,326,96153,6,0,L|201:276,1,45,2|0,0:0|0:0,0:0:0:0:
285,260,96296,2,0,L|293:208,1,45
135,78,96438,2,0,L|125:142,1,45,10|0,0:0|0:0,0:0:0:0:
212,129,96581,2,0,L|219:183,1,45
376,182,96724,6,0,L|388:251,1,45,6|0,0:0|0:0,0:0:0:0:
216,256,96867,2,0,L|206:326,1,45
290,341,97010,2,0,L|301:275,1,45
136,255,97153,2,0,L|126:159,1,90
250,86,97438,6,0,L|258:158,1,45,8|0,0:0|0:0,0:0:0:0:
116,340,97581,2,0,L|15:333,1,90,8|0,0:0|0:0,0:0:0:0:
262,306,97867,2,0,L|270:210,1,90,6|0,0:0|0:0,0:0:0:0:
207,194,98081,1,0,0:0:0:0:
66,73,98153,2,0,L|57:149,1,45,8|0,0:0|0:0,0:0:0:0:
137,130,98296,2,0,L|142:185,1,45
303,331,98438,6,0,L|309:260,1,45,2|0,0:0|0:0,0:0:0:0:
226,270,98581,2,0,L|221:213,1,45
308,208,98724,2,0,L|315:150,1,45,10|0,0:0|0:0,0:0:0:0:
398,211,98867,2,0,L|408:275,1,45
245,49,99010,6,0,L|237:112,1,45,6|0,0:0|0:0,0:0:0:0:
320,102,99153,2,0,L|328:158,1,45
170,333,99296,2,0,L|163:268,1,45,8|0,0:0|0:0,0:0:0:0:
251,278,99438,2,0,L|260:213,1,45
92,82,99581,6,0,P|74:135|145:169,1,135,2|0,0:0|0:0,0:0:0:0:
282,313,99867,2,0,L|383:301,1,90,8|0,0:0|0:0,0:0:0:0:
139,269,100153,2,0,L|131:157,1,90,6|0,0:0|0:0,0:0:0:0:
215,118,100367,2,0,L|223:221,1,90
309,268,100581,2,0,L|319:200,1,45
232,46,100724,5,2,0:0:0:0:
184,55,100760,1,0,0:0:0:0:
156,73,100796,1,0,0:0:0:0:
144,98,100831,1,0,0:0:0:0:
157,129,100867,1,0,0:0:0:0:
282,131,101010,5,2,0:0:0:0:
330,140,101046,1,0,0:0:0:0:
358,158,101082,1,0,0:0:0:0:
370,183,101117,1,0,0:0:0:0:
357,214,101153,1,0,0:0:0:0:
131,319,101296,5,4,0:0:0:0:
50,78,101438,1,0,0:0:0:0:
56,102,101486,1,0,0:0:0:0:
68,122,101534,1,0,0:0:0:0:
90,139,101581,1,0,0:0:0:0:
119,153,101629,1,0,0:0:0:0:
155,158,101676,1,0,0:0:0:0:
285,170,101724,5,2,0:0:0:0:
395,315,101867,1,0,0:0:0:0:
428,46,102010,1,0,0:0:0:0:
202,297,102153,2,0,L|194:224,1,45
280,239,102296,2,0,L|290:178,1,45
441,230,102438,6,0,L|450:173,1,45,6|0,0:0|0:0,0:0:0:0:
363,180,102581,2,0,L|356:120,1,45
203,333,102724,2,0,L|194:269,1,45,8|0,0:0|0:0,0:0:0:0:
276,274,102867,2,0,L|284:218,1,45
125,71,103010,6,0,L|115:144,1,45,2|0,0:0|0:0,0:0:0:0:
201,126,103153,2,0,L|207:185,1,45
120,185,103296,2,0,L|115:249,1,45,2|0,0:0|0:0,0:0:0:0:
35,243,103438,2,0,L|25:304,1,45
205,346,103581,6,0,L|214:288,1,45,6|0,0:0|0:0,0:0:0:0:
128,288,103724,2,0,L|124:209,1,45
283,215,103867,2,0,L|405:202,1,90,8|0,0:0|0:0,0:0:0:0:
243,71,104153,6,0,L|232:146,1,45,2|0,0:0|0:0,0:0:0:0:
317,128,104296,2,0,L|326:188,1,45
170,328,104438,2,0,L|160:270,1,45,8|0,0:0|0:0,0:0:0:0:
242,273,104581,2,0,L|251:217,1,45
411,277,104724,6,0,L|419:339,1,45,6|0,0:0|0:0,0:0:0:0:
329,323,104867,2,0,L|323:272,1,45
239,268,105010,2,0,L|233:216,1,45
321,204,105153,2,0,L|330:153,1,45
168,58,105296,5,2,0:0:0:0:
190,93,105367,1,0,0:0:0:0:
241,117,105438,1,0,0:0:0:0:
299,129,105510,1,0,0:0:0:0:
143,294,105581,1,10,0:0:0:0:
117,264,105653,1,0,0:0:0:0:
140,225,105724,1,0,0:0:0:0:
202,213,105796,1,0,0:0:0:0:
348,66,105867,6,0,L|363:137,1,45,6|0,0:0|0:0,0:0:0:0:
206,143,106010,2,0,L|194:206,1,45
278,196,106153,2,0,L|286:242,1,45
115,331,106296,2,0,L|104:219,1,90
230,337,106581,6,0,L|239:269,1,45,8|0,0:0|0:0,0:0:0:0:
78,114,106724,2,0,L|68:184,1,45,8|0,0:0|0:0,0:0:0:0:
151,180,106867,2,0,L|157:246,1,45
311,313,107010,6,0,L|315:253,1,45,6|0,0:0|0:0,0:0:0:0:
230,257,107153,2,0,L|223:202,1,45
386,80,107296,2,0,L|398:154,1,45,8|0,0:0|0:0,0:0:0:0:
313,135,107438,2,0,L|305:193,1,45
132,80,107581,5,2,0:0:0:0:
88,118,107676,1,0,0:0:0:0:
133,156,107772,1,0,0:0:0:0:
219,188,107867,1,2,0:0:0:0:
161,211,107962,1,0,0:0:0:0:
97,237,108057,1,0,0:0:0:0:
300,340,108153,5,6,0:0:0:0:
360,317,108248,1,0,0:0:0:0:
297,288,108343,1,0,0:0:0:0:
115,286,108438,2,0,L|108:228,1,45,8|0,0:0|0:0,0:0:0:0:
256,62,108581,1,8,0:0:0:0:
282,93,108653,1,0,0:0:0:0:
255,130,108724,1,0,0:0:0:0:
202,143,108796,1,0,0:0:0:0:
342,317,108867,6,0,L|348:251,1,45,8|0,0:0|0:0,0:0:0:0:
203,264,109010,2,0,L|140:256,1,45,4|0,0:0|0:0,0:0:0:0:
309,239,109153,1,8,0:0:0:0:
368,228,109224,1,0,0:0:0:0:
389,195,109296,1,0,0:0:0:0:
370,160,109367,1,0,0:0:0:0:
225,68,109438,6,0,L|218:134,1,45,8|0,0:0|0:0,0:0:0:0:
361,140,109581,2,0,L|419:129,1,45,4|0,0:0|0:0,0:0:0:0:
249,184,109724,1,8,0:0:0:0:
230,218,109796,1,0,0:0:0:0:
253,253,109867,1,8,0:0:0:0:
331,271,109962,1,0,0:0:0:0:
465,332,110010,6,0,L|479:251,1,60,8|0,0:0|0:0,0:0:0:0:
323,227,110153,2,0,L|255:217,1,60,4|0,0:0|0:0,0:0:0:0:
420,79,110296,2,0,L|432:160,1,60,8|0,0:0|0:0,0:0:0:0:
260,75,110438,5,4,0:0:0:0:
163,103,110581,1,0,0:0:0:0:
104,168,110724,1,0,0:0:0:0:
75,260,110867,1,0,0:0:0:0:
320,316,111010,5,2,0:0:0:0:
327,278,111867,1,2,0:0:0:0:
175,182,112724,1,0,0:0:0:0:
338,227,113010,1,0,0:0:0:0:
215,73,113867,5,2,0:0:0:0:
246,126,114010,1,2,0:0:0:0:
304,157,114153,1,2,0:0:0:0:
376,174,114296,1,2,0:0:0:0:
266,258,114438,1,0,0:0:0:0:
172,226,114915,1,0,0:0:0:0:
266,258,115010,1,0,0:0:0:0:
340,326,115296,1,0,0:0:0:0:
151,325,115581,5,2,0:0:0:0:
221,291,116153,1,2,0:0:0:0:
140,282,116438,1,2,0:0:0:0:
281,188,117296,1,0,0:0:0:0:
130,236,117581,1,0,0:0:0:0:
308,336,118153,6,0,L|317:233,1,90
182,230,118438,1,0,0:0:0:0:
149,176,118581,1,0,0:0:0:0:
190,123,118724,1,0,0:0:0:0:
258,172,118867,1,0,0:0:0:0:
402,168,119010,5,0,0:0:0:0:
386,213,119153,1,0,0:0:0:0:
344,243,119296,1,0,0:0:0:0:
284,258,119438,1,0,0:0:0:0:
241,259,119486,1,0,0:0:0:0:
146,259,119581,1,0,0:0:0:0:
287,71,119867,1,0,0:0:0:0:
200,88,120010,1,0,0:0:0:0:
334,110,120152,6,0,L|343:226,1,90,2|0,0:0|0:0,0:0:0:0:
213,199,120438,2,0,L|203:304,1,90,0|2,0:0|0:0,0:0:0:0:
331,299,120724,1,0,0:0:0:0:
339,244,120867,1,0,0:0:0:0:
221,110,121010,6,0,L|113:123,1,90,2|0,0:0|0:0,0:0:0:0:
257,143,121296,2,0,L|383:158,1,90
316,198,121581,1,0,0:0:0:0:
237,228,121724,1,0,0:0:0:0:
105,328,121867,5,0,0:0:0:0:
83,296,121938,1,0,0:0:0:0:
104,260,122010,1,0,0:0:0:0:
163,251,122081,1,0,0:0:0:0:
233,251,122153,2,0,L|246:144,1,90
115,142,122438,6,0,L|230:130,1,90
326,85,122724,2,0,L|220:75,1,90
377,134,123010,1,2,0:0:0:0:
414,202,123153,1,2,0:0:0:0:
377,269,123296,1,2,0:0:0:0:
286,302,123438,1,2,0:0:0:0:
155,314,123581,6,0,L|263:324,1,90
114,145,123867,1,0,0:0:0:0:
92,177,123938,1,0,0:0:0:0:
113,210,124010,1,0,0:0:0:0:
166,220,124081,1,0,0:0:0:0:
224,226,124153,5,0,0:0:0:0:
248,259,124224,1,0,0:0:0:0:
225,291,124296,1,0,0:0:0:0:
165,302,124367,1,0,0:0:0:0:
109,290,124438,1,0,0:0:0:0:
85,258,124510,1,0,0:0:0:0:
110,217,124581,1,0,0:0:0:0:
165,211,124653,1,0,0:0:0:0:
223,145,124724,6,0,L|337:138,1,90,2|0,0:0|0:0,0:0:0:0:
188,178,125010,2,0,L|87:184,1,90,0|2,0:0|0:0,0:0:0:0:
232,333,125296,1,0,0:0:0:0:
248,256,125438,1,0,0:0:0:0:
386,228,125581,1,2,0:0:0:0:
437,153,125724,1,0,0:0:0:0:
372,68,125938,1,0,0:0:0:0:
252,51,126153,1,0,0:0:0:0:
114,50,126438,1,0,0:0:0:0:
260,169,126724,5,0,0:0:0:0:
132,325,127010,2,0,P|133:270|204:225,1,135
367,219,127296,1,8,0:0:0:0:
416,207,127331,1,0,0:0:0:0:
436,188,127367,1,0,0:0:0:0:
443,169,127403,1,0,0:0:0:0:
437,146,127438,1,0,0:0:0:0:
402,108,127510,1,0,0:0:0:0:
341,89,127581,5,0,0:0:0:0:
264,83,127653,1,0,0:0:0:0:
349,323,127724,1,0,0:0:0:0:
372,311,127760,1,0,0:0:0:0:
349,323,127796,1,0,0:0:0:0:
372,311,127832,1,0,0:0:0:0:
349,323,127867,1,0,0:0:0:0:
372,311,127903,1,0,0:0:0:0:
349,323,127938,1,0,0:0:0:0:
372,311,127974,1,0,0:0:0:0:
349,323,128010,1,0,0:0:0:0:
372,311,128046,1,0,0:0:0:0:
349,323,128081,1,0,0:0:0:0:
372,311,128117,1,0,0:0:0:0:
349,323,128153,5,0,0:0:0:0:
372,311,128189,1,0,0:0:0:0:
349,323,128224,1,0,0:0:0:0:
372,311,128260,1,0,0:0:0:0:
349,323,128296,1,0,0:0:0:0:
372,311,128332,1,0,0:0:0:0:
349,323,128367,1,0,0:0:0:0:
372,311,128403,1,0,0:0:0:0:
349,323,128438,1,0,0:0:0:0:
372,311,128474,1,0,0:0:0:0:
349,323,128510,1,0,0:0:0:0:
372,311,128546,1,0,0:0:0:0:
349,323,128581,1,0,0:0:0:0:
372,311,128617,1,0,0:0:0:0:
349,323,128653,1,0,0:0:0:0:
372,311,128689,1,0,0:0:0:0:
349,323,128724,5,0,0:0:0:0:
372,311,128760,1,0,0:0:0:0:
349,323,128795,1,0,0:0:0:0:
372,311,128831,1,0,0:0:0:0:
349,323,128867,1,0,0:0:0:0:
372,311,128903,1,0,0:0:0:0:
348,257,128938,1,0,0:0:0:0:
314,232,128974,1,0,0:0:0:0:
255,214,129010,5,2,0:0:0:0:
256,192,129296,12,0,130010,0:0:0:0:
187,72,130260,5,0,0:0:0:0:
205,86,130296,1,0,0:0:0:0:
184,109,130331,1,0,0:0:0:0:
202,136,130367,1,0,0:0:0:0:
337,283,130438,5,2,0:0:0:0:
244,308,130581,1,2,0:0:0:0:
468,212,130724,1,10,0:0:0:0:
376,196,130867,1,2,0:0:0:0:
145,211,131010,1,10,0:0:0:0:
238,237,131153,1,2,0:0:0:0:
8,281,131296,1,10,0:0:0:0:
100,309,131438,1,2,0:0:0:0:
315,96,131581,5,10,0:0:0:0:
223,124,131724,1,2,0:0:0:0:
270,142,131796,1,0,0:0:0:0:
420,192,131867,1,10,0:0:0:0:
329,218,132010,1,2,0:0:0:0:
101,316,132153,1,10,0:0:0:0:
193,289,132296,1,2,0:0:0:0:
418,319,132438,1,10,0:0:0:0:
326,292,132581,1,2,0:0:0:0:
106,168,132724,5,10,0:0:0:0:
14,144,132867,1,2,0:0:0:0:
243,76,133010,1,10,0:0:0:0:
153,99,133153,1,2,0:0:0:0:
372,149,133296,1,10,0:0:0:0:
463,173,133438,1,2,0:0:0:0:
412,192,133510,1,0,0:0:0:0:
263,269,133581,1,10,0:0:0:0:
346,293,133724,1,2,0:0:0:0:
112,315,133867,5,10,0:0:0:0:
156,295,133938,1,0,0:0:0:0:
294,274,134010,1,2,0:0:0:0:
375,243,134153,1,10,0:0:0:0:
294,206,134296,1,2,0:0:0:0:
200,44,134438,2,0,L|189:246,1,180
99,245,134867,1,0,0:0:0:0:
330,355,135010,5,10,0:0:0:0:
389,340,135081,1,2,0:0:0:0:
413,308,135153,1,2,0:0:0:0:
390,270,135224,1,2,0:0:0:0:
234,77,135296,1,10,0:0:0:0:
210,113,135367,1,2,0:0:0:0:
234,152,135438,1,2,0:0:0:0:
298,166,135510,1,2,0:0:0:0:
154,349,135581,5,10,0:0:0:0:
95,343,135653,1,2,0:0:0:0:
68,313,135724,1,2,0:0:0:0:
94,272,135796,1,2,0:0:0:0:
250,243,135867,1,10,0:0:0:0:
277,207,135938,1,2,0:0:0:0:
252,169,136010,1,2,0:0:0:0:
189,157,136081,1,2,0:0:0:0:
336,75,136153,5,10,0:0:0:0:
399,81,136224,1,2,0:0:0:0:
429,113,136296,1,2,0:0:0:0:
400,150,136367,1,2,0:0:0:0:
255,340,136438,1,10,0:0:0:0:
194,331,136510,1,2,0:0:0:0:
166,301,136581,1,2,0:0:0:0:
194,261,136653,1,2,0:0:0:0:
347,252,136724,5,10,0:0:0:0:
398,216,136796,1,2,0:0:0:0:
349,184,136867,1,2,0:0:0:0:
289,165,136938,1,2,0:0:0:0:
146,142,137010,1,10,0:0:0:0:
88,124,137081,1,2,0:0:0:0:
146,110,137153,1,2,0:0:0:0:
205,101,137224,1,2,0:0:0:0:
352,339,137296,5,2,0:0:0:0:
401,328,137331,1,2,0:0:0:0:
430,309,137367,1,2,0:0:0:0:
450,286,137403,1,2,0:0:0:0:
458,260,137438,1,2,0:0:0:0:
449,227,137474,1,2,0:0:0:0:
428,201,137510,1,2,0:0:0:0:
396,188,137546,1,2,0:0:0:0:
345,309,137581,5,2,0:0:0:0:
296,298,137616,1,2,0:0:0:0:
267,279,137652,1,2,0:0:0:0:
247,256,137688,1,2,0:0:0:0:
239,230,137723,1,2,0:0:0:0:
248,197,137759,1,2,0:0:0:0:
269,171,137795,1,2,0:0:0:0:
304,150,137831,1,2,0:0:0:0:
340,45,137867,5,2,0:0:0:0:
357,68,137903,1,2,0:0:0:0:
345,106,137938,1,2,0:0:0:0:
294,120,137974,1,2,0:0:0:0:
163,130,138010,1,2,0:0:0:0:
121,140,138046,1,2,0:0:0:0:
106,170,138081,1,2,0:0:0:0:
120,206,138117,1,2,0:0:0:0:
237,336,138153,5,2,0:0:0:0:
280,324,138188,1,2,0:0:0:0:
296,298,138224,1,2,0:0:0:0:
280,264,138260,1,2,0:0:0:0:
157,247,138296,1,2,0:0:0:0:
110,237,138331,1,2,0:0:0:0:
93,211,138367,1,2,0:0:0:0:
111,176,138403,1,2,0:0:0:0:
250,169,138438,5,4,0:1:0:0:
364,329,138581,1,0,0:0:0:0:
374,307,138617,1,0,0:0:0:0:
360,275,138653,1,0,0:0:0:0:
332,257,138688,1,0,0:0:0:0:
300,244,138724,1,0,0:0:0:0:
206,230,138867,1,0,0:0:0:0:
319,198,139010,5,0,0:0:0:0:
405,178,139153,1,0,0:0:0:0:
176,75,139296,2,0,L|72:93,1,90,8|8,0:1|0:1,0:0:0:0:
307,286,139581,6,0,L|425:300,1,90,14|0,0:0|0:0,0:0:0:0:
345,273,139796,1,0,0:0:0:0:
203,184,139867,2,0,L|318:177,1,90,10|2,0:3|0:0,0:0:0:0:
69,303,140153,1,8,0:0:0:0:
19,279,140224,1,0,0:0:0:0:
69,253,140296,1,2,0:0:0:0:
289,131,140438,2,0,L|180:124,1,90,10|0,0:3|0:0,0:0:0:0:
432,198,140724,6,0,L|312:217,1,90,10|0,0:0|0:0,0:0:0:0:
284,224,140938,1,0,0:0:0:0:
134,308,141010,2,0,L|247:320,1,90,10|2,0:3|0:0,0:0:0:0:
440,287,141296,1,8,0:0:0:0:
488,264,141367,1,0,0:0:0:0:
440,240,141438,1,2,0:0:0:0:
202,138,141581,2,0,L|309:129,1,90,10|0,0:3|0:0,0:0:0:0:
62,309,141867,5,10,0:0:0:0:
34,272,141938,1,0,0:0:0:0:
61,233,142010,1,2,0:0:0:0:
121,273,142081,1,0,0:0:0:0:
261,279,142153,1,8,0:3:0:0:
198,178,142296,1,2,0:0:0:0:
246,160,142367,1,0,0:0:0:0:
385,159,142438,1,10,0:0:0:0:
439,187,142510,1,0,0:0:0:0:
386,208,142581,1,0,0:0:0:0:
156,306,142724,2,0,L|51:300,1,90,10|0,0:3|0:0,0:0:0:0:
317,306,143010,5,10,0:0:0:0:
367,288,143081,1,0,0:0:0:0:
309,268,143153,1,0,0:0:0:0:
266,236,143224,1,2,0:0:0:0:
248,209,143296,1,0,0:0:0:0:
269,181,143367,1,2,0:0:0:0:
406,155,143438,1,8,0:0:0:0:
195,298,143581,2,0,L|93:288,1,90,8|0,0:0|0:0,0:0:0:0:
316,78,143867,1,8,0:3:0:0:
202,101,144010,1,8,0:0:0:0:
435,299,144153,5,12,0:0:0:0:
201,235,144296,1,8,0:0:0:0:
435,124,144438,2,0,L|328:137,1,90,10|2,0:3|0:0,0:0:0:0:
110,298,144724,1,8,0:0:0:0:
64,281,144796,1,0,0:0:0:0:
110,255,144867,1,2,0:0:0:0:
341,338,145010,2,0,L|349:219,1,90,10|0,0:3|0:0,0:0:0:0:
129,78,145296,6,0,L|15:86,1,90,10|0,0:0|0:0,0:0:0:0:
87,95,145510,1,0,0:0:0:0:
230,166,145581,2,0,L|123:175,1,90,10|2,0:3|0:0,0:0:0:0:
371,314,145867,1,8,0:0:0:0:
417,292,145938,1,0,0:0:0:0:
370,266,146010,1,2,0:0:0:0:
150,258,146153,1,10,0:3:0:0:
254,233,146296,2,0,L|147:222,1,90,2|2,0:0|0:0,0:0:0:0:
397,85,146581,6,0,L|501:98,1,90,8|0,0:0|0:0,0:0:0:0:
249,165,146867,2,0,L|126:184,1,90,8|0,0:0|0:0,0:0:0:0:
389,268,147153,2,0,L|522:279,1,90,8|0,0:0|0:0,0:0:0:0:
234,327,147438,1,8,0:0:0:0:
332,301,147581,1,8,0:0:0:0:
366,283,147653,1,8,0:0:0:0:
332,266,147724,1,8,0:0:0:0:
100,178,147867,1,8,0:0:0:0:
52,162,147938,1,8,0:0:0:0:
99,140,148010,1,8,0:0:0:0:
201,315,148153,5,0,0:0:0:0:
228,265,148296,1,0,0:0:0:0:
197,211,148438,1,0,0:0:0:0:
129,196,148581,1,0,0:0:0:0:
350,69,148724,6,0,L|452:79,1,90,14|0,0:0|0:0,0:0:0:0:
214,157,149010,2,0,L|303:168,1,90,10|2,0:3|0:0,0:0:0:0:
79,291,149296,1,8,0:0:0:0:
33,276,149367,1,0,0:0:0:0:
81,247,149438,1,2,0:0:0:0:
312,304,149581,2,0,L|418:292,1,90,10|0,0:3|0:0,0:0:0:0:
184,85,149867,6,0,L|303:98,1,90,10|0,0:0|0:0,0:0:0:0:
214,111,150081,1,0,0:0:0:0:
71,128,150153,2,0,L|60:251,1,90,10|2,0:3|0:0,0:0:0:0:
299,308,150438,1,8,0:0:0:0:
339,288,150510,1,0,0:0:0:0:
296,262,150581,1,2,0:0:0:0:
62,201,150724,2,0,L|177:189,1,90,10|0,0:3|0:0,0:0:0:0:
430,308,151010,5,10,0:0:0:0:
458,271,151081,1,0,0:0:0:0:
431,232,151153,1,2,0:0:0:0:
371,272,151224,1,0,0:0:0:0:
231,278,151296,1,8,0:3:0:0:
294,177,151439,1,2,0:0:0:0:
246,159,151510,1,0,0:0:0:0:
107,158,151581,1,10,0:0:0:0:
53,186,151653,1,0,0:0:0:0:
106,207,151724,1,0,0:0:0:0:
336,304,151867,2,0,L|441:298,1,90,10|0,0:3|0:0,0:0:0:0:
195,306,152153,5,10,0:0:0:0:
145,288,152224,1,0,0:0:0:0:
194,265,152296,1,0,0:0:0:0:
247,244,152367,1,2,0:0:0:0:
106,219,152439,1,8,0:3:0:0:
79,192,152510,1,2,0:0:0:0:
107,163,152581,1,0,0:0:0:0:
168,156,152653,1,2,0:0:0:0:
314,92,152724,5,8,0:0:0:0:
87,58,152867,1,8,0:0:0:0:
320,158,153010,1,8,0:3:0:0:
434,135,153153,1,8,0:0:0:0:
200,331,153296,6,0,P|146:324|133:209,1,180,12|2,0:0|0:0,0:0:0:0:
358,197,153724,1,10,0:0:0:0:
131,81,153867,1,8,0:0:0:0:
88,108,153938,1,0,0:0:0:0:
132,135,154010,1,2,0:0:0:0:
348,106,154153,2,0,P|330:175|226:209,1,180,10|2,0:0|0:0,0:0:0:0:
458,272,154581,5,8,0:0:0:0:
231,334,154724,2,0,L|336:321,1,90,10|2,0:0|0:0,0:0:0:0:
93,285,155010,2,0,L|84:189,1,90,8|2,0:0|0:0,0:0:0:0:
313,120,155296,2,0,L|221:113,1,90,10|10,0:0|0:0,0:0:0:0:
442,312,155581,5,10,0:0:0:0:
465,283,155653,1,0,0:0:0:0:
448,241,155724,1,0,0:0:0:0:
402,215,155796,1,0,0:0:0:0:
341,212,155867,1,0,0:0:0:0:
286,198,155938,1,0,0:0:0:0:
261,168,156010,1,0,0:0:0:0:
286,131,156081,1,0,0:0:0:0:
336,92,156153,5,8,0:0:0:0:
415,122,156296,1,8,0:0:0:0:
280,155,156438,1,8,0:0:0:0:
196,182,156581,1,8,0:0:0:0:
332,318,156724,2,0,L|337:211,1,90
455,176,157010,2,0,L|345:195,1,90
239,113,157296,2,0,L|347:124,1,90
196,182,157581,2,0,L|81:198,1,90
341,279,157867,5,10,0:0:0:0:
97,337,158010,1,8,0:0:0:0:
346,246,158153,2,0,L|357:144,1,90,10|2,0:3|0:0,0:0:0:0:
76,116,158438,2,0,L|189:128,1,90,8|0,0:0|0:0,0:0:0:0:
404,280,158724,6,0,B|459:258|459:258|357:246,1,135.000005149842,10|0,0:3|0:0,0:0:0:0:
144,284,159010,2,0,L|24:295,1,90,10|0,0:0|0:0,0:0:0:0:
284,87,159296,2,0,L|298:210,1,90,8|0,0:3|0:0,0:0:0:0:
48,276,159581,6,0,L|155:262,1,90,10|0,0:0|0:0,0:0:0:0:
363,225,159867,2,0,L|252:216,1,90,10|0,0:3|0:0,0:0:0:0:
499,121,160153,2,0,L|404:115,1,90,10|0,0:0|0:0,0:0:0:0:
184,298,160438,2,0,L|293:288,1,90,10|0,0:3|0:0,0:0:0:0:
43,189,160724,2,0,L|149:183,1,90,10|0,0:0|0:0,0:0:0:0:
362,198,161010,2,0,L|488:190,1,90,10|0,0:3|0:0,0:0:0:0:
224,62,161296,5,10,0:0:0:0:
328,87,161438,1,2,0:0:0:0:
112,322,161581,2,0,L|107:264,1,45,10|0,0:3|0:0,0:0:0:0:
192,270,161724,2,0,L|202:207,1,45,2|0,0:0|0:0,0:0:0:0:
57,199,161867,5,8,0:0:0:0:
283,164,162010,1,10,0:0:0:0:
55,91,162153,2,0,L|48:184,1,90,10|2,0:3|0:0,0:0:0:0:
264,318,162438,5,2,0:0:0:0:
170,284,162581,1,8,0:0:0:0:
405,244,162724,1,10,0:3:0:0:
157,166,162867,1,10,0:0:0:0:
409,94,163010,2,0,L|282:109,1,90,8|0,0:0|0:0,0:0:0:0:
98,280,163296,6,0,B|43:258|43:258|145:246,1,135.000005149842,10|0,0:3|0:0,0:0:0:0:
357,319,163581,2,0,L|488:309,1,90,10|0,0:0|0:0,0:0:0:0:
219,109,163867,2,0,L|210:224,1,90,8|0,0:3|0:0,0:0:0:0:
464,276,164153,6,0,L|357:262,1,90,10|0,0:0|0:0,0:0:0:0:
149,225,164439,2,0,L|260:216,1,90,10|0,0:3|0:0,0:0:0:0:
13,121,164725,2,0,L|108:115,1,90,10|0,0:0|0:0,0:0:0:0:
347,298,165010,2,0,L|238:288,1,90,10|0,0:3|0:0,0:0:0:0:
30,193,165296,2,0,L|136:187,1,90,10|0,0:0|0:0,0:0:0:0:
344,173,165582,2,0,L|470:165,1,90,10|0,0:3|0:0,0:0:0:0:
201,257,165867,5,10,0:0:0:0:
445,328,166010,1,10,0:0:0:0:
201,257,166153,1,10,0:3:0:0:
445,328,166296,1,10,0:0:0:0:
201,257,166438,1,8,0:0:0:0:
90,291,166581,1,8,0:0:0:0:
239,302,166724,6,0,L|360:317,1,90,8|0,0:3|0:0,0:0:0:0:
79,100,167010,2,0,L|204:111,1,90,14|0,0:0|0:0,0:0:0:0:
414,133,167296,2,0,L|426:246,1,90,10|2,0:3|0:0,0:0:0:0:
198,292,167581,2,0,L|74:282,1,90,8|0,0:0|0:0,0:0:0:0:
405,292,167867,6,0,B|460:270|460:270|358:258,1,135.000005149842,10|0,0:3|0:0,0:0:0:0:
181,156,168153,2,0,L|65:141,1,90,10|0,0:0|0:0,0:0:0:0:
347,65,168438,2,0,L|247:78,1,90,8|0,0:3|0:0,0:0:0:0:
30,268,168724,6,0,L|143:282,1,90,10|0,0:0|0:0,0:0:0:0:
348,282,169010,2,0,L|226:297,1,90,10|0,0:3|0:0,0:0:0:0:
480,220,169296,1,10,0:0:0:0:
248,215,169438,2,0,L|237:96,1,90,8|0,0:0|0:0,0:0:0:0:
475,101,169724,1,10,0:0:0:0:
235,95,169867,2,0,L|117:82,1,90,10|0,0:0|0:0,0:0:0:0:
374,297,170153,2,0,L|481:286,1,90,10|0,0:3|0:0,0:0:0:0:
236,275,170438,5,6,0:3:0:0:
342,274,170581,1,0,0:0:0:0:
121,250,170724,2,0,L|121:202,1,45,6|0,0:3|0:0,0:0:0:0:
205,198,170867,2,0,L|205:148,1,45,2|0,0:0|0:0,0:0:0:0:
350,74,171010,1,4,0:3:0:0:
254,95,171153,6,0,L|254:154,1,45,6|0,0:3|0:0,0:0:0:0:
412,140,171296,2,0,L|412:200,1,45,6|0,0:3|0:0,0:0:0:0:
329,192,171438,2,0,L|328:249,1,45,2|0,0:0|0:0,0:0:0:0:
182,275,171581,5,10,0:0:0:0:
414,316,171724,1,8,0:0:0:0:
182,275,171867,2,0,L|70:266,1,90,10|2,0:3|0:0,0:0:0:0:
325,112,172153,2,0,L|427:100,1,90,8|0,0:0|0:0,0:0:0:0:
164,141,172438,6,0,B|117:158|117:158|225:174,1,135.000005149842,10|0,0:3|0:0,0:0:0:0:
435,230,172724,2,0,L|331:245,1,90,10|0,0:0|0:0,0:0:0:0:
115,322,173010,2,0,L|106:211,1,90,8|0,0:3|0:0,0:0:0:0:
334,97,173296,1,10,0:0:0:0:
395,112,173367,1,8,0:0:0:0:
402,214,173510,1,8,0:0:0:0:
238,315,173581,1,10,0:3:0:0:
144,290,173724,1,0,0:0:0:0:
369,52,173867,6,0,L|437:62,1,45,10|0,0:0|0:0,0:0:0:0:
353,100,174010,2,0,L|347:151,1,45
272,161,174153,2,0,L|245:216,1,45,2|0,0:0|0:0,0:0:0:0:
173,225,174296,2,0,L|126:245,1,45
276,328,174438,6,0,L|332:322,1,45,10|0,0:0|0:0,0:0:0:0:
240,308,174581,2,0,L|231:253,1,45
306,242,174724,2,0,L|330:186,1,45,2|0,0:0|0:0,0:0:0:0:
394,167,174867,2,0,L|450:138,1,45
293,60,175010,6,0,L|237:55,1,45,10|0,0:0|0:0,0:0:0:0:
323,80,175153,2,0,L|335:149,1,45,2|0,0:0|0:0,0:0:0:0:
252,132,175296,2,0,L|230:189,1,45,2|0,0:0|0:0,0:0:0:0:
312,205,175438,2,0,L|369:173,1,45,2|0,0:0|0:0,0:0:0:0:
198,341,175581,5,10,0:0:0:0:
135,329,175653,1,0,0:0:0:0:
96,307,175724,1,2,0:0:0:0:
74,278,175796,1,0,0:0:0:0:
64,250,175867,1,2,0:0:0:0:
73,218,175938,1,0,0:0:0:0:
99,185,176010,1,2,0:0:0:0:
144,162,176081,1,0,0:0:0:0:
337,333,176153,6,0,L|439:319,1,90,10|0,0:0|0:0,0:0:0:0:
199,228,176438,2,0,L|84:218,1,90,8|2,0:0|0:0,0:0:0:0:
337,333,176724,2,0,L|439:319,1,90,8|0,0:0|0:0,0:0:0:0:
199,228,177009,2,0,L|84:218,1,90,10|0,0:0|0:0,0:0:0:0:
337,333,177296,6,0,L|439:319,1,90,8|0,0:0|0:0,0:0:0:0:
199,228,177581,2,0,L|84:218,1,90,8|0,0:0|0:0,0:0:0:0:
357,97,177867,2,0,L|253:112,1,90,10|0,0:0|0:0,0:0:0:0:
35,161,178153,2,0,L|131:172,1,90,10|2,0:0|0:0,0:0:0:0:
362,339,178438,6,0,L|472:328,1,90,10|0,0:0|0:0,0:0:0:0:
226,258,178724,2,0,L|335:247,1,90,10|2,0:0|0:0,0:0:0:0:
93,100,179010,2,0,L|82:215,1,90,8|2,0:0|0:0,0:0:0:0:
305,323,179296,2,0,L|192:313,1,90,10|0,0:0|0:0,0:0:0:0:
445,216,179581,6,0,L|352:209,1,90,8|0,0:0|0:0,0:0:0:0:
141,78,179867,2,0,L|23:87,1,90,10|0,0:0|0:0,0:0:0:0:
284,208,180153,2,0,L|175:195,1,90,10|0,0:0|0:0,0:0:0:0:
418,330,180438,2,0,L|425:225,1,90,8|0,0:0|0:0,0:0:0:0:
197,269,180724,6,0,L|91:261,1,90,10|0,0:0|0:0,0:0:0:0:
335,182,181010,2,0,L|428:169,1,90,8|2,0:0|0:0,0:0:0:0:
177,151,181296,2,0,L|272:139,1,90,8|0,0:0|0:0,0:0:0:0:
493,100,181581,2,0,L|372:88,1,90,10|0,0:0|0:0,0:0:0:0:
178,335,181867,6,0,L|45:324,1,90,8|0,0:0|0:0,0:0:0:0:
314,290,182153,2,0,L|434:278,1,90,10|0,0:0|0:0,0:0:0:0:
171,196,182438,2,0,L|276:182,1,90,10|0,0:0|0:0,0:0:0:0:
487,139,182724,2,0,L|385:128,1,90,10|2,0:0|0:0,0:0:0:0:
178,335,183010,6,0,L|76:321,1,90,10|0,0:0|0:0,0:0:0:0:
316,230,183295,2,0,L|431:220,1,90,10|2,0:0|0:0,0:0:0:0:
178,335,183581,2,0,L|76:321,1,90,8|2,0:0|0:0,0:0:0:0:
316,230,183866,2,0,L|431:220,1,90,10|0,0:0|0:0,0:0:0:0:
178,335,184153,6,0,L|76:321,1,90,8|0,0:0|0:0,0:0:0:0:
316,230,184438,2,0,L|431:220,1,90,10|0,0:0|0:0,0:0:0:0:
175,73,184724,1,10,0:0:0:0:
106,106,184867,2,0,P|83:166|207:253,1,225
332,316,185296,6,0,L|435:308,1,90,8|0,0:0|0:0,0:0:0:0:
203,232,185581,2,0,L|322:242,1,90,8|0,0:0|0:0,0:0:0:0:
70,85,185867,2,0,L|63:200,1,90,8|0,0:0|0:0,0:0:0:0:
296,318,186153,6,0,L|174:331,1,90,8|0,0:0|0:0,0:0:0:0:
436,204,186438,2,0,L|319:193,1,90,10|2,0:0|0:0,0:0:0:0:
119,80,186724,2,0,L|108:198,1,90,10|2,0:0|0:0,0:0:0:0:
325,317,187010,6,0,L|428:304,1,90,10|2,0:0|0:0,0:0:0:0:
189,248,187296,2,0,L|92:237,1,90,10|0,0:0|0:0,0:0:0:0:
333,166,187581,2,0,L|226:155,1,90,10|0,0:0|0:0,0:0:0:0:
21,132,187867,2,0,L|140:120,1,90,8|0,0:0|0:0,0:0:0:0:
337,297,188153,6,0,L|452:283,1,90,8|0,0:0|0:0,0:0:0:0:
202,233,188438,2,0,L|85:220,1,90,8|0,0:0|0:0,0:0:0:0:
345,146,188724,2,0,L|238:135,1,90,10|2,0:0|0:0,0:0:0:0:
33,112,189010,2,0,L|152:100,1,90,10|2,0:0|0:0,0:0:0:0:
356,310,189296,2,0,L|229:298,1,90,10|2,0:0|0:0,0:0:0:0:
472,96,189581,2,0,L|485:219,1,90,10|0,0:0|0:0,0:0:0:0:
195,79,189867,6,0,P|195:152|326:240,1,215.999993408203,8|2,0:3|0:0,0:0:0:0:
414,251,190296,1,10,0:0:0:0:
129,306,190438,2,0,L|-6:324,1,107.999996704102,10|0,0:3|0:0,0:0:0:0:
300,63,190724,6,0,P|301:139|175:231,1,215.999993408203,8|2,0:3|0:0,0:0:0:0:
85,234,191153,1,10,0:0:0:0:
345,335,191296,2,0,L|458:321,1,107.999996704102,10|0,0:3|0:0,0:0:0:0:
179,273,191581,2,0,L|59:262,1,107.999996704102,8|0,0:3|0:0,0:0:0:0:
318,57,191867,5,10,0:0:0:0:
340,90,191938,1,0,0:0:0:0:
320,118,192010,1,2,0:0:0:0:
264,136,192081,1,0,0:0:0:0:
191,153,192153,1,2,0:0:0:0:
177,191,192224,1,0,0:0:0:0:
255,337,192296,1,2,0:0:0:0:
313,322,192367,1,0,0:0:0:0:
335,296,192438,1,0,0:0:0:0:
312,255,192510,1,0,0:0:0:0:
230,240,192581,5,2,0:0:0:0:
207,212,192653,1,0,0:0:0:0:
228,178,192724,1,0,0:0:0:0:
281,163,192796,1,0,0:0:0:0:
367,33,192867,1,2,0:0:0:0:
420,49,192938,1,0,0:0:0:0:
439,80,193010,1,0,0:0:0:0:
422,119,193081,1,0,0:0:0:0:
379,146,193153,1,2,0:0:0:0:
326,159,193224,1,0,0:0:0:0:
245,342,193296,5,2,0:0:0:0:
197,332,193331,1,0,0:0:0:0:
173,315,193367,1,0,0:0:0:0:
165,296,193403,1,0,0:0:0:0:
175,271,193438,1,0,0:0:0:0:
204,251,193474,1,0,0:0:0:0:
243,241,193510,1,0,0:0:0:0:
289,230,193546,1,0,0:0:0:0:
324,217,193581,5,0,0:0:0:0:
346,197,193617,1,0,0:0:0:0:
357,172,193653,1,0,0:0:0:0:
348,140,193688,1,0,0:0:0:0:
326,121,193724,1,0,0:0:0:0:
288,103,193760,1,0,0:0:0:0:
243,99,193796,1,0,0:0:0:0:
101,89,193867,5,2,0:0:0:0:
63,107,193903,1,0,0:0:0:0:
50,133,193938,1,0,0:0:0:0:
64,161,193974,1,0,0:0:0:0:
92,174,194010,1,0,0:0:0:0:
127,185,194046,1,0,0:0:0:0:
176,196,194081,1,0,0:0:0:0:
315,344,194153,2,0,P|361:335|385:258,1,135
182,76,194438,6,0,L|305:85,1,90,14|0,0:0|0:0,0:0:0:0:
42,136,194724,2,0,L|167:148,1,90,8|0,0:3|0:0,0:0:0:0:
334,209,195010,2,0,L|211:218,1,90,10|0,0:0|0:0,0:0:0:0:
474,269,195296,2,0,L|349:281,1,90,8|0,0:3|0:0,0:0:0:0:
165,304,195581,6,0,L|273:314,1,90,10|0,0:0|0:0,0:0:0:0:
480,105,195867,2,0,L|367:120,1,90,8|0,0:3|0:0,0:0:0:0:
157,263,196153,2,0,L|145:143,1,90,10|0,0:0|0:0,0:0:0:0:
372,253,196438,2,0,L|487:239,1,90,10|0,0:3|0:0,0:0:0:0:
232,111,196724,6,0,L|115:99,1,90,10|0,0:0|0:0,0:0:0:0:
375,182,197010,2,0,L|256:193,1,90,8|0,0:3|0:0,0:0:0:0:
60,258,197296,2,0,L|179:271,1,90,10|0,0:0|0:0,0:0:0:0:
374,330,197581,2,0,L|480:315,1,90,8|0,0:3|0:0,0:0:0:0:
227,83,197867,5,10,0:0:0:0:
317,97,198010,2,0,L|320:159,1,45
176,168,198153,1,8,0:3:0:0:
83,191,198296,2,0,L|74:254,1,45
231,309,198438,1,10,0:0:0:0:
142,290,198581,2,0,L|137:230,1,45
283,228,198724,1,8,0:3:0:0:
346,215,198796,2,0,L|352:153,1,45
108,78,199010,6,0,L|219:87,1,90,10|0,0:0|0:0,0:0:0:0:
420,111,199296,2,0,L|308:128,1,90,8|0,0:3|0:0,0:0:0:0:
108,78,199581,2,0,L|219:87,1,90,10|0,0:0|0:0,0:0:0:0:
425,155,199867,2,0,L|303:174,1,90,8|0,0:3|0:0,0:0:0:0:
121,318,200153,6,0,L|10:309,1,90,10|0,0:0|0:0,0:0:0:0:
254,253,200438,2,0,L|156:244,1,90,8|0,0:3|0:0,0:0:0:0:
388,320,200724,2,0,L|486:309,1,90,10|0,0:0|0:0,0:0:0:0:
244,283,201010,2,0,L|128:272,1,90,10|0,0:3|0:0,0:0:0:0:
391,236,201296,5,10,0:0:0:0:
146,173,201438,1,8,0:0:0:0:
396,100,201581,2,0,L|512:86,1,90,8|0,0:3|0:0,0:0:0:0:
256,151,201867,1,10,0:0:0:0:
404,217,202081,1,8,0:0:0:0:
252,313,202153,1,8,0:3:0:0:
346,292,202296,2,0,L|352:176,1,90,0|2,0:0|0:0,0:0:0:0:
230,69,202581,5,8,0:0:0:0:
347,88,202724,1,8,0:0:0:0:
200,137,203010,1,2,0:0:0:0:
306,153,203153,1,0,0:0:0:0:
187,211,203296,2,0,L|82:218,1,90
346,317,203581,6,0,L|230:304,1,90,14|0,0:0|0:0,0:0:0:0:
488,137,203867,2,0,L|384:152,1,90,8|0,0:3|0:0,0:0:0:0:
177,319,204153,2,0,L|293:306,1,90,10|0,0:0|0:0,0:0:0:0:
35,139,204439,2,0,L|139:154,1,90,8|0,0:3|0:0,0:0:0:0:
358,274,204724,6,0,L|475:259,1,90,10|0,0:0|0:0,0:0:0:0:
222,200,205010,2,0,L|125:188,1,90,8|0,0:3|0:0,0:0:0:0:
361,100,205296,1,10,0:0:0:0:
117,249,205438,1,8,0:0:0:0:
366,346,205581,2,0,L|252:337,1,90,8|0,0:3|0:0,0:0:0:0:
45,93,205867,6,0,L|150:104,1,90,10|0,0:0|0:0,0:0:0:0:
361,137,206153,2,0,L|234:150,1,90,8|0,0:3|0:0,0:0:0:0:
31,183,206438,2,0,L|150:192,1,90,10|0,0:0|0:0,0:0:0:0:
346,216,206724,2,0,L|223:228,1,90,8|0,0:3|0:0,0:0:0:0:
485,325,207010,5,10,0:0:0:0:
347,291,207224,1,8,0:3:0:0:
74,101,207438,1,8,0:0:0:0:
206,65,207653,1,8,0:0:0:0:
485,137,207867,1,8,0:3:0:0:
192,203,208010,1,8,0:0:0:0:
419,334,208153,5,10,0:0:0:0:
442,297,208224,1,0,0:0:0:0:
414,257,208296,1,0,0:0:0:0:
353,245,208367,1,0,0:0:0:0:
208,329,208438,1,8,0:3:0:0:
148,321,208510,1,0,0:0:0:0:
124,295,208581,1,0,0:0:0:0:
148,255,208653,1,0,0:0:0:0:
296,58,208724,5,10,0:0:0:0:
317,92,208796,1,0,0:0:0:0:
296,119,208867,1,0,0:0:0:0:
237,129,208938,1,0,0:0:0:0:
383,323,209010,1,8,0:3:0:0:
438,315,209081,1,0,0:0:0:0:
459,284,209153,1,0,0:0:0:0:
435,251,209224,1,0,0:0:0:0:
293,238,209296,5,10,0:0:0:0:
284,196,209367,1,0,0:0:0:0:
428,165,209438,1,8,0:0:0:0:
434,122,209510,1,0,0:0:0:0:
284,67,209581,1,8,0:3:0:0:
228,82,209653,1,8,0:0:0:0:
74,146,209724,1,8,0:0:0:0:
129,164,209796,1,8,0:0:0:0:
289,225,209867,1,10,0:0:0:0:
197,260,210010,1,8,0:3:0:0:
449,330,210153,5,10,0:0:0:0:
459,257,210296,1,2,0:0:0:0:
338,235,210438,2,0,L|243:224,1,90,2|2,0:0|0:0,0:0:0:0:
374,62,210724,2,0,L|384:191,1,90,0|2,0:0|0:0,0:0:0:0:
163,331,211010,5,4,0:0:0:0:
95,67,211153,1,2,0:0:0:0:
77,105,211224,1,0,0:0:0:0:
92,135,211296,1,0,0:0:0:0:
132,154,211367,1,0,0:0:0:0:
183,165,211438,1,0,0:0:0:0:
235,168,211510,1,0,0:0:0:0:
306,173,211581,5,2,0:0:0:0:
328,207,211653,1,0,0:0:0:0:
308,242,211724,1,0,0:0:0:0:
250,260,211796,1,0,0:0:0:0:
186,269,211867,2,0,L|177:329,1,45
251,344,212010,2,0,L|262:291,1,45
119,46,212153,5,4,0:0:0:0:
66,57,212224,1,0,0:0:0:0:
34,90,212296,1,0,0:0:0:0:
24,127,212367,1,0,0:0:0:0:
37,164,212438,1,0,0:0:0:0:
75,191,212510,1,0,0:0:0:0:
127,209,212581,1,0,0:0:0:0:
181,217,212653,1,0,0:0:0:0:
328,291,212724,6,0,L|438:278,1,90,8|0,0:0|0:0,0:0:0:0:
288,259,213010,2,0,L|277:157,1,90,8|0,0:0|0:0,0:0:0:0:
421,128,213296,1,8,0:0:0:0:
437,219,213438,1,0,0:0:0:0:
316,298,213581,6,0,L|441:307,1,90,8|0,0:0|0:0,0:0:0:0:
279,229,213867,2,0,L|175:241,1,90,8|0,0:0|0:0,0:0:0:0:
312,149,214153,1,8,0:0:0:0:
326,66,214296,1,0,0:0:0:0:
202,56,214438,6,0,L|88:68,1,90,8|0,0:0|0:0,0:0:0:0:
233,167,214724,2,0,L|339:178,1,90,8|0,0:0|0:0,0:0:0:0:
198,340,215010,2,0,L|189:226,1,90,8|0,0:0|0:0,0:0:0:0:
334,266,215296,2,0,L|344:166,1,90,8|0,0:0|0:0,0:0:0:0:
202,87,215581,6,0,L|325:77,1,90,8|0,0:0|0:0,0:0:0:0:
158,144,215867,2,0,L|58:137,1,90,8|0,0:0|0:0,0:0:0:0:
203,202,216153,1,8,0:0:0:0:
235,230,216224,1,0,0:0:0:0:
205,260,216296,1,0,0:0:0:0:
70,299,216438,2,0,L|177:286,1,90,8|0,0:0|0:0,0:0:0:0:
290,264,216724,5,8,0:0:0:0:
259,251,216796,1,0,0:0:0:0:
207,242,216867,1,0,0:0:0:0:
330,204,217010,2,0,L|433:191,1,90,8|0,0:0|0:0,0:0:0:0:
279,75,217296,6,0,L|170:62,1,90,8|0,0:0|0:0,0:0:0:0:
318,109,217581,2,0,L|330:201,1,90,8|0,0:0|0:0,0:0:0:0:
213,222,217867,1,8,0:0:0:0:
195,298,218010,1,0,0:0:0:0:
318,317,218153,6,0,L|202:308,1,90,8|0,0:0|0:0,0:0:0:0:
362,285,218438,2,0,L|464:273,1,90,8|0,0:0|0:0,0:0:0:0:
311,214,218724,1,8,0:0:0:0:
292,121,218867,1,0,0:0:0:0:
172,62,219010,6,0,L|285:75,1,90,8|0,0:0|0:0,0:0:0:0:
384,96,219296,2,0,L|286:105,1,90,8|0,0:0|0:0,0:0:0:0:
169,144,219581,2,0,L|159:252,1,90,8|0,0:0|0:0,0:0:0:0:
293,189,219867,2,0,L|308:298,1,90,8|0,0:0|0:0,0:0:0:0:
172,313,220153,2,0,L|76:305,1,90,8|0,0:0|0:0,0:0:0:0:
140,290,220367,1,0,0:0:0:0:
208,271,220438,2,0,L|217:154,1,90,8|0,0:0|0:0,0:0:0:0:
90,90,220724,6,0,L|207:103,1,90,8|0,0:0|0:0,0:0:0:0:
305,115,221010,2,0,L|175:130,1,90,8|0,0:0|0:0,0:0:0:0:
447,282,221296,2,0,L|454:183,1,90,8|0,0:0|0:0,0:0:0:0:
332,179,221581,2,0,L|437:170,1,90,8|0,0:0|0:0,0:0:0:0:
151,332,221867,5,10,0:0:0:0:
229,294,222010,1,2,0:0:0:0:
142,225,222153,1,10,0:0:0:0:
232,202,222296,1,2,0:0:0:0:
141,113,222438,1,10,0:0:0:0:
54,56,222581,1,2,0:0:0:0:
274,320,222724,5,10,0:0:0:0:
357,283,222867,1,2,0:0:0:0:
274,243,223010,1,10,0:0:0:0:
185,207,223153,1,2,0:0:0:0:
233,187,223224,1,0,0:0:0:0:
388,141,223296,5,10,0:0:0:0:
471,171,223438,1,2,0:0:0:0:
345,190,223581,1,10,0:0:0:0:
259,215,223724,1,2,0:0:0:0:
459,308,223867,5,10,0:0:0:0:
377,285,224010,1,2,0:0:0:0:
242,316,224153,1,10,0:0:0:0:
158,286,224296,1,2,0:0:0:0:
287,258,224438,1,10,0:0:0:0:
367,226,224581,1,2,0:0:0:0:
243,186,224724,1,10,0:0:0:0:
352,213,224867,1,2,0:0:0:0:
389,196,224938,1,0,0:0:0:0:
253,55,225010,5,10,0:0:0:0:
345,97,225153,1,2,0:0:0:0:
252,135,225296,1,10,0:0:0:0:
216,151,225367,1,0,0:0:0:0:
345,322,225438,1,2,0:0:0:0:
445,274,225581,1,10,0:0:0:0:
340,224,225724,1,2,0:0:0:0:
352,69,225867,5,0,0:0:0:0:
258,122,226010,1,0,0:0:0:0:
164,173,226153,1,0,0:0:0:0:
272,204,226296,2,0,L|318:215,1,45
178,316,226438,5,10,0:0:0:0:
122,307,226510,1,2,0:0:0:0:
97,278,226581,1,2,0:0:0:0:
124,239,226653,1,2,0:0:0:0:
266,70,226724,1,10,0:0:0:0:
275,112,226796,1,2,0:0:0:0:
210,124,226867,1,2,0:0:0:0:
201,167,226938,1,2,0:0:0:0:
346,170,227010,5,10,0:0:0:0:
375,204,227081,1,2,0:0:0:0:
351,236,227153,1,2,0:0:0:0:
292,252,227224,1,2,0:0:0:0:
151,325,227296,1,10,0:0:0:0:
91,310,227367,1,2,0:0:0:0:
64,286,227438,1,2,0:0:0:0:
88,246,227510,1,2,0:0:0:0:
229,83,227581,5,10,0:0:0:0:
239,123,227653,1,2,0:0:0:0:
168,140,227724,1,2,0:0:0:0:
157,180,227796,1,2,0:0:0:0:
301,330,227867,1,10,0:0:0:0:
325,298,227938,1,2,0:0:0:0:
300,263,228010,1,2,0:0:0:0:
243,254,228081,1,2,0:0:0:0:
393,60,228153,5,10,0:0:0:0:
406,99,228224,1,2,0:0:0:0:
335,116,228296,1,2,0:0:0:0:
327,157,228367,1,2,0:0:0:0:
186,187,228438,1,10,0:0:0:0:
173,232,228510,1,2,0:0:0:0:
243,254,228581,1,2,0:0:0:0:
252,289,228653,1,2,0:0:0:0:
110,315,228724,5,10,0:0:0:0:
65,219,228867,1,0,0:0:0:0:
106,192,228938,1,0,0:0:0:0:
171,72,229010,1,0,0:0:0:0:
177,113,229081,1,0,0:0:0:0:
111,126,229153,1,8,0:0:0:0:
103,168,229224,1,0,0:0:0:0:
182,308,229296,5,8,0:0:0:0:
244,295,229367,1,0,0:0:0:0:
276,263,229438,1,0,0:0:0:0:
291,226,229510,1,0,0:0:0:0:
222,212,229581,1,8,0:0:0:0:
200,173,229653,1,0,0:0:0:0:
223,137,229724,1,0,0:0:0:0:
286,127,229772,5,0,0:0:0:0:
308,95,229819,1,0,0:0:0:0:
284,62,229867,1,0,0:0:0:0:
246,97,229915,1,0,0:0:0:0:
288,106,229962,1,8,0:0:0:0:
355,129,230057,1,0,0:0:0:0:
300,162,230153,5,8,0:0:0:0:
231,340,230224,2,0,P|160:313|202:196,1,202.500007724762,0|8,0:0|0:0,0:0:0:0:
397,49,230724,2,0,P|390:124|296:224,1,202.500007724762
132,221,231010,5,2,0:0:0:0:
256,192,231153,12,0,233010,0:0:0:0:
407,58,233296,6,0,L|423:170,1,90,8|0,0:0|0:0,0:0:0:0:
314,161,233581,1,0,0:0:0:0:
179,175,233724,1,8,0:0:0:0:
274,330,233867,1,8,0:0:0:0:
296,298,233938,1,0,0:0:0:0:
271,261,234010,1,0,0:0:0:0:
207,251,234081,1,0,0:0:0:0:
134,242,234153,1,8,0:0:0:0:
109,205,234224,1,0,0:0:0:0:
128,164,234296,1,0,0:0:0:0:
194,146,234367,1,0,0:0:0:0:
252,53,234438,5,0,0:0:0:0:
313,69,234510,1,0,0:0:0:0:
246,75,234581,1,2,0:0:0:0:
201,89,234617,1,2,0:0:0:0:
184,115,234653,1,2,0:0:0:0:
201,149,234688,1,2,0:0:0:0:
323,324,234724,6,0,P|401:290|374:151,1,225.000008583069,8|0,0:0|0:0,0:0:0:0:
202,48,235010,2,0,P|135:97|217:166,1,202.500007724762,8|0,0:1|0:0,0:0:0:0:
434,299,235296,2,0,L|319:289,1,90,8|8,0:1|0:1,0:0:0:0:
125,304,235581,6,0,L|261:295,1,107.999996704102,14|0,0:0|0:0,0:0:0:0:
22,124,235867,2,0,L|161:135,1,107.999996704102,8|0,0:3|0:0,0:0:0:0:
351,71,236153,2,0,L|210:86,1,107.999996704102,10|0,0:0|0:0,0:0:0:0:
452,155,236438,1,10,0:3:0:0:
345,197,236581,2,0,L|466:189,1,107.999996704102,2|8,0:0|0:0,0:0:0:0:
337,239,236867,1,0,0:0:0:0:
122,270,237010,2,0,L|5:282,1,107.999996704102,8|0,0:3|0:0,0:0:0:0:
241,317,237296,6,0,L|112:304,1,107.999996704102,10|2,0:0|0:0,0:0:0:0:
354,154,237581,2,0,L|470:166,1,107.999996704102,10|2,0:3|0:0,0:0:0:0:
231,79,237867,2,0,L|96:93,1,107.999996704102,10|0,0:0|0:0,0:0:0:0:
349,291,238153,2,0,L|222:277,1,107.999996704102,10|2,0:3|0:0,0:0:0:0:
463,74,238438,2,0,L|474:213,1,107.999996704102,10|0,0:0|0:0,0:0:0:0:
241,308,238724,2,0,L|108:298,1,107.999996704102,8|0,0:3|0:0,0:0:0:0:
350,88,239010,6,0,L|486:74,1,107.999996704102,10|0,0:0|0:0,0:0:0:0:
225,177,239296,2,0,L|364:193,1,107.999996704102,10|2,0:3|0:0,0:0:0:0:
108,321,239581,2,0,L|90:189,1,107.999996704102,10|0,0:0|0:0,0:0:0:0:
323,73,239867,2,0,L|170:88,1,107.999996704102,10|2,0:3|0:0,0:0:0:0:
442,165,240153,5,10,0:0:0:0:
205,250,240296,1,8,0:0:0:0:
442,337,240438,2,0,L|454:211,1,107.999996704102,10|0,0:3|0:0,0:0:0:0:
225,202,240724,2,0,L|359:186,1,107.999996704102,10|0,0:0|0:0,0:0:0:0:
113,320,241010,2,0,L|-11:310,1,107.999996704102,10|0,0:3|0:0,0:0:0:0:
240,334,241296,6,0,L|365:320,1,107.999996704102,10|0,0:0|0:0,0:0:0:0:
115,89,241581,2,0,L|97:213,1,107.999996704102,8|0,0:3|0:0,0:0:0:0:
321,120,241867,2,0,L|330:262,1,107.999996704102,8|0,0:0|0:0,0:0:0:0:
107,268,242153,2,0,L|228:280,1,107.999996704102,10|0,0:3|0:0,0:0:0:0:
436,89,242438,6,0,L|313:97,1,107.999996704102,10|0,0:0|0:0,0:0:0:0:
103,133,242724,2,0,L|90:266,1,107.999996704102,8|2,0:3|0:0,0:0:0:0:
312,262,243010,2,0,L|189:273,1,107.999996704102,8|2,0:0|0:0,0:0:0:0:
438,173,243296,2,0,L|308:166,1,107.999996704102,10|0,0:3|0:0,0:0:0:0:
102,325,243581,6,0,L|88:178,1,107.999996704102,8|0,0:0|0:0,0:0:0:0:
312,93,243867,2,0,L|455:104,1,107.999996704102,8|0,0:3|0:0,0:0:0:0:
192,162,244153,1,8,0:0:0:0:
302,176,244296,2,0,L|430:187,1,107.999996704102,2|8,0:0|0:3,0:0:0:0:
300,242,244581,1,2,0:0:0:0:
75,104,244724,6,0,L|195:119,1,107.999996704102,8|2,0:0|0:0,0:0:0:0:
409,91,245010,2,0,L|288:112,1,107.999996704102,8|2,0:3|0:0,0:0:0:0:
78,173,245296,1,8,0:0:0:0:
312,294,245438,1,10,0:0:0:0:
81,276,245581,2,0,L|68:151,1,107.999996704102,8|2,0:3|0:0,0:0:0:0:
275,68,245867,6,0,L|283:186,1,107.999996704102,8|2,0:0|0:0,0:0:0:0:
500,257,246153,2,0,L|375:246,1,107.999996704102,8|2,0:3|0:0,0:0:0:0:
165,224,246438,1,8,0:0:0:0:
396,158,246581,1,10,0:0:0:0:
159,285,246724,1,8,0:3:0:0:
103,306,246796,1,8,0:0:0:0:
86,171,246938,1,8,0:0:0:0:
250,63,247010,5,10,0:3:0:0:
164,112,247153,1,0,0:0:0:0:
252,156,247296,1,0,0:0:0:0:
475,160,247438,1,10,0:0:0:0:
381,209,247581,1,0,0:0:0:0:
475,250,247724,1,0,0:0:0:0:
251,329,247867,5,10,0:0:0:0:
166,61,248010,1,0,0:0:0:0:
141,95,248081,1,0,0:0:0:0:
165,133,248153,1,0,0:0:0:0:
221,146,248224,1,0,0:0:0:0:
285,80,248296,1,0,0:0:0:0:
346,91,248367,1,0,0:0:0:0:
371,131,248438,5,0,0:0:0:0:
349,170,248510,1,0,0:0:0:0:
302,190,248581,1,0,0:0:0:0:
253,201,248653,1,0,0:0:0:0:
187,130,248724,1,0,0:0:0:0:
154,147,248760,1,0,0:0:0:0:
137,169,248796,1,0,0:0:0:0:
132,194,248831,1,0,0:0:0:0:
139,218,248867,1,0,0:0:0:0:
159,243,248903,1,0,0:0:0:0:
190,263,248938,1,0,0:0:0:0:
232,278,248974,1,0,0:0:0:0:
392,300,249010,5,2,0:0:0:0:
443,287,249046,1,2,0:0:0:0:
470,266,249081,1,2,0:0:0:0:
482,246,249117,1,2,0:0:0:0:
486,220,249153,1,2,0:0:0:0:
479,191,249188,1,2,0:0:0:0:
453,167,249224,1,2,0:0:0:0:
233,53,249296,6,0,L|120:68,1,107.999996704102,14|0,0:0|0:0,0:0:0:0:
339,131,249581,2,0,L|212:121,1,107.999996704102,10|2,0:3|0:0,0:0:0:0:
449,295,249867,2,0,L|457:172,1,107.999996704102,8|0,0:0|0:0,0:0:0:0:
236,304,250153,2,0,L|376:298,1,107.999996704102,10|0,0:3|0:0,0:0:0:0:
130,286,250438,6,0,L|-4:276,1,107.999996704102,10|0,0:0|0:0,0:0:0:0:
241,92,250724,2,0,L|255:214,1,107.999996704102,8|0,0:3|0:0,0:0:0:0:
481,274,251010,2,0,L|355:265,1,107.999996704102,10|0,0:0|0:0,0:0:0:0:
156,240,251296,2,0,L|3:222,1,107.999996704102,10|0,0:3|0:0,0:0:0:0:
256,68,251581,6,0,L|385:57,1,90,10|0,0:0|0:0,0:0:0:0:
247,158,251867,2,0,L|366:169,1,90,2|0,0:0|0:0,0:0:0:0:
104,314,252153,2,0,L|100:209,1,90,6|0,0:0|0:0,0:0:0:0:
328,255,252438,2,0,L|213:242,1,90,10|0,0:0|0:0,0:0:0:0:
376,209,252724,6,0,L|476:195,1,90,2|0,0:0|0:0,0:0:0:0:
232,308,253010,2,0,L|109:292,1,90,10|2,0:0|0:0,0:0:0:0:
361,65,253296,1,4,0:0:0:0:
423,143,253438,1,2,0:0:0:0:
392,185,253510,1,0,0:0:0:0:
335,210,253581,1,2,0:0:0:0:
388,231,253653,1,0,0:0:0:0:
444,251,253724,1,2,0:0:0:0:
186,317,253867,6,0,L|341:299,1,107.999996704102,14|0,0:0|0:0,0:0:0:0:
74,171,254153,2,0,L|215:192,1,107.999996704102,10|2,0:3|0:0,0:0:0:0:
403,69,254438,2,0,L|415:202,1,107.999996704102,8|0,0:0|0:0,0:0:0:0:
183,302,254724,2,0,L|57:292,1,107.999996704102,10|0,0:3|0:0,0:0:0:0:
297,257,255010,6,0,L|425:242,1,107.999996704102,10|0,0:0|0:0,0:0:0:0:
179,83,255296,2,0,L|170:201,1,107.999996704102,8|0,0:3|0:0,0:0:0:0:
390,243,255581,1,10,0:0:0:0:
169,318,255724,2,0,L|26:309,1,107.999996704102,8|2,0:0|0:0,0:0:0:0:
177,283,256010,1,8,0:0:0:0:
401,61,256153,6,0,L|277:73,1,90,10|0,0:0|0:0,0:0:0:0:
200,104,256438,2,0,L|312:113,1,90,2|0,0:0|0:0,0:0:0:0:
57,274,256724,2,0,L|43:159,1,90,6|0,0:0|0:0,0:0:0:0:
269,306,257010,2,0,L|374:295,1,90,10|0,0:0|0:0,0:0:0:0:
224,258,257296,6,0,L|120:245,1,90,2|0,0:0|0:0,0:0:0:0:
357,93,257581,1,10,0:0:0:0:
447,137,257724,1,8,0:0:0:0:
394,168,257796,1,8,0:0:0:0:
243,49,257867,2,0,P|168:72|165:148,1,135,6|0,0:0|0:0,0:0:0:0:
328,330,258153,2,0,P|391:309|372:187,1,161.999995056153,8|0,0:0|0:0,0:0:0:0:
243,208,258438,6,0,L|112:196,1,107.999996704102,14|0,0:0|0:0,0:0:0:0:
368,80,258724,2,0,L|258:94,1,107.999996704102,10|2,0:3|0:0,0:0:0:0:
484,160,259010,1,8,0:0:0:0:
265,229,259153,1,8,0:0:0:0:
45,162,259296,2,0,L|158:176,1,107.999996704102,10|0,0:3|0:0,0:0:0:0:
363,311,259581,2,0,L|495:295,1,107.999996704102,10|0,0:0|0:0,0:0:0:0:
254,268,259867,6,0,L|244:156,1,107.999996704102,8|0,0:3|0:0,0:0:0:0:
30,101,260153,1,10,0:0:0:0:
246,60,260296,1,8,0:0:0:0:
27,200,260438,2,0,L|134:188,1,107.999996704102,10|0,0:3|0:0,0:0:0:0:
357,279,260724,6,0,L|229:269,1,107.999996704102,10|0,0:0|0:0,0:0:0:0:
474,147,261010,2,0,L|354:137,1,107.999996704102,10|0,0:3|0:0,0:0:0:0:
145,232,261296,1,10,0:0:0:0:
369,306,261438,1,10,0:0:0:0:
138,327,261581,2,0,L|19:317,1,107.999996704102,10|0,0:3|0:0,0:0:0:0:
261,69,261867,6,0,L|353:82,1,90,10|0,0:0|0:0,0:0:0:0:
218,104,262081,2,0,L|188:210,1,90,8|0,0:0|0:0,0:0:0:0:
348,250,262296,2,0,L|469:238,1,90,10|0,0:0|0:0,0:0:0:0:
374,226,262510,1,8,0:0:0:0:
223,318,262581,1,10,0:0:0:0:
319,282,262724,1,8,0:0:0:0:
214,253,262867,1,10,0:0:0:0:
437,67,263010,5,10,0:0:0:0:
421,91,263081,1,0,0:0:0:0:
371,110,263153,1,0,0:0:0:0:
218,110,263224,1,10,0:0:0:0:
183,129,263296,1,0,0:0:0:0:
219,151,263367,1,0,0:0:0:0:
374,173,263438,1,10,0:0:0:0:
417,184,263510,1,0,0:0:0:0:
265,324,263581,5,10,0:0:0:0:
213,315,263653,1,0,0:0:0:0:
194,290,263724,1,0,0:0:0:0:
341,239,263796,1,10,0:0:0:0:
379,224,263867,1,0,0:0:0:0:
340,200,263938,1,0,0:0:0:0:
185,155,264010,1,10,0:0:0:0:
234,138,264081,1,8,0:0:0:0:
388,53,264153,5,10,0:0:0:0:
416,74,264224,1,0,0:0:0:0:
390,93,264296,1,0,0:0:0:0:
238,103,264367,1,10,0:0:0:0:
261,133,264438,1,0,0:0:0:0:
322,155,264510,1,0,0:0:0:0:
176,276,264581,1,10,0:0:0:0:
120,262,264653,1,0,0:0:0:0:
257,262,264724,5,10,0:0:0:0:
263,220,264796,1,0,0:0:0:0:
117,177,264867,1,10,0:0:0:0:
110,133,264938,1,0,0:0:0:0:
270,73,265010,1,10,0:0:0:0:
319,85,265081,1,8,0:0:0:0:
158,153,265153,1,8,0:0:0:0:
112,139,265224,1,8,0:0:0:0:
282,296,265296,5,12,0:0:0:0:
256,192,265438,12,0,267581,0:0:0:0:
