osu file format v14

[General]
AudioFilename: Come to Life.mp3
AudioLeadIn: 1500
PreviewTime: 0
Countdown: 0
SampleSet: Normal
StackLeniency: 0.7
Mode: 3
LetterboxInBreaks: 0
SpecialStyle: 0
WidescreenStoryboard: 0

[Editor]
DistanceSpacing: 1
BeatDivisor: 4
GridSize: 16
TimelineZoom: 1.9

[Metadata]
Title:Come To Life
TitleUnicode:Come To Life
Artist:ARM (IOSYS) feat. Nicole Curry
ArtistUnicode:ARM (IOSYS) feat. Nicole Curry
Creator:DJSuperNOVA
Version:Normal
Source:DanceDanceRevolution A
Tags:arm iosys come to life nicole curry ddr a
BeatmapID:1274229
BeatmapSetID:603291

[Difficulty]
HPDrainRate:7
CircleSize:4
OverallDifficulty:7
ApproachRate:9
SliderMultiplier:1.4
SliderTickRate:1

[Events]
//Background and Video events
0,0,"loadhi.png",0,0
//Break Periods
//Storyboard Layer 0 (Background)
//Storyboard Layer 1 (Fail)
//Storyboard Layer 2 (Pass)
//Storyboard Layer 3 (Foreground)
//Storyboard Sound Samples

[TimingPoints]
-20,333.333,4,1,0,15,1,0

[HitObjects]
192,0,1313,5,0,1:0:0:0:
320,0,1479,1,0,1:0:0:0:
192,0,1646,1,0,1:0:0:0:
64,0,1979,1,0,1:0:0:0:
448,0,1979,1,0,1:0:0:0:
192,0,2313,1,0,1:0:0:0:
192,0,2479,1,0,1:0:0:0:
64,0,2646,1,0,1:0:0:0:
64,0,2979,1,0,1:0:0:0:
320,0,2979,1,0,1:0:0:0:
64,0,3313,1,0,1:0:0:0:
64,0,3646,1,0,1:0:0:0:
320,0,3646,1,0,1:0:0:0:
192,0,3979,1,0,1:0:0:0:
192,0,4313,1,0,1:0:0:0:
320,0,4313,1,0,1:0:0:0:
192,0,4646,1,0,1:0:0:0:
192,0,4979,1,0,1:0:0:0:
320,0,4979,1,0,1:0:0:0:
448,0,5313,1,0,1:0:0:0:
192,0,5646,1,0,1:0:0:0:
448,0,5646,1,0,1:0:0:0:
448,0,5979,1,0,1:0:0:0:
192,0,6313,1,0,1:0:0:0:
448,0,6313,1,0,1:0:0:0:
64,0,6646,128,0,7646:0:0:0:0:
448,0,6646,1,0,1:0:0:0:
320,0,6979,1,0,1:0:0:0:
448,0,7313,1,0,1:0:0:0:
320,0,7479,1,0,1:0:0:0:
192,0,7646,1,0,1:0:0:0:
320,0,7979,1,0,1:0:0:0:
192,0,8313,1,0,1:0:0:0:
448,0,8313,1,0,1:0:0:0:
320,0,8646,1,0,1:0:0:0:
192,0,8979,1,0,1:0:0:0:
448,0,8979,1,0,1:0:0:0:
64,0,9313,1,0,1:0:0:0:
192,0,9646,1,0,1:0:0:0:
448,0,9646,1,0,1:0:0:0:
64,0,9979,1,0,1:0:0:0:
192,0,10313,1,0,1:0:0:0:
448,0,10313,1,0,1:0:0:0:
64,0,10646,128,0,11979:0:0:0:0:
448,0,10646,128,0,11979:0:0:0:0:
192,0,11979,1,0,1:0:0:0:
320,0,11979,1,0,1:0:0:0:
64,0,12313,1,0,1:0:0:0:
192,0,12646,1,0,1:0:0:0:
320,0,12979,1,0,1:0:0:0:
448,0,13146,1,0,1:0:0:0:
320,0,13313,1,0,1:0:0:0:
64,0,13646,1,0,1:0:0:0:
448,0,13646,1,0,1:0:0:0:
192,0,13979,1,0,1:0:0:0:
64,0,14313,1,0,1:0:0:0:
320,0,14313,1,0,1:0:0:0:
448,0,14646,1,0,1:0:0:0:
192,0,14979,1,0,1:0:0:0:
448,0,14979,1,0,1:0:0:0:
64,0,15313,1,0,1:0:0:0:
192,0,15646,1,0,1:0:0:0:
320,0,15646,1,0,1:0:0:0:
64,0,15979,1,0,1:0:0:0:
192,0,16313,1,0,1:0:0:0:
448,0,16313,1,0,1:0:0:0:
320,0,16646,1,0,1:0:0:0:
64,0,16979,1,0,1:0:0:0:
448,0,16979,128,0,18313:0:0:0:0:
192,0,17313,1,0,1:0:0:0:
320,0,17646,1,0,1:0:0:0:
64,0,17979,1,0,1:0:0:0:
192,0,18146,1,0,1:0:0:0:
320,0,18313,1,0,1:0:0:0:
64,0,18646,1,0,1:0:0:0:
448,0,18646,1,0,1:0:0:0:
192,0,19146,1,0,1:0:0:0:
320,0,19313,1,0,1:0:0:0:
64,0,19646,1,0,1:0:0:0:
448,0,19646,1,0,1:0:0:0:
320,0,20146,1,0,1:0:0:0:
192,0,20313,1,0,1:0:0:0:
64,0,20646,1,0,1:0:0:0:
448,0,20646,1,0,1:0:0:0:
64,0,20979,1,0,1:0:0:0:
192,0,21146,1,0,1:0:0:0:
448,0,21313,1,0,1:0:0:0:
192,0,21479,1,0,1:0:0:0:
448,0,21646,1,0,1:0:0:0:
192,0,21813,1,0,1:0:0:0:
320,0,21979,1,0,1:0:0:0:
64,0,22146,1,0,1:0:0:0:
320,0,22313,1,0,1:0:0:0:
64,0,22479,1,0,1:0:0:0:
192,0,22646,1,0,1:0:0:0:
320,0,22646,1,0,1:0:0:0:
64,0,23313,1,0,1:0:0:0:
192,0,23479,1,0,1:0:0:0:
320,0,23646,1,0,1:0:0:0:
448,0,23813,1,0,1:0:0:0:
192,0,23979,1,0,1:0:0:0:
320,0,23979,1,0,1:0:0:0:
192,0,24479,1,0,1:0:0:0:
320,0,24979,1,0,1:0:0:0:
64,0,26646,1,0,1:0:0:0:
64,0,27146,1,0,1:0:0:0:
448,0,27646,1,0,1:0:0:0:
320,0,28646,1,0,1:0:0:0:
64,0,29313,1,0,1:0:0:0:
448,0,29813,1,0,1:0:0:0:
192,0,30313,1,0,1:0:0:0:
448,0,31313,1,0,1:0:0:0:
192,0,31979,1,0,1:0:0:0:
64,0,32479,1,0,1:0:0:0:
192,0,32979,128,0,34313:0:0:0:0:
448,0,32979,128,0,34313:0:0:0:0:
320,0,34313,1,0,1:0:0:0:
320,0,34479,1,0,1:0:0:0:
64,0,34646,128,0,35146:0:0:0:0:
192,0,35146,1,0,1:0:0:0:
192,0,35646,128,0,36979:0:0:0:0:
448,0,35646,128,0,36979:0:0:0:0:
320,0,37313,128,0,37813:0:0:0:0:
448,0,37813,1,0,1:0:0:0:
64,0,38313,128,0,39646:0:0:0:0:
320,0,38313,128,0,39646:0:0:0:0:
64,0,39979,1,0,1:0:0:0:
448,0,39979,1,0,1:0:0:0:
64,0,40313,1,0,1:0:0:0:
448,0,40313,1,0,1:0:0:0:
64,0,40646,1,0,1:0:0:0:
448,0,40646,1,0,1:0:0:0:
64,0,40979,1,0,1:0:0:0:
448,0,40979,1,0,1:0:0:0:
192,0,41313,1,0,1:0:0:0:
448,0,41313,1,0,1:0:0:0:
192,0,41646,1,0,1:0:0:0:
448,0,41646,1,0,1:0:0:0:
192,0,41979,1,0,1:0:0:0:
448,0,41979,1,0,1:0:0:0:
192,0,42313,1,0,1:0:0:0:
448,0,42313,1,0,1:0:0:0:
320,0,42646,1,0,1:0:0:0:
448,0,42646,1,0,1:0:0:0:
192,0,42979,1,0,1:0:0:0:
448,0,42979,1,0,1:0:0:0:
320,0,43313,1,0,1:0:0:0:
448,0,43313,1,0,1:0:0:0:
192,0,43646,1,0,1:0:0:0:
448,0,43646,1,0,1:0:0:0:
64,0,43979,1,0,1:0:0:0:
320,0,43979,1,0,1:0:0:0:
64,0,44313,1,0,1:0:0:0:
192,0,44313,1,0,1:0:0:0:
64,0,44646,1,0,1:0:0:0:
320,0,44646,1,0,1:0:0:0:
64,0,44979,1,0,1:0:0:0:
192,0,44979,1,0,1:0:0:0:
448,0,46313,1,0,1:0:0:0:
320,0,46646,1,0,1:0:0:0:
192,0,46979,1,0,1:0:0:0:
320,0,47313,1,0,1:0:0:0:
192,0,47646,1,0,1:0:0:0:
64,0,47979,1,0,1:0:0:0:
448,0,48146,1,0,1:0:0:0:
64,0,48313,1,0,1:0:0:0:
448,0,48479,1,0,1:0:0:0:
192,0,48646,1,0,1:0:0:0:
320,0,48813,1,0,1:0:0:0:
192,0,48979,1,0,1:0:0:0:
320,0,49146,1,0,1:0:0:0:
64,0,49313,1,0,1:0:0:0:
448,0,49646,1,0,1:0:0:0:
64,0,49979,1,0,1:0:0:0:
448,0,50313,1,0,1:0:0:0:
64,0,50646,1,0,1:0:0:0:
192,0,50813,1,0,1:0:0:0:
64,0,50979,1,0,1:0:0:0:
192,0,51146,1,0,1:0:0:0:
320,0,51313,1,0,1:0:0:0:
448,0,51479,1,0,1:0:0:0:
320,0,51646,1,0,1:0:0:0:
448,0,51813,1,0,1:0:0:0:
192,0,52146,1,0,1:0:0:0:
192,0,52313,1,0,1:0:0:0:
448,0,52646,1,0,1:0:0:0:
192,0,52979,1,0,1:0:0:0:
448,0,53313,1,0,1:0:0:0:
192,0,53479,1,0,1:0:0:0:
320,0,53646,1,0,1:0:0:0:
192,0,53813,1,0,1:0:0:0:
320,0,53979,1,0,1:0:0:0:
64,0,54146,1,0,1:0:0:0:
320,0,54313,1,0,1:0:0:0:
64,0,54646,128,0,54979:0:0:0:0:
448,0,54979,1,0,1:0:0:0:
64,0,55146,128,0,55479:0:0:0:0:
448,0,55479,1,0,1:0:0:0:
192,0,55646,128,0,55979:0:0:0:0:
320,0,55979,128,0,56313:0:0:0:0:
64,0,56313,1,0,1:0:0:0:
448,0,56479,128,0,56813:0:0:0:0:
192,0,56813,1,0,1:0:0:0:
64,0,57146,1,0,1:0:0:0:
448,0,57146,1,0,1:0:0:0:
320,0,57646,1,0,1:0:0:0:
192,0,57979,1,0,1:0:0:0:
320,0,58313,1,0,1:0:0:0:
192,0,58646,1,0,1:0:0:0:
320,0,58813,1,0,1:0:0:0:
64,0,58979,1,0,1:0:0:0:
320,0,59146,1,0,1:0:0:0:
192,0,59313,1,0,1:0:0:0:
320,0,59479,1,0,1:0:0:0:
64,0,59646,1,0,1:0:0:0:
320,0,59813,1,0,1:0:0:0:
448,0,59979,1,0,1:0:0:0:
64,0,60313,1,0,1:0:0:0:
448,0,60646,1,0,1:0:0:0:
64,0,60979,1,0,1:0:0:0:
320,0,61313,1,0,1:0:0:0:
192,0,61479,1,0,1:0:0:0:
320,0,61646,1,0,1:0:0:0:
192,0,61813,1,0,1:0:0:0:
320,0,61979,1,0,1:0:0:0:
192,0,62146,1,0,1:0:0:0:
320,0,62313,1,0,1:0:0:0:
192,0,62479,1,0,1:0:0:0:
64,0,62813,1,0,1:0:0:0:
448,0,62979,1,0,1:0:0:0:
64,0,63313,1,0,1:0:0:0:
320,0,63646,1,0,1:0:0:0:
64,0,63979,128,0,64313:0:0:0:0:
320,0,64313,128,0,64646:0:0:0:0:
192,0,64646,128,0,64979:0:0:0:0:
448,0,64979,1,0,1:0:0:0:
64,0,65146,1,0,1:0:0:0:
448,0,65146,1,0,1:0:0:0:
192,0,65813,1,0,1:0:0:0:
448,0,65813,1,0,1:0:0:0:
320,0,66479,1,0,1:0:0:0:
448,0,66479,1,0,1:0:0:0:
64,0,67146,1,0,1:0:0:0:
320,0,67146,1,0,1:0:0:0:
192,0,67479,1,0,1:0:0:0:
192,0,67979,1,0,1:0:0:0:
448,0,67979,1,0,1:0:0:0:
64,0,68479,1,0,1:0:0:0:
320,0,68479,1,0,1:0:0:0:
192,0,68979,128,0,70646:0:0:0:0:
320,0,68979,128,0,70646:0:0:0:0:
64,0,70646,1,0,1:0:0:0:
64,0,70979,1,0,1:0:0:0:
320,0,70979,1,0,1:0:0:0:
320,0,71313,1,0,1:0:0:0:
320,0,71646,1,0,1:0:0:0:
448,0,71646,1,0,1:0:0:0:
448,0,71979,1,0,1:0:0:0:
192,0,72313,1,0,1:0:0:0:
448,0,72313,1,0,1:0:0:0:
192,0,72646,1,0,1:0:0:0:
192,0,72979,1,0,1:0:0:0:
320,0,72979,1,0,1:0:0:0:
320,0,73313,1,0,1:0:0:0:
64,0,73646,1,0,1:0:0:0:
320,0,73646,1,0,1:0:0:0:
64,0,73979,1,0,1:0:0:0:
64,0,74313,1,0,1:0:0:0:
320,0,74313,1,0,1:0:0:0:
192,0,74646,1,0,1:0:0:0:
192,0,74979,1,0,1:0:0:0:
448,0,74979,1,0,1:0:0:0:
320,0,75313,1,0,1:0:0:0:
320,0,75646,1,0,1:0:0:0:
448,0,75646,1,0,1:0:0:0:
192,0,75979,1,0,1:0:0:0:
64,0,76313,1,0,1:0:0:0:
320,0,76313,1,0,1:0:0:0:
448,0,76646,1,0,1:0:0:0:
64,0,76979,1,0,1:0:0:0:
320,0,76979,1,0,1:0:0:0:
192,0,77313,1,0,1:0:0:0:
64,0,77646,1,0,1:0:0:0:
320,0,77646,1,0,1:0:0:0:
448,0,77979,1,0,1:0:0:0:
64,0,78313,1,0,1:0:0:0:
320,0,78313,1,0,1:0:0:0:
64,0,78646,128,0,79146:0:0:0:0:
192,0,79146,1,0,1:0:0:0:
192,0,79646,128,0,80979:0:0:0:0:
448,0,79646,128,0,80979:0:0:0:0:
320,0,81313,128,0,81813:0:0:0:0:
448,0,81813,1,0,1:0:0:0:
64,0,82313,128,0,83646:0:0:0:0:
320,0,82313,128,0,83646:0:0:0:0:
64,0,83979,1,0,1:0:0:0:
448,0,83979,1,0,1:0:0:0:
64,0,84313,1,0,1:0:0:0:
448,0,84313,1,0,1:0:0:0:
64,0,84646,1,0,1:0:0:0:
448,0,84646,1,0,1:0:0:0:
64,0,84979,1,0,1:0:0:0:
448,0,84979,1,0,1:0:0:0:
192,0,85313,1,0,1:0:0:0:
448,0,85313,1,0,1:0:0:0:
192,0,85646,1,0,1:0:0:0:
448,0,85646,1,0,1:0:0:0:
192,0,85979,1,0,1:0:0:0:
448,0,85979,1,0,1:0:0:0:
192,0,86313,1,0,1:0:0:0:
448,0,86313,1,0,1:0:0:0:
320,0,86646,1,0,1:0:0:0:
448,0,86646,1,0,1:0:0:0:
192,0,86979,1,0,1:0:0:0:
448,0,86979,1,0,1:0:0:0:
320,0,87313,1,0,1:0:0:0:
448,0,87313,1,0,1:0:0:0:
192,0,87646,1,0,1:0:0:0:
448,0,87646,1,0,1:0:0:0:
64,0,87979,1,0,1:0:0:0:
320,0,87979,1,0,1:0:0:0:
64,0,88313,1,0,1:0:0:0:
192,0,88313,1,0,1:0:0:0:
64,0,88646,1,0,1:0:0:0:
320,0,88646,1,0,1:0:0:0:
64,0,88979,1,0,1:0:0:0:
192,0,88979,1,0,1:0:0:0:
64,0,89313,1,0,1:0:0:0:
448,0,89313,1,0,1:0:0:0:
64,0,89646,1,0,1:0:0:0:
64,0,89979,1,0,1:0:0:0:
320,0,89979,1,0,1:0:0:0:
64,0,90229,1,0,1:0:0:0:
64,0,90479,1,0,1:0:0:0:
192,0,90813,1,0,1:0:0:0:
448,0,90813,1,0,1:0:0:0:
192,0,90979,1,0,1:0:0:0:
192,0,91313,1,0,1:0:0:0:
320,0,91313,1,0,1:0:0:0:
192,0,91646,1,0,1:0:0:0:
192,0,91813,1,0,1:0:0:0:
64,0,91979,1,0,1:0:0:0:
320,0,91979,1,0,1:0:0:0:
320,0,92313,1,0,1:0:0:0:
192,0,92646,1,0,1:0:0:0:
320,0,92646,1,0,1:0:0:0:
320,0,92979,1,0,1:0:0:0:
320,0,93229,1,0,1:0:0:0:
320,0,93479,1,0,1:0:0:0:
320,0,93646,1,0,1:0:0:0:
192,0,93979,1,0,1:0:0:0:
448,0,93979,1,0,1:0:0:0:
448,0,94313,1,0,1:0:0:0:
448,0,94479,1,0,1:0:0:0:
64,0,94646,1,0,1:0:0:0:
448,0,94813,1,0,1:0:0:0:
192,0,94979,1,0,1:0:0:0:
320,0,95146,1,0,1:0:0:0:
64,0,95313,1,0,1:0:0:0:
448,0,95479,1,0,1:0:0:0:
192,0,95646,1,0,1:0:0:0:
320,0,95813,1,0,1:0:0:0:
448,0,95979,1,0,1:0:0:0:
64,0,96146,1,0,1:0:0:0:
320,0,96313,1,0,1:0:0:0:
192,0,96479,1,0,1:0:0:0:
448,0,96646,1,0,1:0:0:0:
64,0,96813,1,0,1:0:0:0:
320,0,96979,1,0,1:0:0:0:
192,0,97146,1,0,1:0:0:0:
64,0,97313,1,0,1:0:0:0:
192,0,97563,1,0,1:0:0:0:
320,0,97813,1,0,1:0:0:0:
192,0,97979,1,0,1:0:0:0:
320,0,98229,1,0,1:0:0:0:
448,0,98479,1,0,1:0:0:0:
192,0,98646,128,0,98979:0:0:0:0:
320,0,98646,128,0,98979:0:0:0:0:
64,0,99979,1,0,1:0:0:0:
448,0,99979,1,0,1:0:0:0:
64,0,100479,1,0,1:0:0:0:
448,0,100979,1,0,1:0:0:0:
192,0,102646,1,0,1:0:0:0:
320,0,102646,1,0,1:0:0:0:
320,0,103146,1,0,1:0:0:0:
192,0,103646,1,0,1:0:0:0:
64,0,105313,1,0,1:0:0:0:
320,0,105646,1,0,1:0:0:0:
192,0,105979,1,0,1:0:0:0:
320,0,106313,1,0,1:0:0:0:
64,0,106646,1,0,1:0:0:0:
448,0,106979,1,0,1:0:0:0:
192,0,107313,1,0,1:0:0:0:
448,0,107646,1,0,1:0:0:0:
64,0,107979,1,0,1:0:0:0:
64,0,108229,1,0,1:0:0:0:
320,0,108313,1,0,1:0:0:0:
64,0,108479,1,0,1:0:0:0:
64,0,108729,1,0,1:0:0:0:
448,0,108979,1,0,1:0:0:0:
448,0,109229,1,0,1:0:0:0:
448,0,109479,1,0,1:0:0:0:
192,0,109646,1,0,1:0:0:0:
448,0,109813,1,0,1:0:0:0:
448,0,109979,1,0,1:0:0:0:
192,0,110313,1,0,1:0:0:0:
320,0,110313,1,0,1:0:0:0:
64,0,110646,1,0,1:0:0:0:
448,0,110979,1,0,1:0:0:0:
192,0,111313,1,0,1:0:0:0:
448,0,111646,1,0,1:0:0:0:
64,0,111979,1,0,1:0:0:0:
448,0,112313,1,0,1:0:0:0:
320,0,112646,1,0,1:0:0:0:
448,0,112979,1,0,1:0:0:0:
192,0,113313,1,0,1:0:0:0:
64,0,113646,1,0,1:0:0:0:
320,0,113979,1,0,1:0:0:0:
64,0,114313,1,0,1:0:0:0:
448,0,114646,1,0,1:0:0:0:
64,0,114979,1,0,1:0:0:0:
320,0,115313,1,0,1:0:0:0:
64,0,115646,1,0,1:0:0:0:
192,0,115979,128,0,117146:0:0:0:0:
320,0,117146,128,0,118646:0:0:0:0:
64,0,118646,128,0,121313:0:0:0:0:
448,0,118646,128,0,121313:0:0:0:0:
