osu file format v14

[General]
AudioFilename: Come to Life.mp3
AudioLeadIn: 1500
PreviewTime: 3
Countdown: 0
SampleSet: Normal
StackLeniency: 0.7
Mode: 3
LetterboxInBreaks: 0
SpecialStyle: 0
WidescreenStoryboard: 0

[Editor]
DistanceSpacing: 1
BeatDivisor: 4
GridSize: 16
TimelineZoom: 2.899999

[Metadata]
Title:Come To Life
TitleUnicode:Come To Life
Artist:ARM (IOSYS) feat. Nicole Curry
ArtistUnicode:ARM (IOSYS) feat. Nicole Curry
Creator:DJSuperNOVA
Version:Insane
Source:DanceDanceRevolution A
Tags:arm iosys come to life nicole curry ddr a
BeatmapID:1274230
BeatmapSetID:603291

[Difficulty]
HPDrainRate:9
CircleSize:4
OverallDifficulty:8
ApproachRate:9
SliderMultiplier:1.4
SliderTickRate:1

[Events]
//Background and Video events
0,0,"loadhi.png",0,0
//Break Periods
//Storyboard Layer 0 (Background)
//Storyboard Layer 1 (Fail)
//Storyboard Layer 2 (Pass)
//Storyboard Layer 3 (Foreground)
//Storyboard Sound Samples

[TimingPoints]
-19.7528,333.333,4,1,0,15,1,0
22717,-133.333333333333,4,1,0,15,0,0
33051,-100,4,1,0,15,0,0
45384,-133.333333333333,4,1,0,15,0,0
46717,-100,4,1,0,15,0,0
51884,-200,4,1,0,15,0,0
52051,-66.6666666666667,4,1,0,15,0,0
52217,-100,4,1,0,15,0,0
57217,-200,4,1,0,15,0,0
57717,-100,4,1,0,15,0,0
62551,-200,4,1,0,15,0,0
62717,-66.6666666666667,4,1,0,15,0,0
62884,-100,4,1,0,15,0,0
99384,-133.333333333333,4,1,0,15,0,0
105384,-100,4,1,0,15,0,0
110384,-200,4,1,0,15,0,0
110467,-100,4,1,0,15,0,0
110551,-50,4,1,0,15,0,0
110717,-100,4,1,0,15,0,0
118717,-25,4,1,0,15,0,0
121051,-200,4,1,0,15,0,0

[HitObjects]
192,0,1313,5,0,1:0:0:0:
320,0,1313,1,0,1:0:0:0:
448,0,1480,1,0,1:0:0:0:
64,192,1521,1,0,0:0:0:0:
192,192,1563,1,0,0:0:0:0:
320,192,1605,1,0,0:0:0:0:
64,0,1646,1,0,1:0:0:0:
448,0,1646,1,0,1:0:0:0:
64,0,1813,1,0,1:0:0:0:
448,192,1855,1,0,0:0:0:0:
320,192,1896,1,0,0:0:0:0:
192,192,1938,1,0,0:0:0:0:
64,0,1980,1,0,1:0:0:0:
448,0,1980,128,0,2313:0:0:0:0:
192,0,2313,1,0,1:0:0:0:
320,0,2313,1,0,1:0:0:0:
192,0,2480,1,0,1:0:0:0:
320,0,2480,1,0,1:0:0:0:
64,0,2646,1,0,1:0:0:0:
448,0,2646,1,0,1:0:0:0:
64,0,2813,1,0,1:0:0:0:
192,0,2896,1,0,1:0:0:0:
64,0,2980,1,0,1:0:0:0:
448,0,2980,1,0,1:0:0:0:
64,0,3146,1,0,1:0:0:0:
64,0,3313,1,0,1:0:0:0:
320,0,3313,1,0,1:0:0:0:
192,0,3396,1,0,1:0:0:0:
64,0,3480,1,0,1:0:0:0:
448,0,3646,1,0,1:0:0:0:
64,0,3646,128,0,3980:0:0:0:0:
320,0,3813,1,0,1:0:0:0:
192,0,3980,1,0,1:0:0:0:
448,0,3980,1,0,1:0:0:0:
448,0,4146,1,0,1:0:0:0:
320,0,4230,1,0,1:0:0:0:
64,0,4313,1,0,1:0:0:0:
448,0,4313,1,0,1:0:0:0:
448,0,4480,1,0,1:0:0:0:
192,0,4646,1,0,1:0:0:0:
448,0,4646,1,0,1:0:0:0:
320,0,4730,1,0,1:0:0:0:
448,0,4813,1,0,1:0:0:0:
64,0,4980,1,0,1:0:0:0:
448,0,4980,128,0,5313:0:0:0:0:
192,0,5146,1,0,1:0:0:0:
64,0,5313,1,0,1:0:0:0:
320,0,5313,1,0,1:0:0:0:
192,0,5396,1,0,1:0:0:0:
448,0,5480,1,0,1:0:0:0:
192,0,5563,1,0,1:0:0:0:
64,0,5646,1,0,1:0:0:0:
320,0,5646,1,0,1:0:0:0:
320,0,5813,1,0,1:0:0:0:
192,0,5896,1,0,1:0:0:0:
64,0,5980,1,0,1:0:0:0:
448,0,5980,1,0,1:0:0:0:
192,0,6063,1,0,1:0:0:0:
320,0,6146,1,0,1:0:0:0:
64,0,6313,1,0,1:0:0:0:
320,0,6313,128,0,6646:0:0:0:0:
192,0,6480,1,0,1:0:0:0:
64,0,6646,128,0,7480:0:0:0:0:
448,0,6646,1,0,1:0:0:0:
192,0,6730,1,0,1:0:0:0:
192,0,6896,1,0,1:0:0:0:
320,0,6980,1,0,1:0:0:0:
448,0,6980,1,0,1:0:0:0:
192,0,7063,1,0,1:0:0:0:
320,0,7230,1,0,1:0:0:0:
192,0,7313,1,0,1:0:0:0:
448,0,7313,1,0,1:0:0:0:
448,0,7480,1,0,1:0:0:0:
320,192,7521,1,0,0:0:0:0:
192,192,7563,1,0,0:0:0:0:
64,192,7605,1,0,0:0:0:0:
448,0,7646,1,0,1:0:0:0:
320,192,7646,1,0,0:0:0:0:
192,0,7813,1,0,1:0:0:0:
448,0,7813,1,0,1:0:0:0:
64,0,7980,1,0,1:0:0:0:
320,0,7980,1,0,1:0:0:0:
64,0,8146,1,0,1:0:0:0:
320,0,8230,1,0,1:0:0:0:
64,0,8313,1,0,1:0:0:0:
448,0,8313,1,0,1:0:0:0:
64,0,8480,1,0,1:0:0:0:
64,0,8646,1,0,1:0:0:0:
192,0,8646,1,0,1:0:0:0:
320,0,8730,1,0,1:0:0:0:
64,0,8813,1,0,1:0:0:0:
448,0,8980,1,0,1:0:0:0:
64,0,8980,128,0,9313:0:0:0:0:
320,0,9146,1,0,1:0:0:0:
448,0,9313,1,0,1:0:0:0:
192,0,9480,1,0,1:0:0:0:
448,0,9563,1,0,1:0:0:0:
192,0,9646,1,0,1:0:0:0:
320,0,9646,1,0,1:0:0:0:
192,0,9813,1,0,1:0:0:0:
64,0,9980,1,0,1:0:0:0:
192,0,9980,1,0,1:0:0:0:
448,0,10063,1,0,1:0:0:0:
192,0,10146,1,0,1:0:0:0:
192,0,10313,1,0,1:0:0:0:
448,0,10313,128,0,10646:0:0:0:0:
192,0,10480,1,0,1:0:0:0:
320,0,10480,1,0,1:0:0:0:
192,0,10646,1,0,1:0:0:0:
64,0,10646,128,0,11980:0:0:0:0:
320,0,10730,1,0,1:0:0:0:
320,0,10896,1,0,1:0:0:0:
320,0,11063,1,0,1:0:0:0:
192,0,11230,1,0,1:0:0:0:
320,0,11313,1,0,1:0:0:0:
448,0,11313,1,0,1:0:0:0:
192,0,11396,1,0,1:0:0:0:
192,0,11563,1,0,1:0:0:0:
192,0,11730,1,0,1:0:0:0:
448,0,11896,1,0,1:0:0:0:
192,0,11980,128,0,12313:0:0:0:0:
320,0,11980,128,0,12313:0:0:0:0:
64,0,12313,128,0,12480:0:0:0:0:
448,0,12313,128,0,12813:0:0:0:0:
192,0,12480,128,0,12646:0:0:0:0:
64,0,12646,128,0,12980:0:0:0:0:
320,0,12813,128,0,13146:0:0:0:0:
192,192,12813,1,0,0:0:0:0:
448,0,12980,1,0,1:0:0:0:
192,0,12980,128,0,13313:0:0:0:0:
64,0,13146,1,0,1:0:0:0:
448,0,13146,128,0,13313:0:0:0:0:
64,0,13313,1,0,1:0:0:0:
320,0,13313,1,0,1:0:0:0:
64,0,13480,1,0,1:0:0:0:
320,0,13563,1,0,1:0:0:0:
64,0,13646,1,0,1:0:0:0:
448,0,13646,1,0,1:0:0:0:
64,0,13813,1,0,1:0:0:0:
64,0,13980,1,0,1:0:0:0:
320,0,13980,1,0,1:0:0:0:
192,0,14063,1,0,1:0:0:0:
64,0,14146,1,0,1:0:0:0:
448,0,14313,1,0,1:0:0:0:
64,0,14313,128,0,14646:0:0:0:0:
320,0,14480,1,0,1:0:0:0:
192,0,14646,1,0,1:0:0:0:
448,0,14646,1,0,1:0:0:0:
320,0,14813,1,0,1:0:0:0:
192,0,14896,1,0,1:0:0:0:
64,0,14980,1,0,1:0:0:0:
320,0,14980,1,0,1:0:0:0:
320,0,15146,1,0,1:0:0:0:
320,0,15313,1,0,1:0:0:0:
448,0,15313,1,0,1:0:0:0:
64,0,15396,1,0,1:0:0:0:
320,0,15480,1,0,1:0:0:0:
192,0,15646,1,0,1:0:0:0:
448,0,15646,128,0,15980:0:0:0:0:
320,0,15813,1,0,1:0:0:0:
64,0,15980,1,0,1:0:0:0:
192,0,15980,1,0,1:0:0:0:
320,0,16063,1,0,1:0:0:0:
64,0,16146,1,0,1:0:0:0:
192,0,16230,1,0,1:0:0:0:
64,0,16313,1,0,1:0:0:0:
448,0,16313,1,0,1:0:0:0:
448,0,16480,1,0,1:0:0:0:
192,0,16563,1,0,1:0:0:0:
64,0,16646,1,0,1:0:0:0:
448,0,16646,1,0,1:0:0:0:
320,0,16730,1,0,1:0:0:0:
448,0,16813,1,0,1:0:0:0:
320,0,16980,1,0,1:0:0:0:
448,0,16980,1,0,1:0:0:0:
192,0,16980,128,0,17313:0:0:0:0:
320,0,17146,1,0,1:0:0:0:
64,0,17313,1,0,1:0:0:0:
448,0,17313,128,0,18646:0:0:0:0:
320,0,17396,1,0,1:0:0:0:
320,0,17563,1,0,1:0:0:0:
64,0,17646,1,0,1:0:0:0:
192,0,17646,1,0,1:0:0:0:
320,0,17730,1,0,1:0:0:0:
192,0,17896,1,0,1:0:0:0:
64,0,17980,1,0,1:0:0:0:
320,0,17980,1,0,1:0:0:0:
64,0,18146,1,0,1:0:0:0:
64,0,18313,1,0,1:0:0:0:
320,0,18313,1,0,1:0:0:0:
320,0,18480,1,0,1:0:0:0:
64,0,18646,1,0,1:0:0:0:
320,0,18646,1,0,1:0:0:0:
320,0,18813,1,0,1:0:0:0:
192,0,18896,1,0,1:0:0:0:
448,0,18980,1,0,1:0:0:0:
64,0,19146,1,0,1:0:0:0:
448,0,19146,1,0,1:0:0:0:
64,0,19313,1,0,1:0:0:0:
448,0,19313,1,0,1:0:0:0:
192,0,19396,1,0,1:0:0:0:
320,0,19480,1,0,1:0:0:0:
64,0,19646,1,0,1:0:0:0:
320,0,19646,128,0,19980:0:0:0:0:
192,192,19813,1,0,0:0:0:0:
64,0,19980,1,0,1:0:0:0:
192,0,20146,1,0,1:0:0:0:
448,0,20146,1,0,1:0:0:0:
64,0,20230,1,0,1:0:0:0:
320,0,20313,1,0,1:0:0:0:
448,0,20313,1,0,1:0:0:0:
320,0,20480,1,0,1:0:0:0:
192,0,20646,1,0,1:0:0:0:
448,0,20646,1,0,1:0:0:0:
320,0,20730,1,0,1:0:0:0:
64,0,20813,1,0,1:0:0:0:
192,0,20980,128,0,21146:0:0:0:0:
448,0,20980,1,0,1:0:0:0:
448,0,21146,1,0,1:0:0:0:
64,0,21146,128,0,21313:0:0:0:0:
192,0,21313,1,0,1:0:0:0:
448,0,21313,1,0,1:0:0:0:
320,0,21396,1,0,1:0:0:0:
64,0,21480,1,0,1:0:0:0:
448,0,21480,1,0,1:0:0:0:
192,0,21563,1,0,1:0:0:0:
64,0,21646,1,0,1:0:0:0:
320,0,21646,1,0,1:0:0:0:
192,0,21730,1,0,1:0:0:0:
64,0,21813,1,0,1:0:0:0:
448,0,21813,1,0,1:0:0:0:
320,0,21896,1,0,1:0:0:0:
64,0,21980,1,0,1:0:0:0:
448,0,21980,1,0,1:0:0:0:
192,0,22146,1,0,1:0:0:0:
448,0,22146,1,0,1:0:0:0:
192,0,22313,1,0,1:0:0:0:
320,0,22313,1,0,1:0:0:0:
64,0,22480,1,0,1:0:0:0:
320,0,22480,1,0,1:0:0:0:
64,0,22646,1,0,1:0:0:0:
192,0,22646,1,0,1:0:0:0:
448,0,22646,1,0,1:0:0:0:
64,0,23313,1,0,1:0:0:0:
192,0,23480,1,0,1:0:0:0:
320,0,23646,1,0,1:0:0:0:
448,0,23813,1,0,1:0:0:0:
64,0,23980,1,0,1:0:0:0:
320,0,23980,1,0,1:0:0:0:
448,0,23980,1,0,1:0:0:0:
64,0,24480,1,0,1:0:0:0:
320,0,24480,1,0,1:0:0:0:
192,0,24980,1,0,1:0:0:0:
448,0,24980,1,0,1:0:0:0:
64,0,26646,1,0,1:0:0:0:
320,0,26646,1,0,1:0:0:0:
192,0,27146,1,0,1:0:0:0:
320,0,27146,1,0,1:0:0:0:
192,0,27646,1,0,1:0:0:0:
448,0,27646,1,0,1:0:0:0:
64,0,28313,1,0,1:0:0:0:
192,0,28646,1,0,1:0:0:0:
448,0,28646,1,0,1:0:0:0:
320,0,28980,1,0,1:0:0:0:
192,0,29313,1,0,1:0:0:0:
320,0,29313,1,0,1:0:0:0:
320,0,29646,1,0,1:0:0:0:
64,0,29813,1,0,1:0:0:0:
320,0,29980,1,0,1:0:0:0:
448,0,29980,1,0,1:0:0:0:
64,0,30313,1,0,1:0:0:0:
320,0,30313,1,0,1:0:0:0:
320,0,30646,1,0,1:0:0:0:
448,0,30813,1,0,1:0:0:0:
64,0,30980,1,0,1:0:0:0:
320,0,30980,1,0,1:0:0:0:
64,0,31313,1,0,1:0:0:0:
448,0,31313,1,0,1:0:0:0:
320,0,31646,1,0,1:0:0:0:
320,0,31813,1,0,1:0:0:0:
64,0,31980,1,0,1:0:0:0:
448,0,31980,1,0,1:0:0:0:
192,0,32313,1,0,1:0:0:0:
448,0,32313,1,0,1:0:0:0:
64,0,32480,1,0,1:0:0:0:
192,0,32646,1,0,1:0:0:0:
448,0,32646,1,0,1:0:0:0:
320,0,32813,1,0,1:0:0:0:
320,0,32980,1,0,1:0:0:0:
448,0,32980,1,0,1:0:0:0:
64,0,32980,128,0,33980:0:0:0:0:
192,0,33063,1,0,1:0:0:0:
320,0,33146,1,0,1:0:0:0:
448,0,33230,1,0,1:0:0:0:
320,0,33313,1,0,1:0:0:0:
192,0,33396,1,0,1:0:0:0:
448,0,33480,1,0,1:0:0:0:
320,0,33563,1,0,1:0:0:0:
448,0,33646,1,0,1:0:0:0:
192,0,33730,1,0,1:0:0:0:
320,0,33813,1,0,1:0:0:0:
448,0,33896,1,0,1:0:0:0:
192,0,33980,1,0,1:0:0:0:
320,0,33980,1,0,1:0:0:0:
448,0,34146,1,0,1:0:0:0:
64,192,34188,1,0,0:0:0:0:
192,192,34230,1,0,0:0:0:0:
320,192,34271,1,0,0:0:0:0:
64,0,34313,1,0,1:0:0:0:
448,0,34313,1,0,1:0:0:0:
64,0,34480,1,0,1:0:0:0:
448,0,34480,1,0,1:0:0:0:
192,0,34646,128,0,34980:0:0:0:0:
448,0,34646,1,0,1:0:0:0:
64,0,34980,1,0,1:0:0:0:
320,0,34980,1,0,1:0:0:0:
448,0,35146,1,0,1:0:0:0:
64,0,35313,1,0,1:0:0:0:
192,0,35313,1,0,1:0:0:0:
64,0,35646,1,0,1:0:0:0:
320,0,35646,1,0,1:0:0:0:
448,0,35646,128,0,37313:0:0:0:0:
192,0,35980,1,0,1:0:0:0:
192,0,36313,1,0,1:0:0:0:
320,0,36313,1,0,1:0:0:0:
320,0,36646,1,0,1:0:0:0:
64,0,36980,1,0,1:0:0:0:
192,0,36980,1,0,1:0:0:0:
64,0,37313,128,0,37646:0:0:0:0:
320,0,37313,1,0,1:0:0:0:
192,0,37646,1,0,1:0:0:0:
320,0,37646,1,0,1:0:0:0:
448,0,37813,1,0,1:0:0:0:
64,0,37980,1,0,1:0:0:0:
320,0,37980,1,0,1:0:0:0:
64,0,38313,1,0,1:0:0:0:
448,0,38313,1,0,1:0:0:0:
192,0,38313,128,0,39980:0:0:0:0:
448,0,38646,1,0,1:0:0:0:
64,0,38980,1,0,1:0:0:0:
320,0,38980,1,0,1:0:0:0:
64,0,39146,1,0,1:0:0:0:
64,0,39313,1,0,1:0:0:0:
64,0,39563,1,0,1:0:0:0:
320,0,39646,1,0,1:0:0:0:
448,0,39646,1,0,1:0:0:0:
64,0,39813,1,0,1:0:0:0:
64,0,39980,1,0,1:0:0:0:
448,0,39980,1,0,1:0:0:0:
192,0,40063,1,0,1:0:0:0:
320,0,40146,1,0,1:0:0:0:
64,0,40230,1,0,1:0:0:0:
192,0,40313,1,0,1:0:0:0:
448,0,40313,1,0,1:0:0:0:
320,0,40396,1,0,1:0:0:0:
192,0,40480,1,0,1:0:0:0:
64,0,40563,1,0,1:0:0:0:
320,0,40646,1,0,1:0:0:0:
448,0,40646,1,0,1:0:0:0:
192,0,40730,1,0,1:0:0:0:
320,0,40813,1,0,1:0:0:0:
64,0,40896,1,0,1:0:0:0:
192,0,40980,1,0,1:0:0:0:
448,0,40980,1,0,1:0:0:0:
320,0,41063,1,0,1:0:0:0:
192,0,41146,1,0,1:0:0:0:
320,0,41230,1,0,1:0:0:0:
64,0,41313,1,0,1:0:0:0:
448,0,41313,1,0,1:0:0:0:
192,0,41396,1,0,1:0:0:0:
320,0,41480,1,0,1:0:0:0:
448,0,41563,1,0,1:0:0:0:
64,0,41646,1,0,1:0:0:0:
320,0,41646,1,0,1:0:0:0:
192,0,41730,1,0,1:0:0:0:
448,0,41813,1,0,1:0:0:0:
320,0,41896,1,0,1:0:0:0:
64,0,41980,1,0,1:0:0:0:
192,0,41980,1,0,1:0:0:0:
448,0,42063,1,0,1:0:0:0:
192,0,42146,1,0,1:0:0:0:
448,0,42230,1,0,1:0:0:0:
64,0,42313,1,0,1:0:0:0:
320,0,42313,1,0,1:0:0:0:
448,0,42396,1,0,1:0:0:0:
192,0,42480,1,0,1:0:0:0:
320,0,42563,1,0,1:0:0:0:
64,0,42646,1,0,1:0:0:0:
448,0,42646,1,0,1:0:0:0:
192,0,42730,1,0,1:0:0:0:
320,0,42813,1,0,1:0:0:0:
192,0,42896,1,0,1:0:0:0:
64,0,42980,1,0,1:0:0:0:
448,0,42980,1,0,1:0:0:0:
320,0,43063,1,0,1:0:0:0:
192,0,43146,1,0,1:0:0:0:
320,0,43230,1,0,1:0:0:0:
192,0,43313,1,0,1:0:0:0:
448,0,43313,1,0,1:0:0:0:
320,0,43396,1,0,1:0:0:0:
64,0,43480,1,0,1:0:0:0:
320,0,43563,1,0,1:0:0:0:
64,0,43646,1,0,1:0:0:0:
448,0,43646,1,0,1:0:0:0:
192,0,43730,1,0,1:0:0:0:
320,0,43813,1,0,1:0:0:0:
64,0,43896,1,0,1:0:0:0:
192,0,43980,1,0,1:0:0:0:
448,0,43980,1,0,1:0:0:0:
320,0,44063,1,0,1:0:0:0:
192,0,44146,1,0,1:0:0:0:
64,0,44230,1,0,1:0:0:0:
192,0,44313,1,0,1:0:0:0:
448,0,44313,1,0,1:0:0:0:
320,0,44396,1,0,1:0:0:0:
192,0,44480,1,0,1:0:0:0:
64,0,44563,1,0,1:0:0:0:
192,0,44646,1,0,1:0:0:0:
320,0,44646,1,0,1:0:0:0:
448,0,44730,1,0,1:0:0:0:
64,0,44813,1,0,1:0:0:0:
320,0,44896,1,0,1:0:0:0:
192,0,44980,1,0,1:0:0:0:
448,0,44980,1,0,1:0:0:0:
320,0,45063,1,0,1:0:0:0:
192,0,45146,1,0,1:0:0:0:
64,0,45230,1,0,1:0:0:0:
64,0,46313,1,0,1:0:0:0:
448,0,46313,1,0,1:0:0:0:
64,0,46646,1,0,1:0:0:0:
192,0,46646,1,0,1:0:0:0:
448,0,46646,1,0,1:0:0:0:
192,0,46980,1,0,1:0:0:0:
320,0,46980,1,0,1:0:0:0:
448,0,46980,1,0,1:0:0:0:
64,0,47313,1,0,1:0:0:0:
320,0,47313,1,0,1:0:0:0:
448,0,47313,1,0,1:0:0:0:
64,0,47563,1,0,1:0:0:0:
320,0,47563,1,0,1:0:0:0:
448,0,47563,1,0,1:0:0:0:
192,0,47646,1,0,1:0:0:0:
64,0,47813,1,0,1:0:0:0:
320,0,47813,1,0,1:0:0:0:
192,0,47980,1,0,1:0:0:0:
448,0,47980,1,0,1:0:0:0:
192,0,48146,1,0,1:0:0:0:
320,0,48146,1,0,1:0:0:0:
192,0,48313,1,0,1:0:0:0:
448,0,48313,1,0,1:0:0:0:
64,0,48480,1,0,1:0:0:0:
320,0,48480,1,0,1:0:0:0:
320,0,48646,1,0,1:0:0:0:
448,0,48646,1,0,1:0:0:0:
64,0,48813,1,0,1:0:0:0:
192,0,48813,1,0,1:0:0:0:
192,0,48980,1,0,1:0:0:0:
448,0,48980,1,0,1:0:0:0:
192,0,49146,1,0,1:0:0:0:
320,0,49146,1,0,1:0:0:0:
64,0,49313,1,0,1:0:0:0:
192,0,49313,1,0,1:0:0:0:
320,0,49313,1,0,1:0:0:0:
192,0,49646,1,0,1:0:0:0:
320,0,49646,1,0,1:0:0:0:
448,0,49646,1,0,1:0:0:0:
64,0,49980,1,0,1:0:0:0:
192,0,49980,1,0,1:0:0:0:
448,0,49980,1,0,1:0:0:0:
64,0,50230,1,0,1:0:0:0:
320,0,50230,1,0,1:0:0:0:
448,0,50230,1,0,1:0:0:0:
192,0,50313,1,0,1:0:0:0:
64,0,50480,1,0,1:0:0:0:
320,0,50480,1,0,1:0:0:0:
192,0,50646,1,0,1:0:0:0:
448,0,50646,1,0,1:0:0:0:
64,0,50813,1,0,1:0:0:0:
192,0,50813,1,0,1:0:0:0:
64,0,50980,1,0,1:0:0:0:
320,0,50980,1,0,1:0:0:0:
192,0,51146,1,0,1:0:0:0:
320,0,51146,1,0,1:0:0:0:
64,0,51313,1,0,1:0:0:0:
448,0,51313,1,0,1:0:0:0:
192,0,51480,1,0,1:0:0:0:
448,0,51480,1,0,1:0:0:0:
64,0,51646,1,0,1:0:0:0:
320,0,51646,1,0,1:0:0:0:
192,0,51813,1,0,1:0:0:0:
448,0,51813,1,0,1:0:0:0:
64,0,52146,1,0,1:0:0:0:
192,0,52146,1,0,1:0:0:0:
320,0,52146,1,0,1:0:0:0:
192,0,52313,1,0,1:0:0:0:
320,0,52313,1,0,1:0:0:0:
448,0,52313,1,0,1:0:0:0:
64,0,52646,1,0,1:0:0:0:
192,0,52646,1,0,1:0:0:0:
448,0,52646,1,0,1:0:0:0:
64,0,52896,1,0,1:0:0:0:
320,0,52896,1,0,1:0:0:0:
448,0,52896,1,0,1:0:0:0:
192,0,52980,1,0,1:0:0:0:
64,0,53146,1,0,1:0:0:0:
320,0,53146,1,0,1:0:0:0:
192,0,53313,1,0,1:0:0:0:
320,0,53313,1,0,1:0:0:0:
64,0,53480,1,0,1:0:0:0:
448,0,53480,1,0,1:0:0:0:
192,0,53646,1,0,1:0:0:0:
448,0,53646,1,0,1:0:0:0:
64,0,53813,1,0,1:0:0:0:
448,0,53813,1,0,1:0:0:0:
320,0,53980,1,0,1:0:0:0:
448,0,53980,1,0,1:0:0:0:
64,0,54146,1,0,1:0:0:0:
448,0,54146,1,0,1:0:0:0:
448,0,54313,1,0,1:0:0:0:
192,0,54313,128,0,54646:0:0:0:0:
64,0,54646,1,0,1:0:0:0:
448,0,54646,1,0,1:0:0:0:
192,0,54730,1,0,1:0:0:0:
64,0,54813,1,0,1:0:0:0:
192,0,54980,1,0,1:0:0:0:
448,0,54980,1,0,1:0:0:0:
320,0,55146,1,0,1:0:0:0:
448,0,55230,1,0,1:0:0:0:
64,0,55313,1,0,1:0:0:0:
320,0,55396,1,0,1:0:0:0:
64,0,55480,1,0,1:0:0:0:
192,0,55480,1,0,1:0:0:0:
192,0,55646,1,0,1:0:0:0:
448,0,55730,1,0,1:0:0:0:
64,0,55813,1,0,1:0:0:0:
320,0,55896,1,0,1:0:0:0:
64,0,55980,1,0,1:0:0:0:
192,0,56063,1,0,1:0:0:0:
320,0,56146,1,0,1:0:0:0:
192,0,56313,1,0,1:0:0:0:
448,0,56313,1,0,1:0:0:0:
448,0,56480,1,0,1:0:0:0:
320,0,56563,1,0,1:0:0:0:
64,0,56646,1,0,1:0:0:0:
192,0,56730,1,0,1:0:0:0:
64,0,56813,1,0,1:0:0:0:
448,0,56813,1,0,1:0:0:0:
320,0,56980,1,0,1:0:0:0:
192,0,57146,1,0,1:0:0:0:
64,0,57146,128,0,57646:0:0:0:0:
448,0,57146,128,0,57646:0:0:0:0:
192,0,57646,1,0,1:0:0:0:
320,0,57646,1,0,1:0:0:0:
64,0,57980,1,0,1:0:0:0:
320,0,57980,1,0,1:0:0:0:
448,0,57980,1,0,1:0:0:0:
64,0,58230,1,0,1:0:0:0:
192,0,58230,1,0,1:0:0:0:
320,0,58230,1,0,1:0:0:0:
448,0,58313,1,0,1:0:0:0:
64,0,58480,1,0,1:0:0:0:
320,0,58480,1,0,1:0:0:0:
192,0,58646,1,0,1:0:0:0:
448,0,58646,1,0,1:0:0:0:
192,0,58813,1,0,1:0:0:0:
320,0,58813,1,0,1:0:0:0:
320,0,58980,1,0,1:0:0:0:
448,0,58980,1,0,1:0:0:0:
64,0,59146,1,0,1:0:0:0:
320,0,59146,1,0,1:0:0:0:
192,0,59313,1,0,1:0:0:0:
448,0,59313,1,0,1:0:0:0:
64,0,59480,1,0,1:0:0:0:
192,0,59480,1,0,1:0:0:0:
192,0,59646,1,0,1:0:0:0:
448,0,59646,1,0,1:0:0:0:
192,0,59813,1,0,1:0:0:0:
320,0,59813,1,0,1:0:0:0:
64,0,59980,1,0,1:0:0:0:
320,0,59980,1,0,1:0:0:0:
64,0,60313,1,0,1:0:0:0:
192,0,60313,1,0,1:0:0:0:
448,0,60313,1,0,1:0:0:0:
64,0,60646,1,0,1:0:0:0:
320,0,60646,1,0,1:0:0:0:
448,0,60646,1,0,1:0:0:0:
192,0,60896,1,0,1:0:0:0:
320,0,60896,1,0,1:0:0:0:
448,0,60896,1,0,1:0:0:0:
64,0,60980,1,0,1:0:0:0:
192,0,61146,1,0,1:0:0:0:
320,0,61146,1,0,1:0:0:0:
64,0,61313,1,0,1:0:0:0:
192,0,61313,1,0,1:0:0:0:
320,0,61396,1,0,1:0:0:0:
448,0,61396,1,0,1:0:0:0:
64,0,61480,1,0,1:0:0:0:
192,0,61480,1,0,1:0:0:0:
320,0,61563,1,0,1:0:0:0:
448,0,61563,1,0,1:0:0:0:
64,0,61646,1,0,1:0:0:0:
192,0,61646,1,0,1:0:0:0:
320,0,61730,1,0,1:0:0:0:
448,0,61730,1,0,1:0:0:0:
64,0,61813,1,0,1:0:0:0:
192,0,61813,1,0,1:0:0:0:
320,0,61896,1,0,1:0:0:0:
448,0,61896,1,0,1:0:0:0:
192,192,61980,1,0,0:0:0:0:
64,192,61980,1,0,0:0:0:0:
192,192,62146,1,0,0:0:0:0:
448,192,62146,1,0,0:0:0:0:
320,192,62313,1,0,0:0:0:0:
64,192,62313,1,0,0:0:0:0:
192,0,62480,1,0,1:0:0:0:
448,0,62480,1,0,1:0:0:0:
64,0,62813,1,0,1:0:0:0:
192,0,62813,1,0,1:0:0:0:
448,0,62813,1,0,1:0:0:0:
64,0,62980,1,0,1:0:0:0:
192,0,62980,1,0,1:0:0:0:
448,0,62980,1,0,1:0:0:0:
64,0,63313,1,0,1:0:0:0:
320,0,63313,1,0,1:0:0:0:
448,0,63313,1,0,1:0:0:0:
64,0,63563,1,0,1:0:0:0:
192,0,63563,1,0,1:0:0:0:
320,0,63563,1,0,1:0:0:0:
448,0,63646,1,0,1:0:0:0:
64,0,63813,1,0,1:0:0:0:
320,0,63813,1,0,1:0:0:0:
448,0,63813,1,0,1:0:0:0:
64,0,63980,1,0,1:0:0:0:
320,192,63980,1,0,0:0:0:0:
320,192,64091,1,0,0:0:0:0:
64,192,64091,1,0,0:0:0:0:
64,192,64202,1,0,0:0:0:0:
320,192,64202,1,0,0:0:0:0:
192,192,64313,1,0,0:0:0:0:
320,192,64313,1,0,0:0:0:0:
192,192,64424,1,0,0:0:0:0:
320,192,64424,1,0,0:0:0:0:
192,192,64535,1,0,0:0:0:0:
320,192,64535,1,0,0:0:0:0:
448,192,64646,1,0,0:0:0:0:
192,192,64646,1,0,0:0:0:0:
448,192,64757,1,0,0:0:0:0:
192,192,64757,1,0,0:0:0:0:
448,192,64869,1,0,0:0:0:0:
192,192,64869,1,0,0:0:0:0:
64,192,64980,1,0,0:0:0:0:
320,192,64980,1,0,0:0:0:0:
192,0,65146,1,0,1:0:0:0:
448,0,65146,128,0,65480:0:0:0:0:
64,0,65480,1,0,1:0:0:0:
192,0,65480,1,0,1:0:0:0:
320,0,65646,1,0,1:0:0:0:
448,0,65646,1,0,1:0:0:0:
64,0,65813,128,0,66146:0:0:0:0:
320,0,65813,1,0,1:0:0:0:
320,0,66146,1,0,1:0:0:0:
448,0,66146,1,0,1:0:0:0:
64,0,66313,1,0,1:0:0:0:
192,0,66313,1,0,1:0:0:0:
448,0,66480,1,0,1:0:0:0:
320,0,66480,128,0,66813:0:0:0:0:
64,0,66813,1,0,1:0:0:0:
448,0,66813,1,0,1:0:0:0:
320,0,66896,1,0,1:0:0:0:
192,0,66980,1,0,1:0:0:0:
448,0,66980,1,0,1:0:0:0:
64,0,67063,1,0,1:0:0:0:
192,0,67146,1,0,1:0:0:0:
320,0,67146,1,0,1:0:0:0:
64,0,67230,1,0,1:0:0:0:
192,0,67313,1,0,1:0:0:0:
448,0,67313,1,0,1:0:0:0:
64,0,67480,1,0,1:0:0:0:
320,0,67646,1,0,1:0:0:0:
448,0,67646,1,0,1:0:0:0:
64,0,67813,1,0,1:0:0:0:
192,0,67980,1,0,1:0:0:0:
320,0,67980,1,0,1:0:0:0:
64,0,68480,1,0,1:0:0:0:
192,0,68480,1,0,1:0:0:0:
320,0,68980,128,0,69980:0:0:0:0:
448,0,68980,128,0,70646:0:0:0:0:
64,0,69980,128,0,70313:0:0:0:0:
320,0,70313,1,0,1:0:0:0:
192,0,70396,1,0,1:0:0:0:
64,0,70480,1,0,1:0:0:0:
192,0,70563,1,0,1:0:0:0:
64,0,70646,1,0,1:0:0:0:
320,0,70646,1,0,1:0:0:0:
192,0,70813,1,0,1:0:0:0:
64,0,70980,1,0,1:0:0:0:
320,0,70980,1,0,1:0:0:0:
448,0,70980,1,0,1:0:0:0:
192,0,71063,1,0,1:0:0:0:
64,0,71146,1,0,1:0:0:0:
64,0,71313,1,0,1:0:0:0:
448,0,71313,1,0,1:0:0:0:
320,0,71480,1,0,1:0:0:0:
64,0,71646,1,0,1:0:0:0:
192,0,71646,1,0,1:0:0:0:
448,0,71646,1,0,1:0:0:0:
320,0,71730,1,0,1:0:0:0:
64,0,71813,1,0,1:0:0:0:
192,0,71980,1,0,1:0:0:0:
448,0,71980,1,0,1:0:0:0:
320,0,72146,1,0,1:0:0:0:
64,0,72313,1,0,1:0:0:0:
192,0,72313,1,0,1:0:0:0:
448,0,72313,1,0,1:0:0:0:
320,0,72396,1,0,1:0:0:0:
64,0,72480,1,0,1:0:0:0:
192,0,72646,1,0,1:0:0:0:
448,0,72646,1,0,1:0:0:0:
320,0,72813,1,0,1:0:0:0:
64,0,72980,1,0,1:0:0:0:
192,0,72980,1,0,1:0:0:0:
448,0,72980,1,0,1:0:0:0:
320,0,73063,1,0,1:0:0:0:
192,0,73146,1,0,1:0:0:0:
64,0,73313,1,0,1:0:0:0:
448,0,73313,1,0,1:0:0:0:
320,0,73480,1,0,1:0:0:0:
64,0,73646,1,0,1:0:0:0:
192,0,73646,1,0,1:0:0:0:
448,0,73646,1,0,1:0:0:0:
320,0,73730,1,0,1:0:0:0:
448,0,73813,1,0,1:0:0:0:
64,0,73980,1,0,1:0:0:0:
320,0,73980,1,0,1:0:0:0:
192,0,74146,1,0,1:0:0:0:
64,0,74313,1,0,1:0:0:0:
320,0,74313,1,0,1:0:0:0:
448,0,74313,1,0,1:0:0:0:
192,0,74396,1,0,1:0:0:0:
64,0,74480,1,0,1:0:0:0:
192,0,74646,1,0,1:0:0:0:
320,0,74646,1,0,1:0:0:0:
448,0,74813,1,0,1:0:0:0:
64,0,74980,1,0,1:0:0:0:
192,0,74980,1,0,1:0:0:0:
320,0,74980,1,0,1:0:0:0:
448,0,75063,1,0,1:0:0:0:
192,0,75146,1,0,1:0:0:0:
64,0,75313,1,0,1:0:0:0:
448,0,75313,1,0,1:0:0:0:
320,0,75480,1,0,1:0:0:0:
64,0,75646,1,0,1:0:0:0:
192,0,75646,1,0,1:0:0:0:
448,0,75646,1,0,1:0:0:0:
320,0,75730,1,0,1:0:0:0:
64,0,75813,1,0,1:0:0:0:
192,0,75980,1,0,1:0:0:0:
448,0,75980,1,0,1:0:0:0:
64,0,76146,1,0,1:0:0:0:
192,0,76313,1,0,1:0:0:0:
320,0,76313,1,0,1:0:0:0:
448,0,76313,1,0,1:0:0:0:
64,0,76396,1,0,1:0:0:0:
320,0,76480,1,0,1:0:0:0:
192,0,76646,1,0,1:0:0:0:
448,0,76646,1,0,1:0:0:0:
320,0,76813,1,0,1:0:0:0:
64,0,76980,1,0,1:0:0:0:
192,0,76980,1,0,1:0:0:0:
448,0,76980,1,0,1:0:0:0:
320,0,77063,1,0,1:0:0:0:
192,0,77146,1,0,1:0:0:0:
64,0,77313,1,0,1:0:0:0:
320,0,77313,1,0,1:0:0:0:
448,0,77480,1,0,1:0:0:0:
64,0,77646,1,0,1:0:0:0:
192,0,77646,1,0,1:0:0:0:
448,0,77646,1,0,1:0:0:0:
320,0,77730,1,0,1:0:0:0:
448,0,77813,1,0,1:0:0:0:
192,0,77980,1,0,1:0:0:0:
320,0,77980,1,0,1:0:0:0:
448,192,78146,1,0,0:0:0:0:
64,192,78188,1,0,0:0:0:0:
192,192,78230,1,0,0:0:0:0:
320,192,78271,1,0,0:0:0:0:
64,0,78313,1,0,1:0:0:0:
448,192,78313,1,0,0:0:0:0:
64,0,78480,1,0,1:0:0:0:
448,0,78480,1,0,1:0:0:0:
192,0,78646,128,0,78980:0:0:0:0:
448,0,78646,1,0,1:0:0:0:
64,0,78980,1,0,1:0:0:0:
320,0,78980,1,0,1:0:0:0:
448,0,79146,1,0,1:0:0:0:
64,0,79313,1,0,1:0:0:0:
192,0,79313,1,0,1:0:0:0:
64,0,79646,1,0,1:0:0:0:
320,0,79646,1,0,1:0:0:0:
448,0,79646,128,0,81313:0:0:0:0:
192,0,79813,1,0,1:0:0:0:
320,0,79980,1,0,1:0:0:0:
64,0,80146,1,0,1:0:0:0:
192,0,80313,1,0,1:0:0:0:
320,0,80313,1,0,1:0:0:0:
64,0,80480,1,0,1:0:0:0:
320,0,80646,1,0,1:0:0:0:
192,0,80813,1,0,1:0:0:0:
64,0,80980,1,0,1:0:0:0:
320,0,80980,1,0,1:0:0:0:
192,0,81146,1,0,1:0:0:0:
64,0,81313,128,0,81646:0:0:0:0:
320,0,81313,1,0,1:0:0:0:
192,0,81646,1,0,1:0:0:0:
320,0,81646,1,0,1:0:0:0:
448,0,81813,1,0,1:0:0:0:
64,0,81980,1,0,1:0:0:0:
320,0,81980,1,0,1:0:0:0:
64,0,82313,1,0,1:0:0:0:
448,0,82313,1,0,1:0:0:0:
192,0,82313,128,0,83980:0:0:0:0:
320,0,82480,1,0,1:0:0:0:
448,0,82646,1,0,1:0:0:0:
320,0,82813,1,0,1:0:0:0:
64,0,82980,1,0,1:0:0:0:
448,0,82980,1,0,1:0:0:0:
320,0,83146,1,0,1:0:0:0:
64,0,83313,1,0,1:0:0:0:
320,0,83480,1,0,1:0:0:0:
64,0,83563,1,0,1:0:0:0:
320,0,83646,1,0,1:0:0:0:
448,0,83646,1,0,1:0:0:0:
64,0,83813,1,0,1:0:0:0:
64,0,83980,1,0,1:0:0:0:
448,0,83980,1,0,1:0:0:0:
320,0,84146,1,0,1:0:0:0:
64,0,84313,1,0,1:0:0:0:
448,0,84313,1,0,1:0:0:0:
320,0,84480,1,0,1:0:0:0:
192,0,84646,1,0,1:0:0:0:
448,0,84646,1,0,1:0:0:0:
320,0,84813,1,0,1:0:0:0:
64,0,84896,1,0,1:0:0:0:
192,0,84896,1,0,1:0:0:0:
320,0,84980,1,0,1:0:0:0:
448,0,84980,1,0,1:0:0:0:
64,0,85146,1,0,1:0:0:0:
320,0,85146,1,0,1:0:0:0:
64,0,85313,1,0,1:0:0:0:
448,0,85313,1,0,1:0:0:0:
320,0,85480,1,0,1:0:0:0:
64,0,85646,1,0,1:0:0:0:
192,0,85646,1,0,1:0:0:0:
448,0,85813,1,0,1:0:0:0:
192,0,85980,1,0,1:0:0:0:
320,0,85980,1,0,1:0:0:0:
64,0,86146,1,0,1:0:0:0:
192,0,86230,1,0,1:0:0:0:
448,0,86230,1,0,1:0:0:0:
64,0,86313,1,0,1:0:0:0:
320,0,86313,1,0,1:0:0:0:
192,0,86480,1,0,1:0:0:0:
320,0,86480,1,0,1:0:0:0:
64,0,86646,1,0,1:0:0:0:
448,0,86646,1,0,1:0:0:0:
64,0,86813,1,0,1:0:0:0:
192,0,86896,1,0,1:0:0:0:
320,0,86896,1,0,1:0:0:0:
64,0,86980,1,0,1:0:0:0:
448,0,86980,1,0,1:0:0:0:
192,0,87146,1,0,1:0:0:0:
320,0,87146,1,0,1:0:0:0:
192,0,87313,1,0,1:0:0:0:
448,0,87313,1,0,1:0:0:0:
448,0,87480,1,0,1:0:0:0:
192,0,87563,1,0,1:0:0:0:
320,0,87563,1,0,1:0:0:0:
64,0,87646,1,0,1:0:0:0:
448,0,87646,1,0,1:0:0:0:
320,0,87813,1,0,1:0:0:0:
64,0,87980,1,0,1:0:0:0:
448,0,87980,1,0,1:0:0:0:
192,0,88146,1,0,1:0:0:0:
64,0,88230,1,0,1:0:0:0:
320,0,88230,1,0,1:0:0:0:
192,0,88313,1,0,1:0:0:0:
448,0,88313,1,0,1:0:0:0:
192,0,88480,1,0,1:0:0:0:
320,0,88480,1,0,1:0:0:0:
64,0,88646,1,0,1:0:0:0:
320,0,88646,1,0,1:0:0:0:
320,0,88813,1,0,1:0:0:0:
192,0,88896,1,0,1:0:0:0:
448,0,88896,1,0,1:0:0:0:
64,0,88980,1,0,1:0:0:0:
320,0,88980,1,0,1:0:0:0:
192,0,89146,1,0,1:0:0:0:
320,0,89146,1,0,1:0:0:0:
64,0,89313,1,0,1:0:0:0:
448,0,89313,1,0,1:0:0:0:
320,0,89396,1,0,1:0:0:0:
64,0,89480,1,0,1:0:0:0:
320,0,89563,1,0,1:0:0:0:
64,0,89646,1,0,1:0:0:0:
192,0,89646,1,0,1:0:0:0:
448,0,89730,1,0,1:0:0:0:
192,0,89813,1,0,1:0:0:0:
448,0,89896,1,0,1:0:0:0:
64,0,89980,1,0,1:0:0:0:
320,0,89980,1,0,1:0:0:0:
448,0,90063,1,0,1:0:0:0:
192,0,90146,1,0,1:0:0:0:
320,0,90230,1,0,1:0:0:0:
448,0,90230,1,0,1:0:0:0:
192,0,90313,1,0,1:0:0:0:
320,0,90396,1,0,1:0:0:0:
64,0,90480,1,0,1:0:0:0:
192,0,90480,1,0,1:0:0:0:
448,0,90563,1,0,1:0:0:0:
192,0,90646,1,0,1:0:0:0:
320,0,90730,1,0,1:0:0:0:
192,0,90813,1,0,1:0:0:0:
448,0,90813,1,0,1:0:0:0:
64,0,90896,1,0,1:0:0:0:
192,0,90980,1,0,1:0:0:0:
320,0,90980,1,0,1:0:0:0:
64,0,91063,1,0,1:0:0:0:
448,0,91146,1,0,1:0:0:0:
320,0,91230,1,0,1:0:0:0:
64,0,91313,1,0,1:0:0:0:
448,0,91313,1,0,1:0:0:0:
192,0,91396,1,0,1:0:0:0:
320,0,91480,1,0,1:0:0:0:
192,0,91563,1,0,1:0:0:0:
320,0,91646,1,0,1:0:0:0:
448,0,91646,1,0,1:0:0:0:
64,0,91730,1,0,1:0:0:0:
192,0,91813,1,0,1:0:0:0:
320,0,91813,1,0,1:0:0:0:
448,0,91896,1,0,1:0:0:0:
64,0,91980,1,0,1:0:0:0:
192,0,91980,1,0,1:0:0:0:
448,0,92063,1,0,1:0:0:0:
320,0,92146,1,0,1:0:0:0:
192,0,92230,1,0,1:0:0:0:
320,0,92313,1,0,1:0:0:0:
448,0,92313,1,0,1:0:0:0:
64,0,92396,1,0,1:0:0:0:
192,0,92480,1,0,1:0:0:0:
320,0,92563,1,0,1:0:0:0:
192,0,92646,1,0,1:0:0:0:
448,0,92646,1,0,1:0:0:0:
64,0,92730,1,0,1:0:0:0:
320,0,92813,1,0,1:0:0:0:
192,0,92896,1,0,1:0:0:0:
448,0,92896,1,0,1:0:0:0:
64,0,92980,1,0,1:0:0:0:
320,0,93063,1,0,1:0:0:0:
192,0,93146,1,0,1:0:0:0:
448,0,93146,1,0,1:0:0:0:
64,0,93230,1,0,1:0:0:0:
192,0,93313,1,0,1:0:0:0:
448,0,93396,1,0,1:0:0:0:
64,0,93480,1,0,1:0:0:0:
192,0,93480,1,0,1:0:0:0:
320,0,93563,1,0,1:0:0:0:
192,0,93646,1,0,1:0:0:0:
448,0,93646,1,0,1:0:0:0:
64,0,93730,1,0,1:0:0:0:
448,0,93813,1,0,1:0:0:0:
192,0,93896,1,0,1:0:0:0:
320,0,93980,1,0,1:0:0:0:
448,0,93980,1,0,1:0:0:0:
64,0,94063,1,0,1:0:0:0:
320,0,94146,1,0,1:0:0:0:
192,0,94230,1,0,1:0:0:0:
320,0,94313,1,0,1:0:0:0:
448,0,94313,1,0,1:0:0:0:
64,0,94396,1,0,1:0:0:0:
320,0,94480,1,0,1:0:0:0:
448,0,94480,1,0,1:0:0:0:
192,0,94563,1,0,1:0:0:0:
64,0,94646,1,0,1:0:0:0:
320,0,94646,1,0,1:0:0:0:
448,0,94730,1,0,1:0:0:0:
192,0,94813,1,0,1:0:0:0:
320,0,94813,1,0,1:0:0:0:
64,0,94896,1,0,1:0:0:0:
192,0,94980,1,0,1:0:0:0:
448,0,94980,1,0,1:0:0:0:
320,0,95063,1,0,1:0:0:0:
64,0,95146,1,0,1:0:0:0:
448,0,95146,1,0,1:0:0:0:
192,0,95230,1,0,1:0:0:0:
64,0,95313,1,0,1:0:0:0:
320,0,95313,1,0,1:0:0:0:
448,0,95396,1,0,1:0:0:0:
192,0,95480,1,0,1:0:0:0:
320,0,95480,1,0,1:0:0:0:
448,0,95563,1,0,1:0:0:0:
64,0,95646,1,0,1:0:0:0:
320,0,95646,1,0,1:0:0:0:
448,0,95730,1,0,1:0:0:0:
192,0,95813,1,0,1:0:0:0:
320,0,95813,1,0,1:0:0:0:
448,0,95896,1,0,1:0:0:0:
64,0,95980,1,0,1:0:0:0:
320,0,95980,1,0,1:0:0:0:
192,0,96063,1,0,1:0:0:0:
64,0,96146,1,0,1:0:0:0:
448,0,96146,1,0,1:0:0:0:
320,0,96230,1,0,1:0:0:0:
64,0,96313,1,0,1:0:0:0:
448,0,96313,1,0,1:0:0:0:
192,0,96396,1,0,1:0:0:0:
320,0,96480,1,0,1:0:0:0:
448,0,96480,1,0,1:0:0:0:
64,0,96563,1,0,1:0:0:0:
320,0,96646,1,0,1:0:0:0:
448,0,96646,1,0,1:0:0:0:
64,0,96730,1,0,1:0:0:0:
192,0,96730,1,0,1:0:0:0:
320,0,96813,1,0,1:0:0:0:
448,0,96813,1,0,1:0:0:0:
64,0,96896,1,0,1:0:0:0:
192,0,96896,1,0,1:0:0:0:
320,0,96980,1,0,1:0:0:0:
448,0,96980,1,0,1:0:0:0:
64,0,97063,1,0,1:0:0:0:
192,0,97063,1,0,1:0:0:0:
320,0,97146,1,0,1:0:0:0:
448,0,97146,1,0,1:0:0:0:
64,0,97230,1,0,1:0:0:0:
192,0,97230,1,0,1:0:0:0:
320,0,97313,128,0,97563:0:0:0:0:
64,0,97563,1,0,1:0:0:0:
64,0,97730,1,0,1:0:0:0:
64,0,97813,1,0,1:0:0:0:
192,0,97980,128,0,98230:0:0:0:0:
320,0,98230,1,0,1:0:0:0:
320,0,98396,1,0,1:0:0:0:
320,0,98480,1,0,1:0:0:0:
320,0,98646,128,0,98980:0:0:0:0:
448,0,98980,1,0,1:0:0:0:
320,192,99035,1,0,0:0:0:0:
192,192,99091,1,0,0:0:0:0:
64,0,99146,128,0,99980:0:0:0:0:
320,0,99313,128,0,99980:0:0:0:0:
192,0,99980,1,0,1:0:0:0:
448,0,99980,1,0,1:0:0:0:
64,0,100480,1,0,1:0:0:0:
192,0,100480,1,0,1:0:0:0:
192,0,100980,1,0,1:0:0:0:
320,0,100980,1,0,1:0:0:0:
64,0,101480,1,0,1:0:0:0:
320,0,101646,1,0,1:0:0:0:
192,0,101813,1,0,1:0:0:0:
448,0,101980,1,0,1:0:0:0:
192,0,102146,1,0,1:0:0:0:
448,0,102313,1,0,1:0:0:0:
192,0,102480,1,0,1:0:0:0:
64,0,102646,1,0,1:0:0:0:
320,0,102646,1,0,1:0:0:0:
320,0,103146,1,0,1:0:0:0:
448,0,103146,1,0,1:0:0:0:
64,0,103646,1,0,1:0:0:0:
320,0,103646,1,0,1:0:0:0:
448,0,103980,1,0,1:0:0:0:
192,0,104063,1,0,1:0:0:0:
192,0,104230,1,0,1:0:0:0:
192,0,104396,1,0,1:0:0:0:
192,0,104563,1,0,1:0:0:0:
320,0,104646,128,0,104980:0:0:0:0:
64,0,104980,1,0,1:0:0:0:
448,0,104980,1,0,1:0:0:0:
64,0,105313,1,0,1:0:0:0:
448,0,105313,1,0,1:0:0:0:
192,0,105396,1,0,1:0:0:0:
64,0,105480,1,0,1:0:0:0:
64,0,105646,1,0,1:0:0:0:
320,0,105646,1,0,1:0:0:0:
448,0,105646,1,0,1:0:0:0:
320,0,105813,1,0,1:0:0:0:
192,0,105980,1,0,1:0:0:0:
448,0,105980,1,0,1:0:0:0:
320,0,106063,1,0,1:0:0:0:
448,0,106146,1,0,1:0:0:0:
64,0,106313,1,0,1:0:0:0:
192,0,106313,1,0,1:0:0:0:
320,0,106313,1,0,1:0:0:0:
448,0,106480,1,0,1:0:0:0:
64,0,106646,1,0,1:0:0:0:
320,0,106646,1,0,1:0:0:0:
448,0,106730,1,0,1:0:0:0:
192,0,106813,1,0,1:0:0:0:
64,0,106980,1,0,1:0:0:0:
320,0,106980,1,0,1:0:0:0:
448,0,106980,1,0,1:0:0:0:
192,0,107146,1,0,1:0:0:0:
64,0,107313,1,0,1:0:0:0:
448,0,107313,1,0,1:0:0:0:
192,0,107396,1,0,1:0:0:0:
320,0,107480,1,0,1:0:0:0:
64,0,107646,1,0,1:0:0:0:
192,0,107646,1,0,1:0:0:0:
448,0,107646,1,0,1:0:0:0:
192,0,107813,1,0,1:0:0:0:
64,0,107980,1,0,1:0:0:0:
320,0,107980,1,0,1:0:0:0:
448,0,107980,1,0,1:0:0:0:
192,0,108230,1,0,1:0:0:0:
64,0,108313,1,0,1:0:0:0:
448,0,108313,1,0,1:0:0:0:
192,0,108480,1,0,1:0:0:0:
320,0,108480,1,0,1:0:0:0:
448,0,108646,1,0,1:0:0:0:
64,0,108730,1,0,1:0:0:0:
320,0,108730,1,0,1:0:0:0:
448,0,108813,1,0,1:0:0:0:
320,0,108896,1,0,1:0:0:0:
192,0,108980,1,0,1:0:0:0:
448,0,108980,1,0,1:0:0:0:
320,0,109063,1,0,1:0:0:0:
448,0,109146,1,0,1:0:0:0:
64,0,109230,1,0,1:0:0:0:
192,0,109230,1,0,1:0:0:0:
448,0,109313,1,0,1:0:0:0:
192,0,109396,1,0,1:0:0:0:
64,0,109480,1,0,1:0:0:0:
448,0,109480,1,0,1:0:0:0:
64,0,109646,1,0,1:0:0:0:
320,0,109646,1,0,1:0:0:0:
192,0,109730,1,0,1:0:0:0:
64,0,109813,1,0,1:0:0:0:
448,0,109813,1,0,1:0:0:0:
192,0,109896,1,0,1:0:0:0:
320,0,109980,1,0,1:0:0:0:
448,0,109980,1,0,1:0:0:0:
64,0,110063,1,0,1:0:0:0:
192,0,110146,1,0,1:0:0:0:
320,0,110146,1,0,1:0:0:0:
64,0,110230,1,0,1:0:0:0:
192,0,110313,1,0,1:0:0:0:
448,0,110313,1,0,1:0:0:0:
192,0,110646,1,0,1:0:0:0:
320,0,110646,1,0,1:0:0:0:
64,0,110730,1,0,1:0:0:0:
320,0,110813,1,0,1:0:0:0:
192,0,110980,1,0,1:0:0:0:
320,0,110980,1,0,1:0:0:0:
448,0,110980,1,0,1:0:0:0:
448,0,111146,1,0,1:0:0:0:
64,0,111313,1,0,1:0:0:0:
192,0,111313,1,0,1:0:0:0:
448,0,111396,1,0,1:0:0:0:
192,0,111480,1,0,1:0:0:0:
64,0,111646,1,0,1:0:0:0:
320,0,111646,1,0,1:0:0:0:
448,0,111646,1,0,1:0:0:0:
192,0,111813,1,0,1:0:0:0:
320,0,111980,1,0,1:0:0:0:
448,0,111980,1,0,1:0:0:0:
192,0,112063,1,0,1:0:0:0:
64,0,112146,1,0,1:0:0:0:
192,0,112313,1,0,1:0:0:0:
320,0,112313,1,0,1:0:0:0:
448,0,112313,1,0,1:0:0:0:
64,0,112480,1,0,1:0:0:0:
192,0,112646,1,0,1:0:0:0:
320,0,112646,1,0,1:0:0:0:
64,0,112730,1,0,1:0:0:0:
448,0,112813,1,0,1:0:0:0:
64,0,112980,1,0,1:0:0:0:
192,0,112980,1,0,1:0:0:0:
320,0,112980,1,0,1:0:0:0:
192,0,113146,1,0,1:0:0:0:
64,0,113313,1,0,1:0:0:0:
448,0,113313,1,0,1:0:0:0:
320,0,113396,1,0,1:0:0:0:
192,0,113480,1,0,1:0:0:0:
64,0,113646,1,0,1:0:0:0:
192,0,113646,1,0,1:0:0:0:
448,0,113646,1,0,1:0:0:0:
192,0,113813,1,0,1:0:0:0:
320,0,113980,1,0,1:0:0:0:
448,0,113980,1,0,1:0:0:0:
192,0,114063,1,0,1:0:0:0:
448,0,114146,1,0,1:0:0:0:
64,0,114313,1,0,1:0:0:0:
192,0,114313,1,0,1:0:0:0:
448,0,114313,1,0,1:0:0:0:
320,0,114480,1,0,1:0:0:0:
64,0,114646,1,0,1:0:0:0:
320,0,114646,1,0,1:0:0:0:
448,0,114730,1,0,1:0:0:0:
192,0,114813,1,0,1:0:0:0:
64,0,114980,1,0,1:0:0:0:
320,0,114980,1,0,1:0:0:0:
448,0,114980,1,0,1:0:0:0:
192,0,115146,1,0,1:0:0:0:
64,0,115313,1,0,1:0:0:0:
448,0,115313,1,0,1:0:0:0:
320,0,115396,1,0,1:0:0:0:
192,0,115480,1,0,1:0:0:0:
64,0,115563,1,0,1:0:0:0:
192,0,115646,1,0,1:0:0:0:
320,0,115646,1,0,1:0:0:0:
448,0,115646,1,0,1:0:0:0:
64,0,115730,1,0,1:0:0:0:
448,0,115813,1,0,1:0:0:0:
192,0,115896,1,0,1:0:0:0:
320,0,115980,128,0,117146:0:0:0:0:
64,0,115980,128,0,118646:0:0:0:0:
448,0,117146,128,0,118646:0:0:0:0:
192,0,118646,128,0,121313:0:0:0:0:
320,0,118646,128,0,121313:0:0:0:0:
