osu file format v14

[General]
AudioFilename: audio.mp3
AudioLeadIn: 0
PreviewTime: 72921
Countdown: 0
SampleSet: Soft
StackLeniency: 0.7
Mode: 2
LetterboxInBreaks: 0
WidescreenStoryboard: 1

[Editor]
DistanceSpacing: 1
BeatDivisor: 4
GridSize: 4
TimelineZoom: 2.2

[Metadata]
Title:Hanayagu Mugen no Shoujo-tachi
TitleUnicode:華やぐ夢幻の少女たち
Artist:ARM (IOSYS)
ArtistUnicode:ARM (IOSYS)
Creator:[_-Kukkai-_]
Version:Rain
Source:東方キャノンボール
Tags:rew0825 hakurei reimu kirisame marisa Touhou Cannonball opening 東方Project 東方vocal cloverworks 鬼頭明里 飯沼南実 Kitou Akari iinuma minami ZUN てっぺい先生 Teppei Okada 紅維流星 Akai Ryusei ジュクチョー Zyukucho 秀三 Shuzo tomoya コンプ Comp kaztora 東京アクティブ Tokyo Active NEETs ジュクチョー COOL & CREATE 石鹸屋 sekkenya TUMENECO 豚乙女 BUTAOTOME 森羅万象 Shinra-bansho Gen Okamura WAVE RIDER しばやん Shibayan Records 山内真治 Shinji Yamauchi Aniplex video game mobile japanese
BeatmapID:2300978
BeatmapSetID:1101310

[Difficulty]
HPDrainRate:6
CircleSize:4
OverallDifficulty:9
ApproachRate:9
SliderMultiplier:2
SliderTickRate:2

[Events]
//Background and Video events
0,0,"Touhou.Cannonball.full.2685465.jpg",0,0
Video,120,"videoplayback.mp4"
//Break Periods
//Storyboard Layer 0 (Background)
//Storyboard Layer 1 (Fail)
//Storyboard Layer 2 (Pass)
//Storyboard Layer 3 (Foreground)
//Storyboard Layer 4 (Overlay)
//Storyboard Sound Samples

[TimingPoints]
1348,342.857142857143,4,2,1,40,1,0
1348,-117.647058823529,4,2,1,40,0,0
6833,-117.647058823529,4,2,1,50,0,0
9576,-83.3333333333333,4,2,1,60,0,0
12319,471.512770137525,4,2,1,60,1,0
12554,461.538461538462,4,2,1,60,1,0
12669,533.333333333333,4,2,1,60,1,0
12935,533.333333333333,4,2,1,60,1,0
13201,659.340659340659,4,2,1,60,1,0
13365,571.428571428571,4,2,1,60,1,0
13650,857.142857142857,4,2,1,60,1,0
13864,960,4,2,1,60,1,0
14104,694.042799305957,4,2,1,60,1,0
16880,342.857142857143,4,2,1,60,1,0
17222,342.857142857143,4,2,1,60,1,0
17222,-83.3333333333333,4,2,1,60,0,0
28193,-117.647058823529,4,2,1,50,0,0
36250,-111.111111111111,4,2,1,50,0,0
39164,-105.263157894737,4,2,1,50,0,0
50136,342.857142857143,3,2,1,40,1,0
50136,-125,4,2,1,35,0,0
62478,342.857142857143,4,2,1,40,1,0
62478,-117.647058823529,4,2,1,40,0,0
63849,-111.111111111111,4,2,1,45,0,0
65220,-100,4,2,1,50,0,0
66593,-90.9090909090909,4,2,1,55,0,0
67963,-83.3333333333333,4,2,1,60,0,0
70707,-100,4,2,1,60,0,0
73449,-80,4,2,1,60,0,1
82706,-80,4,2,1,60,0,0
84420,-80,4,2,1,60,0,1
98135,-100,4,2,1,40,0,0
100193,-100,4,2,1,60,0,0

[Colours]
Combo1 : 116,155,245
Combo2 : 111,189,44
Combo3 : 248,50,50
Combo4 : 220,173,14

[HitObjects]
226,346,1176,5,2,0:2:0:0:
284,345,1262,1,2,0:2:0:0:
334,346,1348,2,0,P|450:269|336:149,1,340.000006484985,2|0,0:2|0:2,0:0:0:0:
217,147,2290,2,0,L|377:147,1,127.50000243187,0|0,0:2|0:2,0:0:0:0:
168,356,2719,6,0,L|360:356,2,170.000003242493,2|0|0,0:2|0:2|0:2,0:0:0:0:
40,348,3662,2,0,L|40:208,1,127.50000243187,0|0,0:2|0:2,0:0:0:0:
272,356,4090,6,0,P|340:332|260:216,1,255.000004863739,2|0,0:2|0:2,0:0:0:0:
164,224,4776,2,0,L|164:124,1,85.0000016212464,0|0,0:2|0:2,0:0:0:0:
249,139,5119,2,0,L|153:139,1,85.0000016212464,0|0,0:2|0:2,0:0:0:0:
340,236,5462,6,0,P|388:208|320:132,1,170.000003242493,2|0,0:2|0:2,0:0:0:0:
252,128,5976,1,0,0:2:0:0:
164,128,6148,2,0,P|76:112|24:32,1,170.000003242493,0|0,0:2|0:2,0:0:0:0:
120,48,6662,1,0,0:2:0:0:
352,364,6833,6,0,P|428:344|340:168,1,340.000006484985,2|0,0:2|0:2,0:0:0:0:
228,172,7776,2,0,L|100:172,1,127.50000243187,0|0,0:2|0:2,0:0:0:0:
272,168,8205,6,0,L|464:96,2,170.000003242493,2|0|0,0:2|0:2|0:2,0:0:0:0:
140,164,9148,2,0,L|140:16,1,127.50000243187,0|0,0:2|0:2,0:0:0:0:
412,354,9576,5,4,1:1:0:0:
458,318,9662,1,0,1:0:0:0:
476,261,9748,1,0,1:0:0:0:
457,205,9833,1,0,1:0:0:0:
410,170,9919,1,8,1:0:0:0:
178,327,10090,5,4,1:1:0:0:
217,281,10176,1,0,1:0:0:0:
256,236,10262,1,0,1:0:0:0:
296,191,10348,1,0,1:0:0:0:
335,146,10433,1,8,1:0:0:0:
101,321,10605,5,4,1:1:0:0:
55,284,10690,1,0,1:0:0:0:
40,227,10776,1,0,1:0:0:0:
62,172,10862,1,0,1:0:0:0:
112,141,10948,1,8,1:0:0:0:
376,180,11119,5,4,1:1:0:0:
432,166,11205,1,0,1:0:0:0:
456,113,11290,1,0,1:0:0:0:
430,62,11376,1,0,1:0:0:0:
373,50,11462,1,8,1:0:0:0:
224,56,11633,1,0,1:0:0:0:
472,312,11805,5,8,1:0:0:0:
363,312,11976,1,0,1:0:0:0:
472,312,12148,1,8,1:0:0:0:
192,244,12319,5,2,1:3:0:0:
120,244,12436,1,0,1:0:0:0:
192,244,12554,1,2,1:3:0:0:
322,243,12669,1,2,1:3:0:0:
394,243,12802,1,0,1:0:0:0:
322,243,12935,1,2,1:3:0:0:
180,144,13068,1,2,1:3:0:0:
280,44,13201,1,2,1:3:0:0:
180,44,13365,1,2,1:3:0:0:
412,224,13507,5,2,1:3:0:0:
312,223,13650,1,2,1:3:0:0:
457,161,13864,1,2,1:3:0:0:
153,153,14104,1,4,1:1:0:0:
256,192,14277,12,0,16880,0:0:0:0:
88,280,17051,6,0,L|152:280,1,50,0|0,0:0|0:0,0:0:0:0:
328,312,17222,5,4,1:1:0:0:
384,296,17307,1,0,1:0:0:0:
420,249,17393,1,0,1:0:0:0:
418,190,17479,1,0,1:0:0:0:
381,144,17564,1,0,1:0:0:0:
324,131,17650,1,0,1:0:0:0:
180,132,17736,2,0,L|72:56,1,119.999996337891,0|0,1:0|1:0,0:0:0:0:
241,130,18079,2,0,L|241:294,1,119.999996337891,0|0,1:0|1:0,0:0:0:0:
120,252,18422,1,0,1:0:0:0:
360,344,18593,5,4,1:1:0:0:
320,298,18679,1,0,1:0:0:0:
281,252,18764,1,0,1:0:0:0:
242,207,18850,1,0,1:0:0:0:
203,161,18936,1,0,1:0:0:0:
164,116,19022,1,0,1:0:0:0:
312,344,19107,2,0,L|420:276,1,119.999996337891,0|0,1:0|1:0,0:0:0:0:
261,292,19450,2,0,L|261:168,1,119.999996337891,0|0,1:0|1:0,0:0:0:0:
362,67,19793,1,0,1:0:0:0:
128,360,19964,5,4,1:1:0:0:
74,335,20050,1,0,1:0:0:0:
55,280,20136,1,0,1:0:0:0:
81,228,20222,1,0,1:0:0:0:
137,210,20307,1,0,1:0:0:0:
296,212,20479,1,0,1:0:0:0:
56,192,20650,2,0,L|56:48,1,119.999996337891,0|0,1:0|1:0,0:0:0:0:
228,56,20993,2,0,L|104:116,1,119.999996337891,0|0,1:0|1:0,0:0:0:0:
364,356,21336,6,0,P|396:296|304:240,1,179.999994506836,4|8,1:1|1:0,0:0:0:0:
276,236,21679,1,8,1:0:0:0:
48,236,21850,1,4,1:1:0:0:
164,240,22022,2,0,L|220:184,1,59.9999981689454,0|0,1:0|1:0,0:0:0:0:
164,240,22193,1,0,1:0:0:0:
108,222,22279,1,0,1:0:0:0:
85,169,22364,1,0,1:0:0:0:
111,117,22450,1,0,1:0:0:0:
167,102,22536,1,0,1:0:0:0:
396,104,22707,6,0,L|540:16,1,119.999996337891,4|0,1:1|1:0,0:0:0:0:
448,73,22964,1,8,1:0:0:0:
396,104,23050,1,8,1:0:0:0:
208,316,23222,2,0,L|96:252,2,119.999996337891,4|0|8,1:1|1:0|1:0,0:0:0:0:
384,312,23736,2,0,L|384:184,1,119.999996337891,8|0,1:2|1:0,0:0:0:0:
152,164,24079,6,0,L|292:116,1,119.999996337891,4|8,1:1|1:0,0:0:0:0:
320,108,24336,1,8,1:0:0:0:
372,88,24422,1,8,1:0:0:0:
132,324,24593,2,0,P|60:284|148:188,1,239.999992675781,4|0,1:1|1:0,0:0:0:0:
229,257,25107,2,0,L|119:173,1,119.999996337891,0|0,1:0|1:0,0:0:0:0:
384,176,25450,6,0,L|248:132,2,119.999996337891,12|0|0,1:1|1:0|1:0,0:0:0:0:
220,180,25964,2,0,L|220:44,1,119.999996337891,12|0,1:1|1:0,0:0:0:0:
276,64,26222,1,0,1:0:0:0:
332,64,26307,1,0,1:0:0:0:
96,312,26479,6,0,L|216:236,2,119.999996337891,12|0|0,1:1|1:0|1:0,0:0:0:0:
336,316,26993,2,0,L|448:248,2,119.999996337891,12|0|0,1:1|1:0|1:0,0:0:0:0:
164,316,27507,2,0,L|152:200,1,59.9999981689454,12|0,1:1|1:0,0:0:0:0:
312,328,27764,1,0,1:0:0:0:
368,316,27850,1,0,1:0:0:0:
416,285,27936,1,0,1:0:0:0:
413,228,28022,1,0,1:0:0:0:
361,202,28107,1,0,1:0:0:0:
144,312,28193,6,0,L|144:192,1,85.0000016212464,4|0,0:1|0:0,0:0:0:0:
232,228,28536,2,0,L|332:228,1,85.0000016212464,8|0,0:2|0:0,0:0:0:0:
160,160,28879,2,0,P|112:120|184:44,1,170.000003242493,8|8,0:2|0:2,0:0:0:0:
244,40,29393,1,0,0:0:0:0:
416,348,29564,6,0,L|416:240,1,85.0000016212464,8|0,0:2|0:0,0:0:0:0:
331,266,29907,2,0,L|427:262,1,85.0000016212464,8|0,0:2|0:0,0:0:0:0:
260,212,30250,2,0,P|204:172|280:100,1,170.000003242493,8|8,0:2|0:0,0:0:0:0:
332,96,30764,1,0,0:0:0:0:
164,356,30936,6,0,L|164:240,1,85.0000016212464,8|0,0:0|0:0,0:0:0:0:
256,272,31279,2,0,L|256:160,1,85.0000016212464,8|0,0:0|0:0,0:0:0:0:
101,189,31622,2,0,L|277:129,1,170.000003242493,8|8,0:0|0:0,0:0:0:0:
341,110,32136,1,0,0:0:0:0:
185,349,32307,6,0,L|289:349,1,85.0000016212464,8|0,0:0|0:0,0:0:0:0:
185,349,32650,2,0,L|119:271,1,85.0000016212464,8|0,0:0|0:0,0:0:0:0:
292,356,32993,2,0,P|310:290|248:186,1,170.000003242493,2|0,0:0|0:0,0:0:0:0:
196,163,33507,1,0,0:0:0:0:
332,128,33679,5,0,1:0:0:0:
92,128,33850,1,0,1:0:0:0:
360,128,34364,5,0,1:0:0:0:
120,128,34536,1,0,1:0:0:0:
392,128,35050,5,0,1:0:0:0:
152,128,35222,1,0,1:0:0:0:
424,128,35736,5,0,1:0:0:0:
184,128,35907,1,0,1:0:0:0:
436,364,36250,6,0,P|480:320|396:228,1,179.999994506836,4|0,0:1|0:0,0:0:0:0:
275,355,36764,2,0,L|172:356,1,89.9999972534181,8|0,0:1|0:0,0:0:0:0:
308,284,37107,1,8,0:0:0:0:
184,352,37279,1,0,0:1:0:0:
356,228,37450,2,0,L|356:112,1,89.9999972534181,8|0,0:1|0:0,0:0:0:0:
112,312,37793,5,4,0:1:0:0:
34,276,37964,1,0,0:0:0:0:
35,191,38136,1,0,0:0:0:0:
113,157,38307,1,0,0:0:0:0:
300,156,38479,2,0,L|360:156,2,44.999998626709,0|0|0,1:0|1:0|1:0,0:0:0:0:
208,152,38822,2,0,L|108:152,1,89.9999972534181,0|0,3:0|3:0,0:0:0:0:
364,360,39164,6,0,L|476:360,1,94.9999974632264,4|0,0:1|0:0,0:0:0:0:
312,336,39507,2,0,L|196:336,1,94.9999974632264,8|0,0:1|0:0,0:0:0:0:
416,208,39850,2,0,P|460:180|396:72,1,189.999994926453,8|8,0:0|0:1,0:0:0:0:
320,80,40364,1,0,0:0:0:0:
128,344,40536,6,0,L|128:232,1,94.9999974632264,8|0,0:0|0:0,0:0:0:0:
272,232,40879,2,0,L|272:116,1,94.9999974632264,8|0,0:1|0:0,0:0:0:0:
104,136,41222,2,0,L|304:80,1,189.999994926453,8|8,0:0|0:1,0:0:0:0:
32,348,41736,6,0,L|32:248,1,94.9999974632264,0|8,0:0|0:0,0:0:0:0:
124,252,42079,1,0,0:0:0:0:
304,256,42250,2,0,L|388:180,1,94.9999974632264,8|0,0:1|0:0,0:0:0:0:
276,184,42593,1,8,0:0:0:0:
184,184,42764,1,0,0:0:0:0:
344,168,42936,2,0,L|360:64,1,94.9999974632264,8|0,0:1|0:0,0:0:0:0:
120,340,43279,6,0,P|72:312|140:228,1,189.999994926453,8|8,0:0|0:1,0:0:0:0:
276,228,43793,1,0,0:0:0:0:
128,188,43964,2,0,P|116:108|136:88,1,94.9999974632264,4|0,0:1|1:0,0:0:0:0:
184,104,44222,1,0,1:0:0:0:
344,200,44307,1,0,1:0:0:0:
400,228,44393,1,0,1:0:0:0:
348,236,44479,1,0,1:0:0:0:
296,248,44564,1,0,1:0:0:0:
132,316,44650,6,0,P|72:280|152:208,1,189.999994926453,4|8,0:1|0:1,0:0:0:0:
268,200,45164,1,0,0:0:0:0:
136,192,45336,2,0,L|136:88,1,94.9999974632264,8|0,0:1|0:0,0:0:0:0:
284,96,45679,2,0,L|160:96,1,94.9999974632264,8|0,0:1|0:0,0:0:0:0:
428,96,46022,5,0,1:0:0:0:
252,180,46250,1,0,1:0:0:0:
428,96,46479,1,0,1:0:0:0:
120,344,46707,2,0,L|280:344,1,142.49999619484,0|0,1:0|1:0,0:0:0:0:
312,344,47050,1,0,1:0:0:0:
168,256,47222,1,0,1:0:0:0:
421,263,47393,6,0,P|469:227|397:147,1,189.999994926453,4|8,0:1|0:0,0:0:0:0:
305,143,47907,1,4,0:1:0:0:
68,132,48079,1,0,0:0:0:0:
164,136,48250,1,8,0:0:0:0:
211,136,48336,1,8,0:0:0:0:
259,136,48422,1,8,0:0:0:0:
108,60,48593,1,8,0:0:0:0:
356,376,48764,6,0,P|220:176|48:380,1,569.999984779358,4|0,0:1|0:0,0:0:0:0:
224,368,50136,6,0,L|224:240,1,120,2|0,0:0|0:0,0:0:0:0:
284,252,50478,2,0,L|284:108,1,120,2|0,0:0|0:0,0:0:0:0:
344,132,50821,2,0,L|344:36,1,80,2|0,0:0|0:0,0:0:0:0:
260,44,51164,6,0,L|104:44,1,120,10|0,0:3|0:0,0:0:0:0:
200,44,51507,2,0,L|340:44,1,120,2|0,0:0|0:0,0:0:0:0:
260,44,51850,2,0,L|148:44,1,80,2|0,0:0|0:0,0:0:0:0:
352,364,52193,6,0,L|352:232,1,120,2|0,0:0|0:0,0:0:0:0:
292,252,52536,2,0,L|292:112,1,120,2|0,0:0|0:0,0:0:0:0:
232,136,52878,2,0,L|336:136,1,80,2|0,0:0|0:0,0:0:0:0:
148,224,53221,6,0,P|96:184|168:116,1,160,10|0,0:3|0:0,0:0:0:0:
252,96,53736,2,0,L|252:196,1,80,0|0,0:1|0:0,0:0:0:0:
88,348,54250,6,0,P|100:260|140:252,1,120,2|0,0:0|0:0,0:0:0:0:
180,256,54593,2,0,B|260:256|260:256|232:204,1,120,2|0,0:0|0:0,0:0:0:0:
180,256,54936,2,0,L|176:168,1,80,2|0,0:0|0:0,0:0:0:0:
352,252,55278,6,0,P|396:216|332:136,1,160,10|0,0:3|0:0,0:0:0:0:
260,124,55793,1,0,0:0:0:0:
168,124,55964,2,0,L|364:124,1,160,2|0,0:0|0:0,0:0:0:0:
432,128,56478,1,0,0:0:0:0:
244,356,56650,2,0,L|244:248,1,80,2|0,0:0|0:0,0:0:0:0:
336,264,56993,6,0,L|336:156,1,80,0|0,0:0|0:0,0:0:0:0:
164,176,57336,2,0,L|64:176,1,80,10|0,0:3|0:0,0:0:0:0:
256,92,57678,2,0,L|364:92,1,80,0|0,0:0|0:0,0:0:0:0:
168,96,58021,1,0,0:0:0:0:
360,100,58364,5,2,0:0:0:0:
56,360,59050,2,0,L|56:260,1,80,2|0,0:0|0:0,0:0:0:0:
152,268,59393,6,0,L|392:144,1,240,2|0,0:0|0:0,0:0:0:0:
284,136,60078,2,0,P|232:88|304:40,1,160,2|2,0:0|0:0,0:0:0:0:
380,8,60593,1,2,0:0:0:0:
472,8,60764,1,2,0:0:0:0:
288,28,61107,5,2,0:0:0:0:
120,32,61450,2,0,P|40:100|200:300,1,400,2|0,0:0|0:0,0:0:0:0:
416,196,62478,6,0,L|288:196,1,127.50000243187,0|0,3:0|3:0,0:0:0:0:
232,196,62820,1,0,3:0:0:0:
396,128,62992,2,0,P|436:80|368:36,1,127.50000243187,0|0,3:0|3:0,0:0:0:0:
336,36,63335,1,0,3:0:0:0:
472,36,63506,2,0,L|472:152,1,85.0000016212464,0|0,3:0|3:0,0:0:0:0:
228,264,63849,6,0,L|348:264,1,89.9999972534181,0|0,3:0|3:0,0:0:0:0:
364,264,64106,1,0,3:0:0:0:
320,264,64192,1,0,3:0:0:0:
180,204,64363,2,0,L|24:204,1,134.999995880127,0|0,3:0|3:0,0:0:0:0:
92,204,64706,1,0,3:0:0:0:
252,208,64878,2,0,L|356:208,1,89.9999972534181,0|0,3:0|3:0,0:0:0:0:
68,344,65220,6,0,L|192:344,2,100,4|0|0,1:1|1:0|1:0,0:0:0:0:
232,344,65735,2,0,L|232:236,1,100,0|0,1:0|1:0,0:0:0:0:
132,240,66078,1,0,1:0:0:0:
292,240,66249,2,0,L|424:240,1,100,0|0,1:0|1:0,0:0:0:0:
128,136,66592,5,4,1:1:0:0:
238,136,66763,1,0,1:0:0:0:
348,136,66935,1,0,1:0:0:0:
96,352,67106,1,0,1:0:0:0:
51,322,67192,1,0,1:0:0:0:
48,270,67278,1,0,1:0:0:0:
89,236,67363,1,0,1:0:0:0:
256,240,67449,2,0,L|352:240,1,55.0000016784668,0|0,1:0|1:0,0:0:0:0:
136,172,67620,2,0,L|68:172,2,55.0000016784668,0|0|0,1:0|1:0|1:0,0:0:0:0:
432,88,67963,6,0,L|304:124,2,119.999996337891,12|0|0,1:1|1:0|1:0,0:0:0:0:
200,344,68478,2,0,L|200:220,1,119.999996337891,12|0,1:1|1:0,0:0:0:0:
336,224,68820,1,0,1:0:0:0:
60,240,68992,2,0,L|24:112,1,119.999996337891,12|0,1:1|1:0,0:0:0:0:
264,116,69335,6,0,L|368:32,2,119.999996337891,12|0|0,1:1|1:0|1:0,0:0:0:0:
500,44,69849,2,0,L|384:112,2,119.999996337891,12|0|0,1:1|1:0|1:0,0:0:0:0:
255,360,70363,2,0,L|395:304,1,119.999996337891,12|0,1:1|1:0,0:0:0:0:
128,308,70706,5,8,0:1:0:0:
80,294,70792,1,0,0:0:0:0:
43,261,70878,1,0,0:0:0:0:
24,215,70963,1,0,0:0:0:0:
27,165,71049,1,0,0:0:0:0:
52,122,71135,1,0,0:0:0:0:
93,94,71220,1,0,0:0:0:0:
142,87,71306,1,0,0:0:0:0:
241,86,71392,2,0,L|305:42,2,50,8|0|0,0:0|0:0|0:0,0:0:0:0:
142,87,71649,2,8,L|142:23,1,50
197,38,71820,1,0,0:0:0:0:
299,33,71906,2,0,L|300:83,1,50,8|0,0:0|0:0,0:0:0:0:
128,359,72078,5,4,0:1:0:0:
263,360,72335,1,4,0:1:0:0:
401,365,72592,2,0,P|457:329|385:229,1,200,4|0,0:1|0:0,0:0:0:0:
265,230,73106,1,8,0:1:0:0:
420,232,73278,1,0,0:0:0:0:
172,360,73449,6,0,L|172:232,1,125,4|0,0:1|0:0,0:0:0:0:
300,232,73792,2,0,L|424:160,1,125,8|0,0:1|0:0,0:0:0:0:
176,144,74135,2,0,L|12:24,2,187.5,8|0|0,0:0|0:0|0:0,0:0:0:0:
408,352,74820,6,0,L|408:220,1,125,8|0,0:0|0:0,0:0:0:0:
248,228,75163,2,0,L|248:84,1,125,8|0,0:1|0:0,0:0:0:0:
392,104,75506,1,8,0:0:0:0:
208,108,75678,2,0,L|84:220,1,125,0|8,0:0|0:1,0:0:0:0:
356,320,76020,6,0,L|448:320,2,62.5,0|0|8,0:0|0:0|0:0,0:0:0:0:
216,320,76363,2,0,L|216:228,1,62.5,0|0,0:0|0:0,0:0:0:0:
280,256,76535,1,8,0:1:0:0:
436,200,76706,1,0,1:0:0:0:
280,108,76878,2,0,P|197:108|164:64,1,125,8|0,1:0|1:0,0:0:0:0:
220,108,77135,1,0,1:0:0:0:
388,108,77220,2,0,L|448:80,1,62.5,8|0,1:2|1:0,0:0:0:0:
388,108,77392,2,0,L|316:64,1,62.5,0|0,1:0|1:0,0:0:0:0:
144,344,77563,6,0,P|76:300|176:200,1,250,4|8,0:1|0:1,0:0:0:0:
400,356,78078,2,0,L|148:220,1,250,4|8,0:1|1:0,0:0:0:0:
304,176,78592,1,8,1:0:0:0:
72,308,78763,6,0,P|20:268|96:124,1,250,4|0,0:1|0:0,0:0:0:0:
264,272,79278,2,0,L|136:272,1,125,8|0,0:1|0:0,0:0:0:0:
400,336,79620,2,0,L|524:232,2,125,8|0|8,0:0|0:0|0:1,0:0:0:0:
164,344,80135,6,0,L|396:212,1,250,4|0,0:1|0:0,0:0:0:0:
264,132,80649,2,0,L|424:132,1,125,8|0,0:1|0:0,0:0:0:0:
132,256,80992,2,0,P|68:208|152:84,1,250,8|8,0:0|0:1,0:0:0:0:
232,84,81506,1,0,0:0:0:0:
464,368,81678,6,0,L|464:236,1,125,4|0,0:1|0:0,0:0:0:0:
296,244,82020,2,0,L|296:100,1,125,8|0,0:1|0:0,0:0:0:0:
128,240,82363,2,0,L|128:96,1,125,8|0,0:0|0:0,0:0:0:0:
360,112,82706,5,8,0:1:0:0:
232,112,82878,2,0,L|232:260,1,125,0|0,0:0|0:0,0:0:0:0:
396,348,83220,2,0,L|140:240,1,250,8|0,0:1|1:0,0:0:0:0:
328,340,83735,1,0,1:0:0:0:
375,302,83820,1,0,1:0:0:0:
375,242,83906,1,0,1:0:0:0:
328,205,83992,1,0,1:0:0:0:
167,194,84078,2,0,L|167:106,1,62.5,0|0,1:0|1:0,0:0:0:0:
340,84,84249,2,0,L|272:84,1,62.5,0|0,1:0|1:0,0:0:0:0:
60,344,84420,6,0,L|60:204,1,125,4|0,0:1|0:0,0:0:0:0:
168,284,84763,2,0,L|56:216,1,125,8|0,0:1|0:0,0:0:0:0:
296,208,85106,2,0,L|460:72,2,187.5,8|0|0,0:0|0:0|0:0,0:0:0:0:
56,348,85792,6,0,L|56:220,1,125,8|0,0:0|0:0,0:0:0:0:
216,212,86135,2,0,L|216:56,1,125,8|0,0:1|0:0,0:0:0:0:
380,84,86478,1,8,0:0:0:0:
212,368,86649,2,0,L|212:236,1,125,0|8,0:0|0:1,0:0:0:0:
384,236,86992,1,8,0:0:0:0:
144,356,87163,5,4,0:1:0:0:
50,280,87335,1,0,0:0:0:0:
62,160,87506,1,8,0:1:0:0:
167,103,87678,1,0,0:0:0:0:
412,332,87849,2,0,L|412:208,1,125,8|8,0:0|0:0,0:0:0:0:
328,208,88106,1,8,0:0:0:0:
260,208,88192,1,8,0:1:0:0:
404,128,88363,1,8,0:0:0:0:
152,360,88535,6,0,P|92:324|176:196,1,250,4|8,0:1|0:0,0:0:0:0:
404,368,89049,2,0,P|468:336|380:212,1,250,4|0,0:1|1:0,0:0:0:0:
272,204,89563,2,0,L|272:116,1,62.5,0|0,1:0|1:0,0:0:0:0:
328,84,89735,2,0,L|424:84,1,62.5,0|0,1:0|1:0,0:0:0:0:
200,348,89906,6,0,L|72:280,2,125,12|0|0,0:1|0:0|0:0,0:0:0:0:
436,352,90420,2,0,L|436:216,1,125,12|0,0:1|0:0,0:0:0:0:
324,228,90763,1,0,0:0:0:0:
80,232,90935,2,0,L|132:96,1,125,12|0,0:1|0:0,0:0:0:0:
360,104,91278,6,0,L|484:40,2,125,12|0|0,0:1|0:0|0:0,0:0:0:0:
128,348,91792,1,12,0:1:0:0:
243,299,91963,1,0,0:0:0:0:
358,250,92135,1,8,1:0:0:0:
416,216,92220,1,0,1:0:0:0:
416,148,92306,1,0,1:0:0:0:
360,104,92392,1,0,1:0:0:0:
192,100,92478,2,0,L|120:32,1,62.5,0|0,1:0|1:0,0:0:0:0:
380,364,92649,5,4,1:1:0:0:
430,328,92735,1,0,1:0:0:0:
448,270,92820,1,0,1:0:0:0:
428,212,92906,1,0,1:0:0:0:
377,178,92992,1,8,1:0:0:0:
136,356,93163,5,4,1:1:0:0:
79,333,93249,1,0,1:0:0:0:
55,277,93335,1,0,1:0:0:0:
76,220,93420,1,0,1:0:0:0:
132,196,93506,1,8,1:0:0:0:
364,356,93678,5,4,1:1:0:0:
315,316,93763,1,0,1:0:0:0:
266,277,93849,1,0,1:0:0:0:
218,238,93935,1,0,1:0:0:0:
169,198,94020,1,8,1:0:0:0:
404,184,94192,5,4,1:1:0:0:
459,158,94278,1,0,1:0:0:0:
481,101,94363,1,0,1:0:0:0:
458,45,94449,1,0,1:0:0:0:
402,20,94535,1,0,1:0:0:0:
260,180,94706,6,0,L|168:72,1,125,0|8,1:0|1:0,0:0:0:0:
344,184,95049,2,0,L|448:80,1,125,0|8,1:0|1:0,0:0:0:0:
136,364,95392,5,12,1:1:0:0:
26,320,95563,1,0,1:0:0:0:
29,203,95735,1,0,1:0:0:0:
139,163,95906,1,0,1:0:0:0:
368,364,96078,1,12,1:1:0:0:
477,320,96249,1,0,1:0:0:0:
474,203,96420,1,0,1:0:0:0:
364,163,96592,1,0,1:0:0:0:
132,368,96763,6,0,L|132:220,1,125,12|0,1:1|1:0,0:0:0:0:
220,244,97020,1,0,1:0:0:0:
310,239,97106,2,0,L|310:83,1,125,0|0,1:0|1:0,0:0:0:0:
224,116,97363,1,0,1:0:0:0:
48,248,97449,2,0,L|48:108,1,125,12|0,1:1|1:0,0:0:0:0:
193,123,97706,1,0,1:0:0:0:
338,135,97792,2,0,L|347:6,1,125,0|0,1:0|1:0,0:0:0:0:
168,352,98135,5,0,0:0:0:0:
64,352,98306,2,0,L|64:224,1,100
168,248,98649,2,0,L|20:100,1,200
200,360,99163,2,0,P|288:312|140:140,1,400
106,135,99935,1,0,0:0:0:0:
154,134,100020,1,8,0:2:0:0:
202,130,100106,1,0,0:0:0:0:
365,125,100192,6,0,L|429:125,2,50,8|0|8,0:1|0:0|0:2,0:0:0:0:
209,289,100535,2,0,L|209:173,1,100,8|8,0:1|0:1,0:0:0:0:
453,169,100878,6,0,L|353:169,2,100,0|0|0,1:0|1:0|1:0,0:0:0:0:
205,145,101392,2,0,L|325:145,2,100,0|4|4,1:0|1:1|1:1,0:0:0:0:
461,141,101906,1,0,1:0:0:0:
135,147,102078,1,4,1:1:0:0:
