osu file format v14

[General]
AudioFilename: audio.mp3
AudioLeadIn: 0
PreviewTime: 72921
Countdown: 0
SampleSet: Soft
StackLeniency: 0.7
Mode: 2
LetterboxInBreaks: 0
WidescreenStoryboard: 0

[Editor]
DistanceSpacing: 1
BeatDivisor: 4
GridSize: 4
TimelineZoom: 2.2

[Metadata]
Title:Hanayagu Mugen no Shoujo-tachi
TitleUnicode:華やぐ夢幻の少女たち
Artist:ARM (IOSYS)
ArtistUnicode:ARM (IOSYS)
Creator:[_-Kukkai-_]
Version:Overdose
Source:東方キャノンボール
Tags:rew0825 hakurei reimu kirisame marisa Touhou Cannonball opening 東方Project 東方vocal cloverworks 鬼頭明里 飯沼南実 Kitou Akari iinuma minami ZUN てっぺい先生 Teppei Okada 紅維流星 Akai Ryusei ジュクチョー Zyukucho 秀三 Shuzo tomoya コンプ Comp kaztora 東京アクティブ Tokyo Active NEETs ジュクチョー COOL & CREATE 石鹸屋 sekkenya TUMENECO 豚乙女 BUTAOTOME 森羅万象 Shinra-bansho Gen Okamura WAVE RIDER しばやん Shibayan Records 山内真治 Shinji Yamauchi Aniplex video game mobile japanese
BeatmapID:2300760
BeatmapSetID:1101310

[Difficulty]
HPDrainRate:7
CircleSize:4.2
OverallDifficulty:9.4
ApproachRate:9.4
SliderMultiplier:2.1
SliderTickRate:2

[Events]
//Background and Video events
0,0,"Touhou.Cannonball.full.2685465.jpg",0,0
Video,120,"videoplayback.mp4"
//Break Periods
//Storyboard Layer 0 (Background)
//Storyboard Layer 1 (Fail)
//Storyboard Layer 2 (Pass)
//Storyboard Layer 3 (Foreground)
//Storyboard Layer 4 (Overlay)
//Storyboard Sound Samples

[TimingPoints]
1348,342.857142857143,4,2,1,40,1,0
1348,-117.647058823529,4,2,1,40,0,0
6833,-117.647058823529,4,2,1,50,0,0
9576,-83.3333333333333,4,2,1,60,0,0
12319,471.512770137525,4,2,1,60,1,0
12554,461.538461538462,4,2,1,60,1,0
12669,533.333333333333,4,2,1,60,1,0
12935,533.333333333333,4,2,1,60,1,0
13201,659.340659340659,4,2,1,60,1,0
13365,571.428571428571,4,2,1,60,1,0
13650,857.142857142857,4,2,1,60,1,0
13864,960,4,2,1,60,1,0
14104,694.042799305957,4,2,1,60,1,0
16880,342.857142857143,4,2,1,60,1,0
17222,342.857142857143,4,2,1,60,1,0
17222,-83.3333333333333,4,2,1,60,0,0
28193,-117.647058823529,4,2,1,50,0,0
36250,-111.111111111111,4,2,1,50,0,0
39164,-105.263157894737,4,2,1,50,0,0
50136,342.857142857143,3,2,1,40,1,0
50136,-125,4,2,1,35,0,0
62478,342.857142857143,4,2,1,40,1,0
62478,-117.647058823529,4,2,1,40,0,0
63849,-111.111111111111,4,2,1,45,0,0
65222,-100,4,2,1,50,0,0
66593,-90.9090909090909,4,2,1,55,0,0
67963,-83.3333333333333,4,2,1,60,0,0
70707,-100,4,2,1,60,0,0
73449,-80,4,2,1,60,0,1
82706,-80,4,2,1,60,0,0
84420,-80,4,2,1,60,0,1
98135,-100,4,2,1,40,0,0
100193,-100,4,2,1,60,0,0

[Colours]
Combo1 : 116,155,245
Combo2 : 111,189,44
Combo3 : 248,50,50
Combo4 : 220,173,14

[HitObjects]
336,336,1176,5,2,0:2:0:0:
267,338,1262,1,2,0:2:0:0:
207,336,1348,2,0,P|91:259|215:117,1,357.000006809235,2|0,0:2|0:2,0:2:0:0:
329,115,2290,2,0,L|331:276,1,133.875002553463,0|0,0:2|0:2,0:2:0:0:
89,257,2719,6,0,L|248:144,2,178.500003404617,2|0|0,0:2|0:2|0:2,0:2:0:0:
296,260,3662,2,0,L|296:88,1,133.875002553463,0|0,0:2|0:2,0:2:0:0:
56,352,4090,6,0,P|32:284|192:192,1,267.750005106926,2|0,0:2|0:2,0:2:0:0:
256,188,4776,2,0,L|368:188,1,89.2500017023087,0|0,0:2|0:2,0:2:0:0:
256,188,5119,2,0,L|156:188,1,89.2500017023087,0|0,0:2|0:2,0:2:0:0:
408,360,5462,6,0,P|460:328|384:256,1,178.500003404617,2|0,0:2|0:2,0:2:0:0:
316,252,5976,1,0,0:2:0:0:
228,252,6148,2,0,L|440:252,1,178.500003404617,0|0,0:2|0:2,0:2:0:0:
316,248,6662,1,0,0:2:0:0:
76,248,6833,6,0,P|180:168|388:264,1,357.000006809235,2|0,0:2|0:2,0:2:0:0:
241,240,7776,2,0,L|104:240,1,133.875002553463,0|0,0:2|0:2,0:2:0:0:
348,240,8205,6,0,L|180:112,2,178.500003404617,2|0|0,0:2|0:2|0:2,0:2:0:0:
144,240,9148,2,0,L|144:80,1,133.875002553463,0|0,0:2|0:2,0:2:0:0:
400,104,9576,6,0,L|496:104,1,62.9999980773926,4|0,1:1|1:0,1:0:0:0:
268,108,9748,2,0,L|184:88,1,62.9999980773926,0|0,1:0|1:0,1:0:0:0:
268,108,9919,2,0,L|344:80,1,62.9999980773926,8|0,1:0|1:0,1:0:0:0:
128,348,10090,2,0,L|128:264,1,62.9999980773926,4|0,1:1|1:0,1:0:0:0:
328,272,10262,2,0,L|328:196,1,62.9999980773926,0|0,1:0|1:0,1:0:0:0:
260,208,10433,2,0,L|184:208,1,62.9999980773926,8|0,1:0|1:0,1:0:0:0:
400,132,10605,2,0,L|320:132,1,62.9999980773926,4|0,1:1|1:0,1:0:0:0:
144,252,10776,6,0,L|144:168,1,62.9999980773926,0|0,1:0|1:0,1:0:0:0:
224,156,10948,2,0,L|224:72,1,62.9999980773926,8|0,1:0|1:0,1:0:0:0:
48,163,11119,2,0,L|104:120,1,62.9999980773926,4|0,1:1|1:0,1:0:0:0:
272,96,11290,2,0,L|284:28,1,62.9999980773926,0|0,1:0|1:0,1:0:0:0:
76,92,11462,2,0,L|148:44,1,62.9999980773926,8|0,1:0|1:0,1:0:0:0:
332,96,11633,1,0,1:0:0:0:
48,352,11805,5,8,1:0:0:0:
200,280,11976,1,0,1:0:0:0:
48,352,12148,1,8,1:0:0:0:
356,348,12319,5,2,1:3:0:0:
448,348,12436,1,0,1:0:0:0:
356,348,12554,1,2,1:3:0:0:
168,360,12669,1,2,1:3:0:0:
63,360,12802,1,0,1:0:0:0:
168,360,12935,1,2,1:3:0:0:
372,352,13068,1,2,1:3:0:0:
256,272,13201,1,2,1:3:0:0:
404,268,13365,1,2,1:3:0:0:
128,200,13507,5,2,1:3:0:0:
260,200,13650,1,2,1:3:0:0:
88,124,13864,1,2,1:3:0:0:
416,128,14104,1,4,1:1:0:0:
256,192,14277,12,8,16880,0:0:0:0:
377,357,17051,5,0,0:0:0:0:
234,357,17137,1,0,0:0:0:0:
65,351,17222,5,4,1:0:0:0:
40,293,17307,1,0,1:0:0:0:
48,232,17393,1,0,1:0:0:0:
86,183,17479,1,0,1:0:0:0:
145,161,17564,1,0,1:0:0:0:
206,172,17650,1,0,1:0:0:0:
64,130,17736,2,0,L|-36:130,1,62.9999980773926,0|0,1:0|1:0,1:0:0:0:
256,268,17907,2,0,L|344:268,1,62.9999980773926,0|0,1:0|1:0,1:0:0:0:
224,204,18079,2,0,L|224:128,1,62.9999980773926,0|0,1:0|1:0,1:0:0:0:
312,132,18250,2,0,L|312:56,1,62.9999980773926,0|0,1:0|1:0,1:0:0:0:
152,68,18422,2,0,L|88:64,1,62.9999980773926,0|0,1:0|1:0,1:0:0:0:
272,364,18593,5,4,1:1:0:0:
307,313,18679,1,0,1:0:0:0:
306,251,18764,1,0,1:0:0:0:
269,201,18850,1,0,1:0:0:0:
209,184,18936,1,0,1:0:0:0:
151,204,19022,1,0,1:0:0:0:
320,192,19107,2,0,L|320:108,1,62.9999980773926,0|0,1:0|1:0,1:0:0:0:
68,364,19279,2,0,L|68:268,1,62.9999980773926,0|0,1:0|1:0,1:0:0:0:
160,280,19450,2,0,L|240:280,1,62.9999980773926,0|0,1:0|1:0,1:0:0:0:
132,216,19622,2,0,L|132:132,1,62.9999980773926,0|0,1:0|1:0,1:0:0:0:
332,120,19793,2,0,L|224:120,1,62.9999980773926,0|0,1:0|1:0,1:0:0:0:
80,288,19964,5,4,1:1:0:0:
44,237,20050,1,0,1:0:0:0:
43,174,20136,1,0,1:0:0:0:
77,122,20222,1,0,1:0:0:0:
134,98,20307,1,0,1:0:0:0:
195,109,20393,1,0,1:0:0:0:
376,116,20479,2,0,L|284:116,1,62.9999980773926,0|0,1:0|1:0,1:0:0:0:
116,356,20650,1,0,1:0:0:0:
52,356,20736,1,0,1:0:0:0:
116,356,20822,1,0,1:0:0:0:
180,356,20907,1,0,1:0:0:0:
356,348,20993,1,0,1:0:0:0:
412,332,21079,1,0,1:0:0:0:
415,273,21164,1,0,1:0:0:0:
359,253,21250,1,0,1:0:0:0:
180,248,21336,6,0,L|376:208,1,188.999994232178,4|8,1:1|1:0,1:0:0:0:
304,224,21679,1,8,1:0:0:0:
168,224,21850,2,0,L|80:224,1,62.9999980773926,4|0,1:1|1:0,1:0:0:0:
288,168,22022,2,0,L|288:92,1,62.9999980773926,0|0,1:0|1:0,1:0:0:0:
96,108,22193,2,0,L|180:108,1,62.9999980773926,0|0,1:0|1:0,1:0:0:0:
328,108,22364,2,0,L|412:108,2,62.9999980773926,0|0|0,1:0|1:0|1:0,1:0:0:0:
80,336,22707,6,0,L|244:336,1,125.999996154785,4|0,1:1|1:0,1:0:0:0:
143,337,22964,1,8,1:0:0:0:
80,336,23050,1,8,1:0:0:0:
344,240,23222,1,4,1:1:0:0:
212,248,23393,2,0,L|212:112,1,125.999996154785,0|8,1:0|1:0,1:0:0:0:
340,116,23736,1,8,1:2:0:0:
160,112,23907,1,0,1:0:0:0:
408,280,24079,6,0,L|232:280,1,125.999996154785,4|8,1:1|1:0,1:0:0:0:
348,280,24336,1,8,1:0:0:0:
408,280,24422,1,8,1:0:0:0:
160,280,24593,2,0,P|84:248|176:144,1,251.999992309571,4|0,1:1|1:0,1:0:0:0:
256,136,25107,2,0,L|336:136,1,62.9999980773926,0|0,1:0|1:0,1:0:0:0:
232,140,25279,2,0,L|208:68,1,62.9999980773926,0|0,1:0|1:0,1:0:0:0:
388,328,25450,6,0,L|248:328,2,125.999996154785,12|0|0,1:1|1:0|1:0,1:0:0:0:
156,328,25964,2,0,L|156:192,1,125.999996154785,12|0,1:1|1:0,1:0:0:0:
224,204,26222,1,0,1:0:0:0:
296,204,26307,1,0,1:0:0:0:
44,128,26479,6,0,L|180:128,2,125.999996154785,12|0|0,1:1|1:0|1:0,1:0:0:0:
300,56,26993,1,12,1:1:0:0:
174,56,27164,1,0,1:0:0:0:
48,56,27336,1,0,1:0:0:0:
296,308,27507,2,0,L|348:264,1,62.9999980773926,12|0,1:1|1:0,1:0:0:0:
184,248,27764,1,0,1:0:0:0:
127,224,27850,1,0,1:0:0:0:
104,167,27936,1,0,1:0:0:0:
128,111,28022,1,0,1:0:0:0:
186,89,28107,1,0,1:0:0:0:
340,368,28193,6,0,L|436:368,1,89.2500017023087,4|0,0:1|0:0,0:0:0:0:
340,368,28536,2,0,L|224:368,1,89.2500017023087,8|0,0:2|0:0,0:0:0:0:
416,296,28879,2,8,P|468:260|396:188,1,178.500003404617,8|8,0:2|0:2,0:2:0:0:
320,188,29393,1,0,0:0:0:0:
136,276,29564,6,0,L|136:164,1,89.2500017023087,8|0,0:2|0:0,0:0:0:0:
228,180,29907,2,0,L|328:180,1,89.2500017023087,8|0,0:2|0:0,0:0:0:0:
156,184,30250,2,8,P|96:136|180:88,1,178.500003404617,8|8,0:2|0:0,0:0:0:0:
244,80,30764,1,0,0:0:0:0:
424,364,30936,6,0,L|296:364,1,89.2500017023087,8|0,0:0|0:0,0:0:0:0:
248,360,31279,2,0,L|248:248,1,89.2500017023087,8|0,0:0|0:0,0:0:0:0:
428,184,31622,2,8,L|228:104,1,178.500003404617
352,52,32136,1,0,0:0:0:0:
112,340,32307,5,8,0:0:0:0:
248,344,32479,1,0,0:0:0:0:
112,340,32650,2,0,L|100:236,1,89.2500017023087,8|0,0:0|0:0,0:0:0:0:
264,236,32993,2,0,L|64:240,1,178.500003404617,10|0,0:0|0:0,0:0:0:0:
176,240,33507,1,0,0:0:0:0:
448,244,33679,5,0,1:0:0:0:
180,240,33850,1,0,1:0:0:0:
360,132,34364,5,0,1:0:0:0:
100,136,34536,1,0,1:0:0:0:
288,52,35050,5,0,1:0:0:0:
28,56,35222,1,0,1:0:0:0:
360,132,35736,5,0,1:0:0:0:
100,136,35907,1,0,1:0:0:0:
416,356,36250,6,0,P|480:304|400:252,1,188.999994232178,4|0,0:1|0:0,0:0:0:0:
276,248,36764,1,8,0:1:0:0:
416,248,36936,1,0,0:0:0:0:
276,248,37107,2,0,L|160:248,1,94.499997116089,8|0,0:0|0:0,0:0:0:0:
364,172,37450,2,0,L|364:72,1,94.499997116089,8|0,0:1|0:0,0:0:0:0:
128,356,37793,5,4,0:1:0:0:
48,314,37964,1,0,0:0:0:0:
50,224,38136,1,0,0:0:0:0:
131,187,38307,1,0,0:0:0:0:
368,188,38479,2,0,L|424:188,2,47.2499985580445,0|0|0,1:0|1:0|1:0,1:0:0:0:
224,192,38822,1,0,3:0:0:0:
364,192,38993,1,0,3:0:0:0:
76,360,39164,6,0,L|72:248,1,99.7499973363877,4|0,0:1|0:0,0:0:0:0:
200,252,39507,2,0,L|216:140,1,99.7499973363877,8|0,0:1|0:0,0:0:0:0:
28,116,39850,1,8,0:0:0:0:
77,116,39936,1,0,0:0:0:0:
127,116,40022,1,0,0:0:0:0:
280,112,40193,1,8,0:1:0:0:
127,116,40364,1,0,0:0:0:0:
376,360,40536,6,0,L|376:244,1,99.7499973363877,8|0,0:0|0:0,0:0:0:0:
244,264,40879,2,0,L|136:264,1,99.7499973363877,8|0,0:1|0:0,0:0:0:0:
324,184,41222,2,0,L|436:184,2,99.7499973363877,8|0|8,0:0|0:0|0:1,0:0:0:0:
64,344,41736,6,0,L|64:208,1,99.7499973363877,0|8,0:0|0:0,0:0:0:0:
212,248,42079,1,0,0:0:0:0:
60,240,42250,2,0,L|160:240,1,99.7499973363877,8|0,0:1|0:0,0:0:0:0:
308,240,42593,1,8,0:0:0:0:
160,240,42764,1,0,0:0:0:0:
312,240,42936,2,0,L|340:132,1,99.7499973363877,8|0,0:1|0:0,0:0:0:0:
104,140,43279,5,8,0:0:0:0:
203,140,43450,1,0,0:0:0:0:
303,140,43622,1,8,0:1:0:0:
156,72,43793,1,0,0:0:0:0:
400,360,43964,2,0,L|504:360,1,99.7499973363877,4|0,0:1|1:0,0:0:0:0:
448,360,44222,1,0,1:0:0:0:
264,360,44307,1,0,1:0:0:0:
208,360,44393,1,0,1:0:0:0:
152,360,44479,1,0,1:0:0:0:
208,360,44564,1,0,1:0:0:0:
404,292,44650,6,0,P|472:244|392:196,1,199.499994672775,4|8,0:1|0:1,0:0:0:0:
248,196,45164,1,0,0:0:0:0:
408,196,45336,2,0,L|408:80,1,99.7499973363877,8|0,0:1|0:0,0:0:0:0:
248,76,45679,1,8,0:1:0:0:
404,92,45850,1,0,0:0:0:0:
104,352,46022,5,0,1:0:0:0:
317,352,46250,1,0,1:0:0:0:
104,352,46479,1,0,1:0:0:0:
396,284,46707,2,0,P|436:232|364:180,1,149.624996004582,0|0,1:0|1:0,1:0:0:0:
312,184,47050,1,0,1:0:0:0:
464,116,47222,1,0,1:0:0:0:
196,116,47393,6,0,L|424:116,1,199.499994672775,4|8,0:1|0:0,0:0:0:0:
248,120,47907,1,4,0:1:0:0:
480,44,48079,1,0,0:0:0:0:
372,44,48250,1,8,0:0:0:0:
319,44,48336,1,8,0:0:0:0:
267,44,48422,1,8,0:0:0:0:
424,44,48593,2,8,L|356:44,1,49.8749986681939
156,352,48764,6,0,P|56:292|316:72,1,598.499984018326,4|0,0:1|0:0,0:0:0:0:
144,352,50136,6,0,L|144:216,1,126,2|0,0:0|0:0,0:0:0:0:
227,216,50478,2,0,L|227:80,1,126,2|0,0:0|0:0,0:0:0:0:
311,89,50821,2,0,L|427:89,1,84,2|0,0:0|0:0,0:0:0:0:
228,100,51164,6,0,B|143:99|143:99|216:104,1,126,10|0,0:3|0:0,0:0:0:0:
228,100,51507,2,0,B|313:99|313:99|248:100,1,126,2|0,0:0|0:0,0:0:0:0:
228,100,51850,2,0,L|228:8,1,84,2|0,0:0|0:0,0:0:0:0:
400,344,52193,6,0,B|484:344|484:344|440:344,1,126,2|0,0:0|0:0,0:0:0:0:
400,344,52536,2,0,B|316:343|316:343|368:344,1,126,2|0,0:0|0:0,0:0:0:0:
400,344,52878,2,0,L|400:244,1,84,2|0,0:0|0:0,0:0:0:0:
224,264,53221,6,0,P|168:224|240:160,1,168,10|0,0:3|0:0,0:0:0:0:
281,154,53736,1,0,0:1:0:0:
364,156,53907,1,0,0:0:0:0:
108,352,54250,6,0,B|24:352|24:352|80:352,1,126,2|0,0:0|0:0,0:0:0:0:
150,352,54593,2,0,B|234:352|234:352|182:352,1,126,2|0,0:0|0:0,0:0:0:0:
108,352,54936,2,0,L|68:257,1,84,2|0,0:0|0:0,0:0:0:0:
248,200,55278,6,0,P|300:164|232:100,1,168,10|0,0:3|0:0,0:0:0:0:
164,104,55793,1,0,0:0:0:0:
80,108,55964,2,0,P|32:136|96:208,1,168,2|0,0:0|0:0,0:0:0:0:
168,208,56478,1,0,0:0:0:0:
328,360,56650,6,0,L|328:248,1,84,2|0,0:0|0:0,0:0:0:0:
244,284,56993,2,0,L|156:284,1,84
324,216,57336,2,0,L|324:104,1,84,10|0,0:3|0:0,0:0:0:0:
152,120,57678,1,0,0:0:0:0:
288,120,57850,1,0,0:0:0:0:
152,120,58021,1,0,0:0:0:0:
368,120,58364,5,2,0:0:0:0:
336,348,59050,2,0,L|336:248,1,84,2|0,0:0|0:0,0:0:0:0:
212,264,59393,6,0,P|128:204|224:128,1,252,2|0,0:0|0:0,0:0:0:0:
296,124,60078,2,0,L|104:124,1,168,2|2,0:0|0:0,0:0:0:0:
212,124,60593,1,2,0:0:0:0:
296,124,60764,1,2,0:0:0:0:
152,160,61107,5,2,0:0:0:0:
348,352,61450,2,0,P|456:308|336:104,1,420,2|0,0:0|0:0,0:0:0:0:
80,344,62478,6,0,L|256:344,1,133.875002553463,0|0,3:0|3:0,3:0:0:0:
280,344,62820,1,0,3:0:0:0:
124,280,62992,2,0,P|76:240|136:180,1,133.875002553463,0|0,3:0|3:0,3:0:0:0:
164,184,63335,1,0,3:0:0:0:
296,184,63506,1,0,3:0:0:0:
148,184,63678,1,0,3:0:0:0:
396,88,63849,6,0,L|256:88,1,94.499997116089,0|0,3:0|3:0,3:0:0:0:
244,88,64106,1,0,3:0:0:0:
184,88,64192,1,0,3:0:0:0:
352,356,64363,2,0,P|400:328|336:256,1,141.749995674133,0|0,3:0|3:0,3:0:0:0:
312,260,64706,1,0,3:0:0:0:
184,264,64878,1,0,3:0:0:0:
328,260,65049,1,0,3:0:0:0:
72,184,65220,5,4,1:1:0:0:
196,180,65392,1,0,1:0:0:0:
72,184,65563,1,0,1:0:0:0:
312,176,65735,1,0,1:0:0:0:
436,176,65906,5,0,1:0:0:0:
200,120,66078,1,0,1:0:0:0:
436,176,66249,1,0,1:0:0:0:
464,52,66420,1,0,1:0:0:0:
188,344,66592,5,4,1:1:0:0:
328,344,66763,1,0,1:0:0:0:
468,340,66935,1,0,1:0:0:0:
188,280,67106,5,0,1:0:0:0:
136,261,67192,1,0,1:0:0:0:
132,207,67278,1,0,1:0:0:0:
180,181,67363,1,0,1:0:0:0:
340,180,67449,2,0,L|404:180,1,57.7500017623902,0|0,1:0|1:0,1:0:0:0:
184,104,67620,2,0,L|116:104,2,57.7500017623902,0|0|0,1:0|1:0|1:0,1:0:0:0:
432,48,67963,6,0,L|260:48,2,125.999996154785,12|0|0,1:1|1:0|1:0,1:0:0:0:
136,340,68478,1,12,1:1:0:0:
262,340,68649,1,0,1:0:0:0:
388,340,68820,1,0,1:0:0:0:
136,340,68992,2,0,L|24:252,1,125.999996154785,12|0,1:1|1:0,1:0:0:0:
324,136,69335,5,12,1:1:0:0:
198,136,69506,1,0,1:0:0:0:
72,136,69678,1,0,1:0:0:0:
344,64,69849,2,0,L|476:64,2,125.999996154785,12|0|0,1:1|1:0|1:0,1:0:0:0:
88,64,70363,2,0,L|88:208,1,125.999996154785,12|0,1:1|1:0,1:0:0:0:
340,332,70706,5,8,0:1:0:0:
391,335,70792,1,0,0:0:0:0:
437,311,70878,1,0,0:0:0:0:
464,267,70963,1,0,0:0:0:0:
463,215,71049,1,0,0:0:0:0:
435,172,71135,1,0,0:0:0:0:
388,149,71220,1,0,0:0:0:0:
337,154,71306,1,0,0:0:0:0:
160,280,71392,2,0,L|160:204,1,52.5,8|0,0:0|0:0,0:0:0:0:
216,208,71563,1,0,0:0:0:0:
380,44,71649,1,8,0:0:0:0:
448,43,71735,2,8,L|448:96,1,52.5,8|0,0:0|0:0,0:0:0:0:
280,112,71906,2,0,L|220:112,1,52.5,8|0,0:0|0:0,0:0:0:0:
400,360,72078,5,4,0:1:0:0:
77,353,72335,1,4,0:1:0:0:
392,360,72592,2,0,P|452:308|380:212,1,210,4|0,0:1|0:0,0:0:0:0:
232,208,73106,2,0,L|152:208,1,52.5,8|0,0:1|0:0,0:0:0:0:
352,132,73278,2,0,L|416:132,1,52.5
141,328,73449,6,0,L|13:244,1,131.25,4|0,0:1|0:0,0:0:0:0:
192,252,73792,1,8,0:1:0:0:
32,256,73963,1,0,0:0:0:0:
296,224,74135,2,0,L|76:144,2,196.875,8|0|0,0:0|0:0|0:0,0:0:0:0:
32,352,74820,6,0,L|32:212,1,131.25,8|0,0:0|0:0,0:0:0:0:
288,212,75163,2,0,L|420:136,1,131.25,8|0,0:1|0:0,0:0:0:0:
152,140,75506,1,8,0:0:0:0:
320,144,75678,2,0,L|320:8,1,131.25,0|8,0:0|0:1,0:0:0:0:
88,28,76020,6,0,L|12:28,2,65.625,0|0|8,0:0|0:0|0:0,0:0:0:0:
219,28,76363,1,0,0:0:0:0:
153,28,76449,1,0,0:0:0:0:
87,28,76535,1,8,0:1:0:0:
360,352,76706,5,0,1:0:0:0:
294,352,76792,1,0,1:0:0:0:
228,352,76878,1,8,1:0:0:0:
360,352,77049,2,0,L|428:352,1,65.625,0|0,1:0|1:0,1:0:0:0:
234,263,77220,1,8,1:1:0:0:
168,264,77306,1,0,1:0:0:0:
104,264,77392,1,0,1:0:0:0:
168,268,77478,1,0,1:0:0:0:
408,180,77563,6,0,P|492:104|396:40,1,262.5,4|8,0:1|0:1,0:0:0:0:
164,344,78078,2,0,L|420:224,1,262.5,4|8,0:1|1:0,0:0:0:0:
336,232,78506,1,0,1:0:0:0:
132,232,78592,2,0,L|132:144,1,65.625,8|0,1:0|1:0,1:0:0:0:
328,168,78763,6,0,L|84:328,1,262.5,4|0,0:1|0:0,0:0:0:0:
260,316,79278,1,8,0:1:0:0:
24,312,79449,1,0,0:0:0:0:
280,316,79620,2,0,L|280:176,1,131.25,8|0,0:0|0:0,0:0:0:0:
128,188,79963,1,8,0:1:0:0:
368,88,80135,6,0,L|120:188,1,262.5,4|0,0:1|0:0,0:0:0:0:
260,184,80649,2,0,L|108:188,1,131.25,8|0,0:1|0:0,0:0:0:0:
368,360,80992,2,0,L|400:208,1,131.25,8|0,0:0|0:0,0:0:0:0:
232,232,81335,1,8,0:1:0:0:
428,240,81506,1,0,0:0:0:0:
164,352,81678,6,0,L|160:192,1,131.25,4|0,0:1|0:0,0:0:0:0:
292,212,82020,2,0,L|292:52,1,131.25,8|0,0:1|0:0,0:0:0:0:
436,216,82363,2,0,L|452:68,1,131.25,8|0,0:0|0:0,0:0:0:0:
176,80,82706,6,0,L|36:148,2,131.25,8|0|0,0:1|0:0|0:0,0:0:0:0:
424,336,83220,2,0,L|140:336,1,262.5,8|0,0:1|1:0,0:0:0:0:
226,336,83649,1,0,1:0:0:0:
408,248,83735,1,0,1:0:0:0:
465,227,83820,1,0,1:0:0:0:
465,165,83906,1,0,1:0:0:0:
407,144,83992,1,0,1:0:0:0:
208,144,84078,2,0,L|144:100,1,65.625,0|0,1:0|1:0,1:0:0:0:
368,144,84249,2,0,L|432:100,1,65.625,0|0,1:0|1:0,1:0:0:0:
200,352,84420,6,0,L|200:216,1,131.25,4|0,0:1|0:0,0:0:0:0:
328,212,84763,2,0,L|480:152,1,131.25,8|0,0:1|0:0,0:0:0:0:
208,136,85106,2,0,L|416:92,2,196.875,8|0|0,0:0|0:0|0:0,0:0:0:0:
440,360,85792,6,0,L|448:216,1,131.25,8|0,0:0|0:0,0:0:0:0:
208,228,86135,2,0,L|184:80,1,131.25,8|0,0:1|0:0,0:0:0:0:
440,88,86478,1,8,0:0:0:0:
280,92,86649,1,0,0:0:0:0:
348,92,86735,1,0,0:0:0:0:
412,92,86820,1,8,0:1:0:0:
132,224,86992,1,8,0:0:0:0:
384,364,87163,5,4,0:1:0:0:
492,301,87335,1,0,0:0:0:0:
488,176,87506,1,8,0:1:0:0:
376,121,87678,1,0,0:0:0:0:
120,300,87849,2,0,L|163:170,1,131.25,8|8,0:0|0:0,0:0:0:0:
253,178,88106,1,8,0:0:0:0:
460,304,88192,2,0,L|415:177,1,131.25,8|8,0:1|0:0,0:0:0:0:
338,181,88449,1,8,0:0:0:0:
136,208,88535,6,0,P|52:156|128:64,1,196.875,4|8,0:1|0:0,0:0:0:0:
138,61,88878,1,8,0:0:0:0:
376,352,89049,2,0,L|100:264,1,262.5,4|0,0:1|1:0,0:0:0:0:
124,200,89478,1,0,1:0:0:0:
288,196,89563,2,0,L|368:196,1,65.625,0|0,1:0|1:0,1:0:0:0:
353,196,89735,2,0,L|276:196,1,65.625,0|0,1:0|1:0,1:0:0:0:
88,152,89906,6,0,L|220:88,2,131.25,12|0|0,0:1|0:0|0:0,0:0:0:0:
324,152,90420,1,12,0:1:0:0:
200,152,90592,2,0,L|200:12,1,131.25
444,24,90935,2,0,L|324:96,1,131.25,12|0,0:1|0:0,0:0:0:0:
100,344,91278,5,12,0:1:0:0:
226,309,91449,1,0,0:0:0:0:
353,275,91620,1,0,0:0:0:0:
116,236,91792,2,0,L|116:88,1,131.25,12|0,0:1|0:0,0:0:0:0:
244,104,92135,2,0,L|320:104,1,65.625,8|0,1:0|1:0,1:0:0:0:
244,104,92306,2,0,L|160:104,1,65.625,0|0,1:0|1:0,1:0:0:0:
376,104,92478,2,0,L|376:24,1,65.625,0|0,1:0|1:0,1:0:0:0:
176,352,92649,6,0,L|80:352,1,65.625,4|0,1:1|1:0,1:0:0:0:
288,284,92820,2,0,L|376:284,1,65.625,0|0,1:0|1:0,1:0:0:0:
272,272,92992,2,0,L|272:168,1,65.625,8|0,1:0|1:0,1:0:0:0:
448,160,93163,2,0,L|512:208,1,65.625,4|0,1:1|1:0,1:0:0:0:
292,144,93335,2,0,L|292:68,1,65.625,0|0,1:0|1:0,1:0:0:0:
376,32,93506,2,0,L|292:32,1,65.625,8|0,1:0|1:0,1:0:0:0:
120,36,93678,2,0,L|216:36,1,65.625,4|0,1:1|1:0,1:0:0:0:
396,344,93849,2,0,L|300:344,1,65.625,0|0,1:0|1:0,1:0:0:0:
256,344,94020,6,0,L|236:252,1,65.625,8|0,1:0|1:0,1:0:0:0:
412,248,94192,2,0,L|500:212,1,65.625,4|0,1:1|1:0,1:0:0:0:
260,224,94363,2,0,L|184:164,1,65.625,0|0,1:0|1:0,1:0:0:0:
408,176,94535,2,0,L|408:80,1,65.625,0|0,1:0|1:0,1:0:0:0:
192,164,94706,1,0,1:0:0:0:
444,76,94878,5,8,1:0:0:0:
273,75,95049,1,0,1:0:0:0:
444,76,95220,1,8,1:0:0:0:
138,343,95392,5,12,1:1:0:0:
23,354,95563,1,0,1:0:0:0:
30,239,95735,1,0,1:0:0:0:
142,265,95906,1,0,1:0:0:0:
376,356,96078,1,12,1:1:0:0:
492,361,96249,1,0,1:0:0:0:
483,245,96420,1,0,1:0:0:0:
369,268,96592,1,0,1:0:0:0:
112,340,96763,6,0,L|112:200,1,131.25,12|0,1:1|1:0,1:0:0:0:
180,208,97020,1,0,1:0:0:0:
248,208,97106,2,0,L|88:208,1,131.25,0|0,1:0|1:0,1:0:0:0:
180,208,97363,1,0,1:0:0:0:
376,348,97449,2,0,L|503:254,1,131.25,12|0,1:1|1:0,1:0:0:0:
327,273,97706,1,0,1:0:0:0:
172,265,97792,2,0,L|98:142,1,131.25,0|0,1:0|1:0,1:0:0:0:
288,288,98135,6,0,L|388:216,2,105
392,296,98649,2,0,P|424:236|320:160,1,210
168,368,99163,6,0,P|80:332|192:112,1,420
240,112,99935,1,0,0:0:0:0:
292,112,100020,1,8,0:2:0:0:
344,112,100106,1,0,0:0:0:0:
144,48,100192,6,0,L|60:48,2,52.5,8|0|8,0:1|0:0|0:2,0:0:0:0:
372,356,100535,2,8,L|372:232,1,105,8|8,0:1|0:1,0:1:0:0:
124,204,100878,5,0,1:0:0:0:
280,204,101049,1,0,1:0:0:0:
124,204,101220,1,0,1:0:0:0:
388,192,101392,1,0,1:0:0:0:
124,148,101563,2,0,L|209:148,1,52.5,4|0,1:1|1:0,1:0:0:0:
424,148,101735,2,0,L|332:148,1,52.5,4|0,1:1|1:0,1:0:0:0:
124,204,101906,1,0,1:0:0:0:
492,208,102078,1,4,1:1:0:0:
