osu file format v14

[General]
AudioFilename: audio.mp3
AudioLeadIn: 0
PreviewTime: 142206
Countdown: 0
SampleSet: Normal
StackLeniency: 0.7
Mode: 1
LetterboxInBreaks: 0
WidescreenStoryboard: 0

[Editor]
DistanceSpacing: 1.4
BeatDivisor: 8
GridSize: 32
TimelineZoom: 5.199998

[Metadata]
Title:KOMM, SUESSER TOD (M-10 Director's Edit Version)
TitleUnicode:KOMM, SÜSSER TOD (M-10 Director's Edit Version)
Artist:ARIANNE
ArtistUnicode:ARIANNE
Creator:closed
Version:Come, Sweet Death
Source:新世紀エヴァンゲリオン劇場版
Tags:neon genesis end of evangelion english tumbling down anime shiro sagisu 鷺巣 詩郎 Schreiber 新世紀エヴァンゲリオン劇場版 Airエア/まごころを、君に 甘き死よ、来たれ Cleopatra süßer susser
BeatmapID:2457032
BeatmapSetID:1178152

[Difficulty]
HPDrainRate:4
CircleSize:5
OverallDifficulty:6
ApproachRate:5
SliderMultiplier:1.4
SliderTickRate:1

[Events]
//Background and Video events
0,0,"aTJsHC.jpg",0,0
//Break Periods
//Storyboard Layer 0 (Background)
//Storyboard Layer 1 (Fail)
//Storyboard Layer 2 (Pass)
//Storyboard Layer 3 (Foreground)
//Storyboard Layer 4 (Overlay)
//Storyboard Sound Samples

[TimingPoints]
429,392.156862745098,4,1,0,50,1,0
429,-100.657894736842,4,1,0,50,0,0
5134,395.256916996047,4,1,0,50,1,0
5134,-99.8684210526317,4,1,0,50,0,0
8296,395.256916996047,4,1,0,50,1,8
8296,-99.8684210526317,4,1,0,50,0,8
8312,397.350993377483,4,1,0,50,1,0
8312,-99.342105263158,4,1,0,50,0,0
9901,394.736842105263,4,1,0,50,1,0
9901,-100,4,1,0,50,0,0
11479,389.61038961039,4,1,0,50,1,0
11479,-101.315789473684,4,1,0,50,0,0
12647,408.163265306122,4,1,0,50,1,8
12647,-96.7105263157896,4,1,0,50,0,8
13067,395.256916996047,4,1,0,50,1,0
13067,-99.8684210526317,4,1,0,50,0,0
104756,395.64787339268,4,1,0,50,1,0
104756,-99.7697368421054,4,1,0,50,0,0
149068,393.44262295082,4,1,0,60,1,1
149068,-100.328947368421,4,1,0,60,0,1
155363,395.5174686882,4,1,0,50,1,0
155363,-99.8026315789475,4,1,0,50,0,0
161691,-99.8026315789475,4,1,0,50,0,1
168019,-99.8026315789475,4,1,0,50,0,0
180676,394.218134034166,4,1,0,60,1,1
180676,-100.131578947368,4,1,0,60,0,1
181446,-100.131578947368,4,1,0,65,0,1
182236,-100.131578947368,4,1,0,70,0,1
183027,-100.131578947368,4,1,0,70,0,1
183817,-100.131578947368,4,1,0,70,0,1
188561,395.256916996047,4,1,0,70,1,1
188561,-99.8684210526317,4,1,0,70,0,1
188595,395.335046451868,4,1,0,60,1,8
188595,-99.8486842105263,4,1,0,60,0,8
234453,-99.8486842105263,4,1,0,60,0,9
240779,-99.8486842105263,4,1,0,60,0,8
247104,-99.8486842105263,4,1,0,60,0,9
253429,-99.8486842105263,4,1,0,60,0,8
259755,-99.8486842105263,4,1,0,60,0,9
266080,-99.8486842105263,4,1,0,60,0,8
272406,-99.8486842105263,4,1,0,60,0,9
278731,-99.8486842105263,4,1,0,60,0,8
291382,394.736842105263,4,1,0,60,1,1
291382,-100,4,1,0,60,0,1
302434,395.93506664907,4,1,0,60,1,1
302434,-99.6973684210525,4,1,0,60,0,1
311936,395.361096468108,4,1,0,60,1,1
311936,-99.8421052631578,4,1,0,60,0,1
341983,395.048722675797,4,1,0,70,1,1
341983,-99.9210526315789,4,1,0,70,0,1
354624,395.5174686882,4,1,0,70,1,1
354624,-99.8026315789475,4,1,0,70,0,1
376772,394.996708360764,4,1,0,60,1,1
376772,-99.9342105263157,4,1,0,60,0,1
390991,395.64787339268,4,1,0,70,1,1
390991,-99.7697368421054,4,1,0,70,0,1
409982,394.736842105263,4,1,0,60,1,1
409982,-100,4,1,0,60,0,1
417876,395.256916996047,4,1,0,60,1,1
417876,-99.8684210526317,4,1,0,60,0,1
433686,395.5174686882,4,1,0,60,1,1
433686,-99.8026315789475,4,1,0,60,0,1
449506,402.684563758389,4,1,0,60,1,1
449506,-98.0263157894737,4,1,0,60,0,1
451520,384.615384615385,4,1,0,60,1,9
451520,-102.631578947368,4,1,0,60,0,9
451947,-119.047619047619,4,1,0,60,0,9
452421,-136.986301369863,4,1,0,60,0,9
453015,379.746835443038,4,1,0,60,1,1
453015,-166.666666666667,4,1,0,60,0,9
458616,-166.666666666667,4,1,0,60,0,0

[HitObjects]
256,192,429,5,8,0:0:0:0:
256,192,821,1,8,0:0:0:0:
256,192,1066,1,0,0:0:0:0:
256,192,1213,1,8,0:0:0:0:
256,192,1458,1,8,0:0:0:0:
256,192,1605,1,8,0:0:0:0:
256,192,1997,1,8,0:0:0:0:
256,192,2781,1,8,0:0:0:0:
256,192,3174,1,0,0:0:0:0:
256,192,3566,1,8,0:0:0:0:
256,192,4350,1,8,0:0:0:0:
256,192,4595,1,0,0:0:0:0:
256,192,4742,1,8,0:0:0:0:
256,192,5134,1,8,0:0:0:0:
256,192,5924,1,8,0:0:0:0:
256,192,6319,1,0,0:0:0:0:
256,192,6715,1,0,0:0:0:0:
256,192,7505,1,8,0:0:0:0:
256,192,7900,1,8,0:0:0:0:
256,192,8312,1,0,0:0:0:0:
256,192,9106,1,8,0:0:0:0:
256,192,9504,1,0,0:0:0:0:
256,192,9901,1,0,0:0:0:0:
256,192,10690,1,8,0:0:0:0:
256,192,10937,1,0,0:0:0:0:
256,192,11085,1,8,0:0:0:0:
256,192,11479,1,8,0:0:0:0:
251,195,12112,1,0,0:0:0:0:
256,192,12258,1,0,0:0:0:0:
256,192,12501,1,0,0:0:0:0:
256,192,12647,1,8,0:0:0:0:
256,192,12902,1,0,0:0:0:0:
256,192,13067,1,12,0:0:0:0:
256,192,13462,1,0,0:0:0:0:
256,192,13709,1,8,0:0:0:0:
256,192,13857,1,8,0:0:0:0:
256,192,14104,1,8,0:0:0:0:
256,192,14252,1,0,0:0:0:0:
256,192,14648,1,8,0:0:0:0:
256,192,15438,1,8,0:0:0:0:
256,192,15833,1,0,0:0:0:0:
256,192,16229,1,8,0:0:0:0:
256,192,17019,1,8,0:0:0:0:
256,192,17266,1,0,0:0:0:0:
256,192,17414,1,0,0:0:0:0:
256,192,17810,1,0,0:0:0:0:
256,192,18600,1,8,0:0:0:0:
256,192,18995,1,8,0:0:0:0:
256,192,19391,1,0,0:0:0:0:
256,192,20181,1,8,0:0:0:0:
256,192,20576,1,0,0:0:0:0:
256,192,20972,1,0,0:0:0:0:
256,192,21762,1,8,0:0:0:0:
256,192,22157,1,0,0:0:0:0:
256,192,22553,1,0,0:0:0:0:
256,192,23343,1,8,0:0:0:0:
256,192,23738,1,0,0:0:0:0:
256,192,24134,1,0,0:0:0:0:
256,192,24381,1,8,0:0:0:0:
256,192,24776,1,8,0:0:0:0:
256,192,24924,1,8,0:0:0:0:
256,192,25171,1,0,0:0:0:0:
256,192,25319,1,8,0:0:0:0:
256,192,25715,1,12,0:0:0:0:
256,192,26110,1,8,0:0:0:0:
256,192,26357,1,0,0:0:0:0:
256,192,26505,1,8,0:0:0:0:
256,192,26752,1,8,0:0:0:0:
256,192,26900,1,8,0:0:0:0:
256,192,27296,1,0,0:0:0:0:
256,192,27691,1,8,0:0:0:0:
256,192,28086,1,8,0:0:0:0:
256,192,28482,1,0,0:0:0:0:
256,192,28877,1,8,0:0:0:0:
256,192,29667,1,8,0:0:0:0:
256,192,29914,1,0,0:0:0:0:
256,192,30063,1,8,0:0:0:0:
256,192,30458,1,8,0:0:0:0:
256,192,31248,1,8,0:0:0:0:
256,192,31644,1,8,0:0:0:0:
256,192,32039,1,0,0:0:0:0:
256,192,32829,1,8,0:0:0:0:
256,192,33225,1,0,0:0:0:0:
256,192,33620,1,0,0:0:0:0:
256,192,34410,1,8,0:0:0:0:
256,192,34806,1,0,0:0:0:0:
256,192,35201,1,0,0:0:0:0:
256,192,35399,1,0,0:0:0:0:
256,192,35843,1,0,0:0:0:0:
256,192,35991,1,8,0:0:0:0:
256,192,36238,1,0,0:0:0:0:
256,192,36387,1,0,0:0:0:0:
256,192,36782,1,8,0:0:0:0:
256,192,37177,1,8,0:0:0:0:
256,192,37375,1,0,0:0:0:0:
256,192,37474,1,0,0:0:0:0:
256,192,37572,1,8,0:0:0:0:
256,192,37770,1,8,0:0:0:0:
256,192,37968,1,0,0:0:0:0:
256,192,38363,1,12,0:0:0:0:
256,192,38758,1,8,0:0:0:0:
256,192,39005,1,8,0:0:0:0:
256,192,39153,1,0,0:0:0:0:
256,192,39400,1,0,0:0:0:0:
256,192,39549,1,8,0:0:0:0:
256,192,39944,1,8,0:0:0:0:
256,192,40734,1,8,0:0:0:0:
256,192,41130,1,0,0:0:0:0:
256,192,41327,1,8,0:0:0:0:
256,192,41426,1,8,0:0:0:0:
256,192,41525,1,0,0:0:0:0:
256,192,41723,1,8,0:0:0:0:
256,192,41920,1,0,0:0:0:0:
256,192,42316,1,8,0:0:0:0:
256,192,42563,1,0,0:0:0:0:
256,192,42711,1,8,0:0:0:0:
256,192,43106,1,8,0:0:0:0:
256,192,43897,1,8,0:0:0:0:
256,192,44144,1,0,0:0:0:0:
256,192,44292,1,8,0:0:0:0:
256,192,44489,1,8,0:0:0:0:
256,192,44588,1,8,0:0:0:0:
256,192,44687,1,0,0:0:0:0:
256,192,44885,1,8,0:0:0:0:
256,192,45329,1,0,0:0:0:0:
256,192,45478,1,8,0:0:0:0:
256,192,45873,1,0,0:0:0:0:
256,192,46268,1,0,0:0:0:0:
256,192,47059,1,8,0:0:0:0:
256,192,47306,1,0,0:0:0:0:
256,192,47454,1,8,0:0:0:0:
256,192,47651,1,8,0:0:0:0:
256,192,47750,1,8,0:0:0:0:
256,192,47849,1,4,0:0:0:0:
256,192,48244,1,8,0:0:0:0:
256,192,48640,1,0,0:0:0:0:
256,192,49282,1,0,0:0:0:0:
256,192,49430,1,0,0:0:0:0:
256,192,49677,1,8,0:0:0:0:
256,192,49825,1,0,0:0:0:0:
256,192,50072,1,8,0:0:0:0:
256,192,50221,1,8,0:0:0:0:
256,192,50468,1,8,0:0:0:0:
256,192,50616,1,0,0:0:0:0:
256,192,51011,1,4,0:0:0:0:
256,192,51406,1,0,0:0:0:0:
256,192,51653,1,0,0:0:0:0:
256,192,51802,1,8,0:0:0:0:
256,192,52049,1,8,0:0:0:0:
256,192,52197,1,8,0:0:0:0:
256,192,52592,1,0,0:0:0:0:
256,192,52987,1,0,0:0:0:0:
256,192,53383,1,8,0:0:0:0:
256,192,53778,1,8,0:0:0:0:
256,192,54173,1,0,0:0:0:0:
256,192,54420,1,8,0:0:0:0:
256,192,54568,1,8,0:0:0:0:
256,192,54964,1,8,0:0:0:0:
256,192,55211,1,0,0:0:0:0:
256,192,55359,1,8,0:0:0:0:
256,192,55606,1,8,0:0:0:0:
256,192,55754,1,8,0:0:0:0:
256,192,56150,1,0,0:0:0:0:
256,192,56545,1,8,0:0:0:0:
256,192,56792,1,0,0:0:0:0:
256,192,56940,1,8,0:0:0:0:
256,192,57335,1,8,0:0:0:0:
256,192,57582,1,0,0:0:0:0:
256,192,57731,1,0,0:0:0:0:
256,192,58126,1,8,0:0:0:0:
256,192,58373,1,0,0:0:0:0:
256,192,58521,1,8,0:0:0:0:
256,192,58916,1,8,0:0:0:0:
256,192,59163,1,8,0:0:0:0:
256,192,59312,1,8,0:0:0:0:
256,192,59707,1,8,0:0:0:0:
256,192,60102,1,0,0:0:0:0:
256,192,60497,1,0,0:0:0:0:
256,192,60744,1,0,0:0:0:0:
256,192,60893,1,0,0:0:0:0:
256,192,61140,1,8,0:0:0:0:
256,192,61288,1,8,0:0:0:0:
256,192,61535,1,0,0:0:0:0:
256,192,61683,1,8,0:0:0:0:
256,192,62078,1,0,0:0:0:0:
256,192,62474,1,8,0:0:0:0:
256,192,62869,1,8,0:0:0:0:
256,192,63264,1,0,0:0:0:0:
256,192,63659,1,4,0:0:0:0:
256,192,64055,1,0,0:0:0:0:
256,192,64302,1,0,0:0:0:0:
256,192,64450,1,8,0:0:0:0:
256,192,64697,1,8,0:0:0:0:
256,192,64845,1,0,0:0:0:0:
256,192,65240,1,8,0:0:0:0:
256,192,65636,1,8,0:0:0:0:
256,192,65883,1,8,0:0:0:0:
256,192,66031,1,8,0:0:0:0:
256,192,66278,1,8,0:0:0:0:
256,192,66426,1,0,0:0:0:0:
256,192,66821,1,8,0:0:0:0:
256,192,67217,1,0,0:0:0:0:
256,192,67612,1,8,0:0:0:0:
256,192,67859,1,0,0:0:0:0:
256,192,68007,1,8,0:0:0:0:
256,192,68402,1,8,0:0:0:0:
256,192,68650,1,8,0:0:0:0:
256,192,68798,1,8,0:0:0:0:
256,192,69193,1,8,0:0:0:0:
256,192,69440,1,0,0:0:0:0:
256,192,69588,1,8,0:0:0:0:
256,192,69983,1,8,0:0:0:0:
256,192,70379,1,0,0:0:0:0:
256,192,70774,1,8,0:0:0:0:
256,192,71021,1,0,0:0:0:0:
256,192,71169,1,8,0:0:0:0:
256,192,71565,1,8,0:0:0:0:
256,192,71960,1,8,0:0:0:0:
256,192,72355,1,8,0:0:0:0:
256,192,72602,1,0,0:0:0:0:
256,192,72750,1,8,0:0:0:0:
256,192,73146,1,0,0:0:0:0:
256,192,73541,1,0,0:0:0:0:
256,192,73936,1,8,0:0:0:0:
256,192,74578,1,8,0:0:0:0:
256,192,74727,1,0,0:0:0:0:
256,192,75122,1,0,0:0:0:0:
256,192,75369,1,8,0:0:0:0:
256,192,75517,1,8,0:0:0:0:
256,192,75764,1,0,0:0:0:0:
256,192,75912,1,8,0:0:0:0:
256,192,76308,1,12,0:0:0:0:
256,192,76555,1,8,0:0:0:0:
256,192,76703,1,0,0:0:0:0:
256,192,77098,1,8,0:0:0:0:
256,192,77493,1,0,0:0:0:0:
256,192,77740,1,0,0:0:0:0:
256,192,77889,1,12,0:0:0:0:
256,192,78284,1,0,0:0:0:0:
256,192,78679,1,0,0:0:0:0:
256,192,79074,1,8,0:0:0:0:
256,192,79321,1,8,0:0:0:0:
256,192,79470,1,4,0:0:0:0:
256,192,79865,1,0,0:0:0:0:
256,192,80260,1,8,0:0:0:0:
256,192,80655,1,0,0:0:0:0:
256,192,80902,1,0,0:0:0:0:
256,192,81051,1,8,0:0:0:0:
256,192,81446,1,0,0:0:0:0:
256,192,81841,1,8,0:0:0:0:
256,192,82236,1,8,0:0:0:0:
256,192,82483,1,8,0:0:0:0:
256,192,82632,1,0,0:0:0:0:
256,192,83027,1,8,0:0:0:0:
256,192,83422,1,8,0:0:0:0:
256,192,83817,1,0,0:0:0:0:
256,192,84213,1,8,0:0:0:0:
256,192,84608,1,8,0:0:0:0:
256,192,84806,1,0,0:0:0:0:
256,192,85003,1,8,0:0:0:0:
256,192,85399,1,8,0:0:0:0:
256,192,85794,1,8,0:0:0:0:
256,192,86041,1,8,0:0:0:0:
256,192,86189,1,0,0:0:0:0:
256,192,86584,1,8,0:0:0:0:
256,192,86980,1,0,0:0:0:0:
256,192,87375,1,8,0:0:0:0:
256,192,87622,1,8,0:0:0:0:
256,192,87770,1,0,0:0:0:0:
256,192,88017,1,8,0:0:0:0:
256,192,88165,1,8,0:0:0:0:
256,192,88561,1,0,0:0:0:0:
256,192,88808,1,8,0:0:0:0:
256,192,88956,1,4,0:0:0:0:
256,192,89351,1,0,0:0:0:0:
256,192,89598,1,0,0:0:0:0:
256,192,89746,1,0,0:0:0:0:
256,192,90142,1,8,0:0:0:0:
256,192,90389,1,8,0:0:0:0:
256,192,90537,1,4,0:0:0:0:
256,192,90932,1,8,0:0:0:0:
256,192,91327,1,0,0:0:0:0:
256,192,91723,1,8,0:0:0:0:
256,192,91920,1,8,0:0:0:0:
256,192,92019,1,8,0:0:0:0:
256,192,92118,1,4,0:0:0:0:
224,192,92513,1,8,0:0:0:0:
224,192,92908,1,0,0:0:0:0:
224,192,93304,1,8,0:0:0:0:
224,192,93551,1,0,0:0:0:0:
224,192,93699,1,8,0:0:0:0:
224,192,93946,1,8,0:0:0:0:
224,192,94094,1,0,0:0:0:0:
224,192,94489,1,0,0:0:0:0:
224,192,94885,1,8,0:0:0:0:
224,192,95132,1,8,0:0:0:0:
256,192,95280,1,0,0:0:0:0:
256,192,95675,1,0,0:0:0:0:
256,192,96070,1,8,0:0:0:0:
256,192,96466,1,8,0:0:0:0:
256,192,96663,1,8,0:0:0:0:
256,192,96861,1,0,0:0:0:0:
256,192,97256,1,0,0:0:0:0:
256,192,97454,1,8,0:0:0:0:
256,192,97651,1,8,0:0:0:0:
256,192,98047,1,0,0:0:0:0:
256,192,98244,1,0,0:0:0:0:
256,192,98343,1,0,0:0:0:0:
256,192,98442,1,12,0:0:0:0:
256,192,98837,1,8,0:0:0:0:
256,192,99233,1,8,0:0:0:0:
256,192,99480,1,0,0:0:0:0:
224,192,99628,1,0,0:0:0:0:
256,192,99825,1,0,0:0:0:0:
256,192,99891,1,0,0:0:0:0:
256,192,99957,1,0,0:0:0:0:
256,192,100023,1,8,0:0:0:0:
256,192,100814,1,8,0:0:0:0:
256,192,102246,1,0,0:0:0:0:
256,192,102395,1,8,0:0:0:0:
256,192,102790,1,8,0:0:0:0:
256,192,103037,1,0,0:0:0:0:
256,192,103185,1,0,0:0:0:0:
256,192,103827,1,8,0:0:0:0:
256,192,103976,1,8,0:0:0:0:
256,192,104371,1,0,0:0:0:0:
256,192,104756,1,12,0:0:0:0:
256,192,105151,1,8,0:0:0:0:
256,192,105398,1,0,0:0:0:0:
256,192,105547,1,8,0:0:0:0:
256,192,105794,1,0,0:0:0:0:
256,192,105942,1,8,0:0:0:0:
256,192,106338,1,8,0:0:0:0:
256,192,106734,1,0,0:0:0:0:
256,192,106981,1,0,0:0:0:0:
256,192,107129,1,8,0:0:0:0:
256,192,107525,1,0,0:0:0:0:
256,192,107921,1,0,0:0:0:0:
256,192,108316,1,8,0:0:0:0:
256,192,108712,1,8,0:0:0:0:
256,192,108959,1,8,0:0:0:0:
256,192,109108,1,0,0:0:0:0:
256,192,109503,1,8,0:0:0:0:
256,192,109751,1,0,0:0:0:0:
256,192,109899,1,8,0:0:0:0:
256,192,110295,1,8,0:0:0:0:
256,192,110542,1,8,0:0:0:0:
256,192,110690,1,0,0:0:0:0:
256,192,111086,1,0,0:0:0:0:
256,192,111482,1,8,0:0:0:0:
256,192,111877,1,8,0:0:0:0:
256,192,112273,1,0,0:0:0:0:
256,192,112668,1,8,0:0:0:0:
256,192,112916,1,0,0:0:0:0:
256,192,113064,1,0,0:0:0:0:
256,192,113460,1,8,0:0:0:0:
256,192,113855,1,0,0:0:0:0:
256,192,114251,1,8,0:0:0:0:
256,192,114498,1,8,0:0:0:0:
256,192,114647,1,0,0:0:0:0:
256,192,114894,1,0,0:0:0:0:
256,192,115042,1,8,0:0:0:0:
256,192,115290,1,0,0:0:0:0:
256,192,115438,1,8,0:0:0:0:
256,192,115834,1,8,0:0:0:0:
256,192,116031,1,0,0:0:0:0:
256,192,116229,1,8,0:0:0:0:
256,192,116625,1,8,0:0:0:0:
256,192,117021,1,0,0:0:0:0:
256,192,117416,1,12,0:0:0:0:
256,192,117812,1,8,0:0:0:0:
256,192,118059,1,8,0:0:0:0:
256,192,118208,1,8,0:0:0:0:
256,192,118455,1,8,0:0:0:0:
256,192,118603,1,0,0:0:0:0:
256,192,118999,1,8,0:0:0:0:
256,192,119394,1,0,0:0:0:0:
256,192,119642,1,8,0:0:0:0:
256,192,119790,1,8,0:0:0:0:
256,192,120186,1,8,0:0:0:0:
256,192,120581,1,0,0:0:0:0:
256,192,120829,1,0,0:0:0:0:
256,192,120977,1,0,0:0:0:0:
256,192,121373,1,8,0:0:0:0:
256,192,121620,1,0,0:0:0:0:
256,192,121768,1,8,0:0:0:0:
256,192,122164,1,8,0:0:0:0:
256,192,122411,1,0,0:0:0:0:
256,192,122560,1,8,0:0:0:0:
256,192,122955,1,8,0:0:0:0:
256,192,123203,1,8,0:0:0:0:
256,192,123351,1,0,0:0:0:0:
256,192,123747,1,0,0:0:0:0:
256,192,123994,1,8,0:0:0:0:
256,192,124142,1,8,0:0:0:0:
256,192,124538,1,8,0:0:0:0:
256,192,124785,1,0,0:0:0:0:
256,192,124934,1,8,0:0:0:0:
256,192,125329,1,0,0:0:0:0:
256,192,125725,1,8,0:0:0:0:
256,192,125972,1,8,0:0:0:0:
256,192,126120,1,8,0:0:0:0:
256,192,126516,1,0,0:0:0:0:
256,192,126912,1,8,0:0:0:0:
256,192,127307,1,0,0:0:0:0:
256,192,127703,1,8,0:0:0:0:
256,192,128099,1,0,0:0:0:0:
256,192,128346,1,0,0:0:0:0:
256,192,128494,1,0,0:0:0:0:
256,192,128890,1,8,0:0:0:0:
256,192,129137,1,8,0:0:0:0:
256,192,129286,1,8,0:0:0:0:
256,192,129399,1,0,0:0:0:0:
256,192,129512,1,8,0:0:0:0:
256,192,129681,1,8,0:0:0:0:
256,192,130077,1,0,0:0:0:0:
256,192,130473,1,0,0:0:0:0:
256,192,130868,1,12,0:0:0:0:
256,192,131264,1,8,0:0:0:0:
256,192,131660,1,8,0:0:0:0:
256,192,132055,1,0,0:0:0:0:
256,192,132451,1,12,0:0:0:0:
256,192,132846,1,0,0:0:0:0:
256,192,133242,1,8,0:0:0:0:
256,192,133638,1,0,0:0:0:0:
256,192,134033,1,12,0:0:0:0:
256,192,134429,1,0,0:0:0:0:
256,192,134825,1,8,0:0:0:0:
256,192,134938,1,8,0:0:0:0:
256,192,135051,1,8,0:0:0:0:
256,192,135196,1,8,0:0:0:0:
256,192,135616,1,12,0:0:0:0:
256,192,136012,1,0,0:0:0:0:
256,192,136407,1,8,0:0:0:0:
256,192,136803,1,0,0:0:0:0:
256,192,137199,1,12,0:0:0:0:
256,192,137594,1,8,0:0:0:0:
256,192,137842,1,0,0:0:0:0:
256,192,137990,1,0,0:0:0:0:
256,192,138386,1,0,0:0:0:0:
256,192,138781,1,12,0:0:0:0:
256,192,139177,1,0,0:0:0:0:
256,192,139573,1,8,0:0:0:0:
256,192,139968,1,0,0:0:0:0:
256,192,140215,1,0,0:0:0:0:
256,192,140364,1,12,0:0:0:0:
256,192,140759,1,0,0:0:0:0:
256,192,141155,1,8,0:0:0:0:
256,192,141268,1,8,0:0:0:0:
256,192,141381,1,8,0:0:0:0:
256,192,141526,1,8,0:0:0:0:
256,192,141946,1,4,0:0:0:0:
256,192,142342,1,0,0:0:0:0:
256,192,142738,1,8,0:0:0:0:
256,192,143133,1,0,0:0:0:0:
256,192,143529,1,8,0:0:0:0:
256,192,143776,1,0,0:0:0:0:
256,192,143925,1,8,0:0:0:0:
256,192,144320,1,0,0:0:0:0:
256,192,144568,1,8,0:0:0:0:
256,192,144716,1,8,0:0:0:0:
256,192,145112,1,8,0:0:0:0:
256,192,145359,1,0,0:0:0:0:
256,192,145507,1,0,0:0:0:0:
256,192,145755,1,8,0:0:0:0:
256,192,145903,1,0,0:0:0:0:
256,192,146150,1,8,0:0:0:0:
256,192,146299,1,8,0:0:0:0:
256,192,146546,1,0,0:0:0:0:
256,192,146694,1,8,0:0:0:0:
256,192,147090,1,0,0:0:0:0:
256,192,147288,1,0,0:0:0:0:
256,192,147387,1,0,0:0:0:0:
256,192,147485,1,0,0:0:0:0:
256,192,147733,1,8,0:0:0:0:
256,192,147881,1,0,0:0:0:0:
256,192,148277,1,8,0:0:0:0:
256,192,148672,1,8,0:0:0:0:
256,192,148771,1,8,0:0:0:0:
256,192,148870,1,8,0:0:0:0:
256,192,148969,1,8,0:0:0:0:
256,192,149068,1,8,0:0:0:0:
256,192,149313,1,0,0:0:0:0:
256,192,149461,1,8,0:0:0:0:
256,192,149854,1,0,0:0:0:0:
256,192,150100,1,8,0:0:0:0:
256,192,150248,1,0,0:0:0:0:
256,192,150494,1,0,0:0:0:0:
256,192,150641,1,8,0:0:0:0:
256,192,150887,1,8,0:0:0:0:
256,192,151035,1,0,0:0:0:0:
256,192,151428,1,8,0:0:0:0:
256,192,151674,1,0,0:0:0:0:
256,192,151822,1,8,0:0:0:0:
256,192,152018,1,0,0:0:0:0:
256,192,152117,1,0,0:0:0:0:
256,192,152215,1,8,0:0:0:0:
256,192,152461,1,8,0:0:0:0:
256,192,152608,1,0,0:0:0:0:
256,192,153002,1,8,0:0:0:0:
256,192,153248,1,0,0:0:0:0:
256,192,153395,1,8,0:0:0:0:
256,192,153592,1,0,0:0:0:0:
256,192,153690,1,0,0:0:0:0:
256,192,153789,1,0,0:0:0:0:
256,192,154035,1,8,0:0:0:0:
256,192,154182,1,0,0:0:0:0:
256,192,154576,1,8,0:0:0:0:
256,192,154969,1,8,0:0:0:0:
256,192,155068,1,8,0:0:0:0:
256,192,155166,1,8,0:0:0:0:
256,192,155264,1,8,0:0:0:0:
256,192,155363,1,0,0:0:0:0:
256,192,155758,1,8,0:0:0:0:
256,192,156154,1,8,0:0:0:0:
256,192,156401,1,0,0:0:0:0:
256,192,156549,1,8,0:0:0:0:
256,192,156796,1,0,0:0:0:0:
256,192,156945,1,0,0:0:0:0:
256,192,157192,1,8,0:0:0:0:
256,192,157340,1,0,0:0:0:0:
256,192,157736,1,8,0:0:0:0:
256,192,158131,1,0,0:0:0:0:
256,192,158378,1,0,0:0:0:0:
256,192,158527,1,8,0:0:0:0:
256,192,158774,1,8,0:0:0:0:
256,192,158922,1,0,0:0:0:0:
256,192,159318,1,8,0:0:0:0:
256,192,159565,1,0,0:0:0:0:
256,192,159713,1,8,0:0:0:0:
256,192,159911,1,0,0:0:0:0:
256,192,160010,1,0,0:0:0:0:
256,192,160109,1,0,0:0:0:0:
256,192,160356,1,8,0:0:0:0:
256,192,160504,1,0,0:0:0:0:
256,192,160751,1,8,0:0:0:0:
256,192,160900,1,8,0:0:0:0:
256,192,161295,1,0,0:0:0:0:
256,192,161691,1,8,0:0:0:0:
256,192,161938,1,0,0:0:0:0:
256,192,162086,1,8,0:0:0:0:
256,192,162482,1,8,0:0:0:0:
256,192,162729,1,0,0:0:0:0:
256,192,162877,1,8,0:0:0:0:
256,192,163075,1,0,0:0:0:0:
256,192,163174,1,0,0:0:0:0:
256,192,163273,1,8,0:0:0:0:
256,192,163520,1,8,0:0:0:0:
256,192,163668,1,0,0:0:0:0:
256,192,164064,1,8,0:0:0:0:
256,192,164311,1,0,0:0:0:0:
256,192,164459,1,8,0:0:0:0:
256,192,164855,1,0,0:0:0:0:
256,192,165102,1,8,0:0:0:0:
256,192,165250,1,0,0:0:0:0:
256,192,165646,1,8,0:0:0:0:
256,192,165893,1,0,0:0:0:0:
256,192,166041,1,0,0:0:0:0:
256,192,166437,1,12,0:0:0:0:
256,192,166833,1,0,0:0:0:0:
256,192,167080,1,8,0:0:0:0:
256,192,167228,1,8,0:0:0:0:
256,192,167624,1,0,0:0:0:0:
256,192,168019,1,12,0:0:0:0:
256,192,168415,1,0,0:0:0:0:
256,192,168810,1,8,0:0:0:0:
256,192,169206,1,8,0:0:0:0:
256,192,169337,1,0,0:0:0:0:
256,192,169469,1,8,0:0:0:0:
256,192,169601,1,0,0:0:0:0:
256,192,169997,1,0,0:0:0:0:
256,192,170392,1,8,0:0:0:0:
256,192,170590,1,8,0:0:0:0:
256,192,170788,1,0,0:0:0:0:
256,192,170920,1,8,0:0:0:0:
256,192,171051,1,0,0:0:0:0:
256,192,171183,1,0,0:0:0:0:
256,192,171579,1,0,0:0:0:0:
256,192,171974,1,8,0:0:0:0:
256,192,172172,1,8,0:0:0:0:
256,192,172370,1,8,0:0:0:0:
256,192,172502,1,0,0:0:0:0:
256,192,172633,1,0,0:0:0:0:
256,192,172765,1,0,0:0:0:0:
256,192,173012,1,8,0:0:0:0:
256,192,173161,1,0,0:0:0:0:
256,192,173556,1,8,0:0:0:0:
256,192,173804,1,0,0:0:0:0:
256,192,173952,1,8,0:0:0:0:
256,192,174347,1,12,0:0:0:0:
256,192,174743,1,0,0:0:0:0:
256,192,175138,1,8,0:0:0:0:
256,192,175534,1,8,0:0:0:0:
256,192,175781,1,0,0:0:0:0:
256,192,175929,1,8,0:0:0:0:
256,192,176325,1,8,0:0:0:0:
256,192,176572,1,0,0:0:0:0:
256,192,176720,1,0,0:0:0:0:
256,192,177116,1,8,0:0:0:0:
256,192,177215,1,8,0:0:0:0:
256,192,177314,1,0,0:0:0:0:
256,192,177413,1,0,0:0:0:0:
256,192,177511,1,8,0:0:0:0:
256,192,177907,1,8,0:0:0:0:
256,192,178303,1,8,0:0:0:0:
256,192,178698,1,0,0:0:0:0:
256,192,179094,1,8,0:0:0:0:
256,192,179489,1,8,0:0:0:0:
256,192,179885,1,8,0:0:0:0:
256,192,180280,1,0,0:0:0:0:
256,192,180676,1,12,0:0:0:0:
256,192,181070,1,0,0:0:0:0:
256,192,181464,1,12,0:0:0:0:
256,192,181858,1,8,0:0:0:0:
256,192,182252,1,12,0:0:0:0:
256,192,182647,1,0,0:0:0:0:
256,192,183041,1,12,0:0:0:0:
256,192,183435,1,0,0:0:0:0:
256,192,183829,1,12,0:0:0:0:
256,192,184223,1,12,0:0:0:0:
256,192,184618,1,4,0:0:0:0:
256,192,185012,1,12,0:0:0:0:
256,192,185406,1,12,0:0:0:0:
256,192,185800,1,8,0:0:0:0:
256,192,186195,1,8,0:0:0:0:
256,192,186589,1,8,0:0:0:0:
256,192,186983,1,4,0:0:0:0:
256,192,187377,1,0,0:0:0:0:
256,192,187771,1,0,0:0:0:0:
256,192,188166,1,0,0:0:0:0:
256,192,188560,1,12,0:0:0:0:
256,192,189781,1,8,0:0:0:0:
256,192,190176,1,12,0:0:0:0:
256,192,190571,1,8,0:0:0:0:
256,192,190818,1,0,0:0:0:0:
256,192,190967,1,8,0:0:0:0:
256,192,191214,1,8,0:0:0:0:
256,192,191362,1,8,0:0:0:0:
256,192,191609,1,8,0:0:0:0:
256,192,191757,1,0,0:0:0:0:
256,192,192153,1,0,0:0:0:0:
256,192,192400,1,0,0:0:0:0:
256,192,192548,1,8,0:0:0:0:
256,192,192943,1,0,0:0:0:0:
256,192,193141,1,0,0:0:0:0:
256,192,193240,1,0,0:0:0:0:
256,192,193339,1,8,0:0:0:0:
256,192,193586,1,8,0:0:0:0:
256,192,193734,1,0,0:0:0:0:
256,192,194129,1,8,0:0:0:0:
256,192,194376,1,0,0:0:0:0:
256,192,194525,1,8,0:0:0:0:
256,192,194722,1,0,0:0:0:0:
256,192,194821,1,0,0:0:0:0:
256,192,194920,1,8,0:0:0:0:
256,192,195167,1,8,0:0:0:0:
256,192,195315,1,0,0:0:0:0:
256,192,195711,1,8,0:0:0:0:
256,192,196106,1,0,0:0:0:0:
256,192,196304,1,0,0:0:0:0:
256,192,196402,1,0,0:0:0:0:
256,192,196501,1,8,0:0:0:0:
256,192,196748,1,8,0:0:0:0:
256,192,196897,1,0,0:0:0:0:
256,192,197292,1,8,0:0:0:0:
256,192,197539,1,0,0:0:0:0:
256,192,197687,1,8,0:0:0:0:
256,192,197885,1,0,0:0:0:0:
256,192,197984,1,0,0:0:0:0:
256,192,198083,1,8,0:0:0:0:
256,192,198330,1,8,0:0:0:0:
256,192,198478,1,0,0:0:0:0:
256,192,198873,1,8,0:0:0:0:
256,192,199269,1,0,0:0:0:0:
256,192,199664,1,8,0:0:0:0:
256,192,199911,1,0,0:0:0:0:
256,192,200059,1,0,0:0:0:0:
256,192,200306,1,0,0:0:0:0:
256,192,200455,1,8,0:0:0:0:
256,192,200702,1,8,0:0:0:0:
256,192,200850,1,8,0:0:0:0:
256,192,201048,1,0,0:0:0:0:
256,192,201146,1,0,0:0:0:0:
256,192,201245,1,8,0:0:0:0:
256,192,201492,1,8,0:0:0:0:
256,192,201641,1,0,0:0:0:0:
256,192,201888,1,0,0:0:0:0:
256,192,202036,1,8,0:0:0:0:
256,192,202431,1,0,0:0:0:0:
256,192,202678,1,0,0:0:0:0:
256,192,202827,1,12,0:0:0:0:
256,192,203222,1,0,0:0:0:0:
256,192,203469,1,8,0:0:0:0:
256,192,203617,1,8,0:0:0:0:
256,192,203864,1,0,0:0:0:0:
256,192,204013,1,8,0:0:0:0:
256,192,204408,1,0,0:0:0:0:
256,192,204803,1,8,0:0:0:0:
256,192,205050,1,0,0:0:0:0:
256,192,205199,1,8,0:0:0:0:
256,192,205594,1,0,0:0:0:0:
256,192,205792,1,0,0:0:0:0:
256,192,205890,1,0,0:0:0:0:
256,192,205989,1,8,0:0:0:0:
256,192,206236,1,8,0:0:0:0:
256,192,206385,1,0,0:0:0:0:
256,192,206780,1,8,0:0:0:0:
256,192,207027,1,0,0:0:0:0:
256,192,207175,1,8,0:0:0:0:
256,192,207571,1,8,0:0:0:0:
256,192,207818,1,8,0:0:0:0:
256,192,207966,1,8,0:0:0:0:
256,192,208213,1,0,0:0:0:0:
256,192,208361,1,8,0:0:0:0:
256,192,208608,1,8,0:0:0:0:
256,192,208757,1,0,0:0:0:0:
256,192,209152,1,8,0:0:0:0:
256,192,209399,1,0,0:0:0:0:
256,192,209547,1,8,0:0:0:0:
256,192,209943,1,8,0:0:0:0:
256,192,210338,1,0,0:0:0:0:
256,192,210585,1,0,0:0:0:0:
256,192,210733,1,8,0:0:0:0:
256,192,210980,1,8,0:0:0:0:
256,192,211129,1,8,0:0:0:0:
256,192,211376,1,0,0:0:0:0:
256,192,211524,1,8,0:0:0:0:
256,192,211771,1,0,0:0:0:0:
256,192,211919,1,8,0:0:0:0:
256,192,212315,1,8,0:0:0:0:
256,192,212562,1,8,0:0:0:0:
256,192,212710,1,0,0:0:0:0:
256,192,213105,1,8,0:0:0:0:
256,192,213303,1,0,0:0:0:0:
256,192,213896,1,0,0:0:0:0:
256,192,214291,1,8,0:0:0:0:
256,192,214538,1,8,0:0:0:0:
256,192,214687,1,8,0:0:0:0:
256,192,214800,1,0,0:0:0:0:
256,192,214913,1,8,0:0:0:0:
256,192,215082,1,8,0:0:0:0:
256,192,215477,1,0,0:0:0:0:
256,192,215873,1,0,0:0:0:0:
256,192,216268,1,8,0:0:0:0:
256,192,216663,1,8,0:0:0:0:
256,192,217059,1,8,0:0:0:0:
256,192,217454,1,0,0:0:0:0:
256,192,217849,1,12,0:0:0:0:
256,192,218245,1,0,0:0:0:0:
256,192,218640,1,8,0:0:0:0:
256,192,219035,1,0,0:0:0:0:
256,192,219431,1,8,0:0:0:0:
256,192,219826,1,0,0:0:0:0:
256,192,220221,1,8,0:0:0:0:
256,192,220334,1,8,0:0:0:0:
256,192,220447,1,8,0:0:0:0:
256,192,220617,1,8,0:0:0:0:
256,192,221012,1,12,0:0:0:0:
256,192,221407,1,8,0:0:0:0:
256,192,221803,1,0,0:0:0:0:
256,192,222198,1,0,0:0:0:0:
256,192,222593,1,8,0:0:0:0:
256,192,222989,1,0,0:0:0:0:
256,192,223384,1,0,0:0:0:0:
256,192,223779,1,8,0:0:0:0:
256,192,224175,1,12,0:0:0:0:
256,192,224570,1,0,0:0:0:0:
256,192,224965,1,8,0:0:0:0:
256,192,225361,1,8,0:0:0:0:
256,192,225756,1,8,0:0:0:0:
256,192,226151,1,0,0:0:0:0:
256,192,226547,1,8,0:0:0:0:
256,192,226660,1,8,0:0:0:0:
256,192,226773,1,8,0:0:0:0:
256,192,226942,1,8,0:0:0:0:
256,192,227337,1,12,0:0:0:0:
256,192,227733,1,0,0:0:0:0:
256,192,228128,1,8,0:0:0:0:
256,192,228523,1,8,0:0:0:0:
256,192,228919,1,8,0:0:0:0:
256,192,229166,1,0,0:0:0:0:
256,192,229314,1,8,0:0:0:0:
256,192,229561,1,8,0:0:0:0:
256,192,229709,1,8,0:0:0:0:
256,192,229956,1,8,0:0:0:0:
256,192,230105,1,0,0:0:0:0:
256,192,230500,1,8,0:0:0:0:
256,192,230747,1,0,0:0:0:0:
256,192,230895,1,0,0:0:0:0:
256,192,231142,1,8,0:0:0:0:
256,192,231291,1,8,0:0:0:0:
256,192,231538,1,8,0:0:0:0:
256,192,231686,1,0,0:0:0:0:
256,192,232081,1,8,0:0:0:0:
256,192,232328,1,8,0:0:0:0:
256,192,232477,1,8,0:0:0:0:
256,192,232724,1,8,0:0:0:0:
256,192,232872,1,0,0:0:0:0:
256,192,233119,1,0,0:0:0:0:
256,192,233267,1,8,0:0:0:0:
256,192,233663,1,8,0:0:0:0:
256,192,234058,1,0,0:0:0:0:
256,192,234453,1,8,0:0:0:0:
256,192,234700,1,0,0:0:0:0:
256,192,234849,1,8,0:0:0:0:
256,192,235244,1,8,0:0:0:0:
256,192,235491,1,0,0:0:0:0:
256,192,235639,1,8,0:0:0:0:
256,192,235886,1,8,0:0:0:0:
256,192,236035,1,8,0:0:0:0:
256,192,236430,1,0,0:0:0:0:
256,192,236825,1,8,0:0:0:0:
256,192,237072,1,0,0:0:0:0:
256,192,237221,1,8,0:0:0:0:
256,192,237418,1,0,0:0:0:0:
256,192,237517,1,0,0:0:0:0:
256,192,237616,1,0,0:0:0:0:
256,192,237863,1,8,0:0:0:0:
256,192,238011,1,0,0:0:0:0:
256,192,238407,1,8,0:0:0:0:
256,192,238654,1,0,0:0:0:0:
256,192,238802,1,8,0:0:0:0:
256,192,239197,1,0,0:0:0:0:
256,192,239543,1,8,0:0:0:0:
256,192,239790,1,8,0:0:0:0:
256,192,240037,1,0,0:0:0:0:
256,192,240285,1,0,0:0:0:0:
256,192,240532,1,8,0:0:0:0:
256,192,240779,1,0,0:0:0:0:
256,192,241026,1,8,0:0:0:0:
256,192,241174,1,8,0:0:0:0:
256,192,241569,1,8,0:0:0:0:
256,192,241965,1,8,0:0:0:0:
256,192,242212,1,0,0:0:0:0:
256,192,242360,1,8,0:0:0:0:
256,192,242607,1,8,0:0:0:0:
256,192,242755,1,8,0:0:0:0:
256,192,243151,1,8,0:0:0:0:
256,192,243546,1,8,0:0:0:0:
256,192,243793,1,0,0:0:0:0:
256,192,243941,1,0,0:0:0:0:
256,192,244188,1,8,0:0:0:0:
256,192,244337,1,8,0:0:0:0:
256,192,244732,1,8,0:0:0:0:
256,192,245127,1,0,0:0:0:0:
256,192,245374,1,8,0:0:0:0:
256,192,245523,1,8,0:0:0:0:
256,192,245770,1,8,0:0:0:0:
256,192,245918,1,0,0:0:0:0:
256,192,246165,1,0,0:0:0:0:
256,192,246313,1,8,0:0:0:0:
256,192,246709,1,8,0:0:0:0:
256,192,247104,1,8,0:0:0:0:
256,192,247351,1,0,0:0:0:0:
256,192,247499,1,8,0:0:0:0:
256,192,247895,1,8,0:0:0:0:
256,192,248142,1,0,0:0:0:0:
256,192,248290,1,8,0:0:0:0:
256,192,248537,1,8,0:0:0:0:
256,192,248685,1,8,0:0:0:0:
256,192,249081,1,0,0:0:0:0:
256,192,249476,1,8,0:0:0:0:
256,192,249723,1,0,0:0:0:0:
256,192,249871,1,8,0:0:0:0:
256,192,250069,1,0,0:0:0:0:
256,192,250168,1,0,0:0:0:0:
256,192,250267,1,0,0:0:0:0:
256,192,250514,1,8,0:0:0:0:
256,192,250662,1,0,0:0:0:0:
256,192,251057,1,8,0:0:0:0:
256,192,251305,1,0,0:0:0:0:
256,192,251453,1,0,0:0:0:0:
256,192,251700,1,8,0:0:0:0:
256,192,251848,1,0,0:0:0:0:
256,192,252243,1,8,0:0:0:0:
256,192,252491,1,8,0:0:0:0:
256,192,252639,1,8,0:0:0:0:
256,192,252836,1,0,0:0:0:0:
256,192,253034,1,8,0:0:0:0:
256,192,253166,1,8,0:0:0:0:
256,192,253298,1,8,0:0:0:0:
256,192,253429,1,4,0:0:0:0:
256,192,253825,1,8,0:0:0:0:
256,192,254072,1,8,0:0:0:0:
256,192,254220,1,8,0:0:0:0:
256,192,254467,1,0,0:0:0:0:
256,192,254615,1,8,0:0:0:0:
256,192,254863,1,8,0:0:0:0:
256,192,255011,1,0,0:0:0:0:
256,192,255258,1,8,0:0:0:0:
256,192,255406,1,8,0:0:0:0:
256,192,255801,1,8,0:0:0:0:
256,192,256049,1,0,0:0:0:0:
256,192,256197,1,8,0:0:0:0:
256,192,256592,1,0,0:0:0:0:
256,192,256839,1,8,0:0:0:0:
256,192,256987,1,0,0:0:0:0:
256,192,257383,1,8,0:0:0:0:
256,192,257630,1,0,0:0:0:0:
256,192,257778,1,8,0:0:0:0:
256,192,258173,1,8,0:0:0:0:
256,192,258421,1,8,0:0:0:0:
256,192,258569,1,0,0:0:0:0:
256,192,258964,1,8,0:0:0:0:
256,192,259211,1,0,0:0:0:0:
256,192,259359,1,0,0:0:0:0:
256,192,259755,1,8,0:0:0:0:
256,192,260002,1,0,0:0:0:0:
256,192,260150,1,8,0:0:0:0:
256,192,260545,1,8,0:0:0:0:
256,192,260793,1,0,0:0:0:0:
256,192,260941,1,8,0:0:0:0:
256,192,261188,1,8,0:0:0:0:
256,192,261336,1,8,0:0:0:0:
256,192,261731,1,0,0:0:0:0:
256,192,262127,1,8,0:0:0:0:
256,192,262374,1,0,0:0:0:0:
256,192,262522,1,8,0:0:0:0:
256,192,262769,1,0,0:0:0:0:
256,192,262917,1,0,0:0:0:0:
256,192,263165,1,8,0:0:0:0:
256,192,263313,1,0,0:0:0:0:
256,192,263708,1,8,0:0:0:0:
256,192,263955,1,0,0:0:0:0:
256,192,264103,1,8,0:0:0:0:
256,192,264499,1,0,0:0:0:0:
256,192,264795,1,8,0:0:0:0:
256,192,265092,1,8,0:0:0:0:
256,192,265339,1,0,0:0:0:0:
256,192,265586,1,0,0:0:0:0:
256,192,265833,1,8,0:0:0:0:
256,192,266080,1,0,0:0:0:0:
256,192,266327,1,8,0:0:0:0:
256,192,266476,1,8,0:0:0:0:
256,192,266871,1,8,0:0:0:0:
256,192,267118,1,0,0:0:0:0:
256,192,267266,1,8,0:0:0:0:
256,192,267662,1,8,0:0:0:0:
256,192,267909,1,8,0:0:0:0:
256,192,268057,1,0,0:0:0:0:
256,192,268452,1,8,0:0:0:0:
256,192,268699,1,0,0:0:0:0:
256,192,268848,1,0,0:0:0:0:
256,192,269095,1,8,0:0:0:0:
256,192,269243,1,0,0:0:0:0:
256,192,269490,1,8,0:0:0:0:
256,192,269638,1,8,0:0:0:0:
256,192,270034,1,8,0:0:0:0:
256,192,270281,1,0,0:0:0:0:
256,192,270429,1,8,0:0:0:0:
256,192,270676,1,8,0:0:0:0:
256,192,270824,1,8,0:0:0:0:
256,192,270956,1,0,0:0:0:0:
256,192,271088,1,0,0:0:0:0:
256,192,271220,1,12,0:0:0:0:
256,192,271615,1,12,0:0:0:0:
256,192,272010,1,12,0:0:0:0:
256,192,272406,1,8,0:0:0:0:
256,192,272653,1,0,0:0:0:0:
256,192,272801,1,8,0:0:0:0:
256,192,273196,1,8,0:0:0:0:
256,192,273443,1,0,0:0:0:0:
256,192,273592,1,8,0:0:0:0:
256,192,273839,1,8,0:0:0:0:
256,192,273987,1,8,0:0:0:0:
256,192,274382,1,0,0:0:0:0:
256,192,274778,1,8,0:0:0:0:
256,192,275025,1,0,0:0:0:0:
256,192,275173,1,8,0:0:0:0:
256,192,275420,1,0,0:0:0:0:
256,192,275568,1,0,0:0:0:0:
256,192,275815,1,8,0:0:0:0:
256,192,275964,1,0,0:0:0:0:
256,192,276359,1,8,0:0:0:0:
256,192,276606,1,0,0:0:0:0:
256,192,276754,1,8,0:0:0:0:
256,192,277001,1,8,0:0:0:0:
256,192,277150,1,8,0:0:0:0:
256,192,277397,1,8,0:0:0:0:
256,192,277545,1,0,0:0:0:0:
256,192,277940,1,8,0:0:0:0:
256,192,278204,1,0,0:0:0:0:
256,192,278336,1,8,0:0:0:0:
256,192,278467,1,8,0:0:0:0:
256,192,278599,1,8,0:0:0:0:
256,192,278731,1,0,0:0:0:0:
256,192,278978,1,8,0:0:0:0:
256,192,279126,1,8,0:0:0:0:
256,192,279522,1,8,0:0:0:0:
256,192,279769,1,0,0:0:0:0:
256,192,279917,1,8,0:0:0:0:
256,192,280164,1,8,0:0:0:0:
256,192,280312,1,8,0:0:0:0:
256,192,280559,1,8,0:0:0:0:
256,192,280708,1,0,0:0:0:0:
256,192,281103,1,8,0:0:0:0:
256,192,281350,1,0,0:0:0:0:
256,192,281498,1,0,0:0:0:0:
256,192,281745,1,8,0:0:0:0:
256,192,281894,1,8,0:0:0:0:
256,192,282141,1,8,0:0:0:0:
256,192,282289,1,0,0:0:0:0:
256,192,282684,1,8,0:0:0:0:
256,192,282931,1,8,0:0:0:0:
256,192,283080,1,8,0:0:0:0:
256,192,283327,1,8,0:0:0:0:
256,192,283475,1,0,0:0:0:0:
256,192,283722,1,0,0:0:0:0:
256,192,283870,1,8,0:0:0:0:
256,192,284266,1,8,0:0:0:0:
256,192,284661,1,0,0:0:0:0:
256,192,285056,1,12,0:0:0:0:
256,192,285303,1,0,0:0:0:0:
256,192,285452,1,8,0:0:0:0:
256,192,285847,1,8,0:0:0:0:
256,192,286094,1,0,0:0:0:0:
256,192,286242,1,8,0:0:0:0:
256,192,286489,1,8,0:0:0:0:
256,192,286638,1,8,0:0:0:0:
256,192,287033,1,0,0:0:0:0:
256,192,287428,1,8,0:0:0:0:
256,192,287675,1,0,0:0:0:0:
256,192,287824,1,8,0:0:0:0:
256,192,288219,1,0,0:0:0:0:
256,192,288466,1,8,0:0:0:0:
256,192,288614,1,0,0:0:0:0:
256,192,289010,1,8,0:0:0:0:
256,192,289257,1,0,0:0:0:0:
256,192,289405,1,8,0:0:0:0:
256,192,289800,1,0,0:0:0:0:
256,192,290146,1,8,0:0:0:0:
256,192,290393,1,8,0:0:0:0:
256,192,290640,1,0,0:0:0:0:
256,192,290887,1,0,0:0:0:0:
256,192,291135,1,8,0:0:0:0:
256,192,291382,1,12,0:0:0:0:
256,192,291776,1,8,0:0:0:0:
256,192,291974,1,0,0:0:0:0:
256,192,292171,1,8,0:0:0:0:
256,192,292368,1,0,0:0:0:0:
256,192,292566,1,0,0:0:0:0:
256,192,292763,1,0,0:0:0:0:
256,192,292960,1,8,0:0:0:0:
256,192,293158,1,8,0:0:0:0:
256,192,293355,1,0,0:0:0:0:
256,192,293553,1,0,0:0:0:0:
256,192,293750,1,8,0:0:0:0:
256,192,293947,1,8,0:0:0:0:
256,192,294145,1,0,0:0:0:0:
256,192,294342,1,0,0:0:0:0:
256,192,294539,1,8,0:0:0:0:
256,192,294737,1,0,0:0:0:0:
256,192,294934,1,0,0:0:0:0:
256,192,295132,1,0,0:0:0:0:
256,192,295329,1,8,0:0:0:0:
256,192,295526,1,8,0:0:0:0:
256,192,295724,1,0,0:0:0:0:
256,192,295921,1,0,0:0:0:0:
256,192,296118,1,8,0:0:0:0:
256,192,296316,1,0,0:0:0:0:
256,192,296513,1,0,0:0:0:0:
256,192,296710,1,0,0:0:0:0:
256,192,296908,1,8,0:0:0:0:
256,192,297105,1,8,0:0:0:0:
256,192,297303,1,0,0:0:0:0:
256,192,297500,1,0,0:0:0:0:
256,192,297697,1,12,0:0:0:0:
256,192,297944,1,0,0:0:0:0:
256,192,298092,1,8,0:0:0:0:
256,192,298487,1,8,0:0:0:0:
256,192,298733,1,0,0:0:0:0:
256,192,298882,1,8,0:0:0:0:
256,192,299128,1,8,0:0:0:0:
256,192,299276,1,8,0:0:0:0:
256,192,299671,1,0,0:0:0:0:
256,192,300066,1,8,0:0:0:0:
256,192,300312,1,0,0:0:0:0:
256,192,300460,1,8,0:0:0:0:
256,192,300855,1,0,0:0:0:0:
256,192,301102,1,8,0:0:0:0:
256,192,301250,1,0,0:0:0:0:
256,192,301645,1,8,0:0:0:0:
256,192,301891,1,0,0:0:0:0:
256,192,302039,1,0,0:0:0:0:
256,192,302434,1,8,0:0:0:0:
256,192,302829,1,8,0:0:0:0:
256,192,303077,1,0,0:0:0:0:
256,192,303225,1,8,0:0:0:0:
256,192,303423,1,0,0:0:0:0:
256,192,303621,1,8,0:0:0:0:
256,192,303753,1,8,0:0:0:0:
256,192,303885,1,8,0:0:0:0:
256,192,304017,1,4,0:0:0:0:
256,192,304215,1,0,0:0:0:0:
256,192,304413,1,8,0:0:0:0:
256,192,304611,1,0,0:0:0:0:
256,192,304809,1,8,0:0:0:0:
256,192,305007,1,0,0:0:0:0:
256,192,305205,1,0,0:0:0:0:
256,192,305403,1,0,0:0:0:0:
256,192,305601,1,8,0:0:0:0:
256,192,305799,1,8,0:0:0:0:
256,192,305997,1,0,0:0:0:0:
256,192,306195,1,0,0:0:0:0:
256,192,306393,1,8,0:0:0:0:
256,192,306591,1,8,0:0:0:0:
256,192,306789,1,0,0:0:0:0:
256,192,306987,1,0,0:0:0:0:
256,192,307185,1,8,0:0:0:0:
256,192,307383,1,0,0:0:0:0:
256,192,307581,1,0,0:0:0:0:
256,192,307779,1,8,0:0:0:0:
256,192,307977,1,8,0:0:0:0:
256,192,308175,1,8,0:0:0:0:
256,192,308373,1,0,0:0:0:0:
256,192,308570,1,0,0:0:0:0:
256,192,308768,1,8,0:0:0:0:
256,192,308966,1,0,0:0:0:0:
256,192,309164,1,0,0:0:0:0:
256,192,309362,1,0,0:0:0:0:
256,192,309560,1,8,0:0:0:0:
256,192,309758,1,8,0:0:0:0:
256,192,309956,1,0,0:0:0:0:
256,192,310154,1,0,0:0:0:0:
256,192,310352,1,12,0:0:0:0:
256,192,310600,1,0,0:0:0:0:
256,192,310748,1,8,0:0:0:0:
256,192,311144,1,8,0:0:0:0:
256,192,311392,1,0,0:0:0:0:
256,192,311540,1,8,0:0:0:0:
256,192,311787,1,8,0:0:0:0:
256,192,311936,1,8,0:0:0:0:
256,192,312183,1,8,0:0:0:0:
256,192,312331,1,0,0:0:0:0:
256,192,312726,1,8,0:0:0:0:
256,192,312973,1,0,0:0:0:0:
256,192,313122,1,8,0:0:0:0:
256,192,313319,1,0,0:0:0:0:
256,192,313418,1,0,0:0:0:0:
256,192,313517,1,0,0:0:0:0:
256,192,313764,1,8,0:0:0:0:
256,192,313912,1,0,0:0:0:0:
256,192,314308,1,8,0:0:0:0:
256,192,314555,1,0,0:0:0:0:
256,192,314703,1,0,0:0:0:0:
256,192,314901,1,8,0:0:0:0:
256,192,315000,1,8,0:0:0:0:
256,192,315098,1,0,0:0:0:0:
256,192,315345,1,8,0:0:0:0:
256,192,315494,1,0,0:0:0:0:
256,192,315889,1,8,0:0:0:0:
256,192,316284,1,8,0:0:0:0:
256,192,316416,1,8,0:0:0:0:
256,192,316548,1,0,0:0:0:0:
256,192,316680,1,8,0:0:0:0:
256,192,316812,1,8,0:0:0:0:
256,192,316943,1,0,0:0:0:0:
256,192,317075,1,8,0:0:0:0:
256,192,317207,1,0,0:0:0:0:
256,192,317339,1,0,0:0:0:0:
256,192,317471,1,8,0:0:0:0:
256,192,317602,1,8,0:0:0:0:
256,192,317734,1,0,0:0:0:0:
256,192,317866,1,8,0:0:0:0:
256,192,317998,1,0,0:0:0:0:
256,192,318129,1,0,0:0:0:0:
256,192,318261,1,8,0:0:0:0:
256,192,318393,1,8,0:0:0:0:
256,192,318525,1,0,0:0:0:0:
256,192,318657,1,8,0:0:0:0:
256,192,318788,1,0,0:0:0:0:
256,192,318920,1,0,0:0:0:0:
256,192,319052,1,8,0:0:0:0:
256,192,319184,1,8,0:0:0:0:
256,192,319316,1,0,0:0:0:0:
256,192,319447,1,8,0:0:0:0:
256,192,319579,1,0,0:0:0:0:
256,192,319711,1,0,0:0:0:0:
256,192,319843,1,8,0:0:0:0:
256,192,319975,1,0,0:0:0:0:
256,192,320106,1,0,0:0:0:0:
256,192,320238,1,8,0:0:0:0:
256,192,320370,1,8,0:0:0:0:
256,192,320502,1,0,0:0:0:0:
256,192,320633,1,8,0:0:0:0:
256,192,320765,1,0,0:0:0:0:
256,192,320897,1,0,0:0:0:0:
256,192,321029,1,8,0:0:0:0:
256,192,321161,1,8,0:0:0:0:
256,192,321292,1,0,0:0:0:0:
256,192,321424,1,8,0:0:0:0:
256,192,321556,1,0,0:0:0:0:
256,192,321688,1,0,0:0:0:0:
256,192,321820,1,8,0:0:0:0:
256,192,321951,1,8,0:0:0:0:
256,192,322083,1,0,0:0:0:0:
256,192,322215,1,8,0:0:0:0:
256,192,322347,1,0,0:0:0:0:
256,192,322478,1,0,0:0:0:0:
256,192,322610,1,8,0:0:0:0:
256,192,322742,1,8,0:0:0:0:
256,192,322874,1,0,0:0:0:0:
256,192,323006,1,12,0:0:0:0:
256,192,323253,1,0,0:0:0:0:
256,192,323401,1,8,0:0:0:0:
256,192,323796,1,8,0:0:0:0:
256,192,324043,1,0,0:0:0:0:
256,192,324192,1,8,0:0:0:0:
256,192,324439,1,8,0:0:0:0:
256,192,324587,1,8,0:0:0:0:
256,192,324982,1,0,0:0:0:0:
256,192,325230,1,0,0:0:0:0:
256,192,325378,1,8,0:0:0:0:
256,192,325625,1,0,0:0:0:0:
256,192,325773,1,8,0:0:0:0:
256,192,325971,1,0,0:0:0:0:
256,192,326070,1,0,0:0:0:0:
256,192,326168,1,0,0:0:0:0:
256,192,326416,1,8,0:0:0:0:
256,192,326564,1,0,0:0:0:0:
256,192,326959,1,8,0:0:0:0:
256,192,327206,1,0,0:0:0:0:
256,192,327355,1,8,0:0:0:0:
256,192,327602,1,0,0:0:0:0:
256,192,327750,1,0,0:0:0:0:
256,192,327997,1,8,0:0:0:0:
256,192,328145,1,0,0:0:0:0:
256,192,328541,1,8,0:0:0:0:
256,192,328738,1,0,0:0:0:0:
256,192,328936,1,8,0:0:0:0:
256,192,329068,1,8,0:0:0:0:
256,192,329200,1,0,0:0:0:0:
256,192,329331,1,8,0:0:0:0:
256,192,329463,1,8,0:0:0:0:
256,192,329595,1,0,0:0:0:0:
256,192,329727,1,8,0:0:0:0:
256,192,329859,1,0,0:0:0:0:
256,192,329990,1,0,0:0:0:0:
256,192,330122,1,8,0:0:0:0:
256,192,330254,1,8,0:0:0:0:
256,192,330386,1,0,0:0:0:0:
256,192,330517,1,8,0:0:0:0:
256,192,330649,1,0,0:0:0:0:
256,192,330781,1,0,0:0:0:0:
256,192,330913,1,8,0:0:0:0:
256,192,331045,1,8,0:0:0:0:
256,192,331176,1,0,0:0:0:0:
256,192,331308,1,8,0:0:0:0:
256,192,331440,1,0,0:0:0:0:
256,192,331572,1,0,0:0:0:0:
256,192,331704,1,8,0:0:0:0:
256,192,331835,1,8,0:0:0:0:
256,192,331967,1,0,0:0:0:0:
256,192,332099,1,8,0:0:0:0:
256,192,332231,1,0,0:0:0:0:
256,192,332362,1,0,0:0:0:0:
256,192,332494,1,8,0:0:0:0:
256,192,332626,1,0,0:0:0:0:
256,192,332758,1,0,0:0:0:0:
256,192,332890,1,8,0:0:0:0:
256,192,333021,1,8,0:0:0:0:
256,192,333153,1,0,0:0:0:0:
256,192,333285,1,8,0:0:0:0:
256,192,333417,1,0,0:0:0:0:
256,192,333549,1,0,0:0:0:0:
256,192,333680,1,8,0:0:0:0:
256,192,333812,1,8,0:0:0:0:
256,192,333944,1,0,0:0:0:0:
256,192,334076,1,8,0:0:0:0:
256,192,334208,1,0,0:0:0:0:
256,192,334339,1,0,0:0:0:0:
256,192,334471,1,8,0:0:0:0:
256,192,334718,1,0,0:0:0:0:
256,192,334866,1,8,0:0:0:0:
256,192,335262,1,8,0:0:0:0:
256,192,335657,1,8,0:0:0:0:
256,192,335789,1,8,0:0:0:0:
256,192,335921,1,0,0:0:0:0:
256,192,336053,1,8,0:0:0:0:
256,192,336184,1,0,0:0:0:0:
256,192,336316,1,0,0:0:0:0:
256,192,336448,1,8,0:0:0:0:
256,192,336580,1,8,0:0:0:0:
256,192,336711,1,0,0:0:0:0:
256,192,336843,1,8,0:0:0:0:
256,192,336975,1,0,0:0:0:0:
256,192,337107,1,0,0:0:0:0:
256,192,337239,1,8,0:0:0:0:
256,192,337370,1,8,0:0:0:0:
256,192,337502,1,0,0:0:0:0:
256,192,337634,1,8,0:0:0:0:
256,192,337766,1,0,0:0:0:0:
256,192,337898,1,0,0:0:0:0:
256,192,338029,1,8,0:0:0:0:
256,192,338161,1,8,0:0:0:0:
256,192,338293,1,0,0:0:0:0:
256,192,338425,1,8,0:0:0:0:
256,192,338556,1,0,0:0:0:0:
256,192,338688,1,0,0:0:0:0:
256,192,338820,1,8,0:0:0:0:
256,192,338952,1,0,0:0:0:0:
256,192,339084,1,0,0:0:0:0:
256,192,339215,1,8,0:0:0:0:
256,192,339347,1,8,0:0:0:0:
256,192,339479,1,0,0:0:0:0:
256,192,339611,1,8,0:0:0:0:
256,192,339743,1,0,0:0:0:0:
256,192,339874,1,0,0:0:0:0:
256,192,340006,1,8,0:0:0:0:
256,192,340138,1,8,0:0:0:0:
256,192,340270,1,0,0:0:0:0:
256,192,340401,1,8,0:0:0:0:
256,192,340533,1,0,0:0:0:0:
256,192,340665,1,0,0:0:0:0:
256,192,340797,1,8,0:0:0:0:
256,192,340929,1,8,0:0:0:0:
256,192,341060,1,0,0:0:0:0:
256,192,341192,1,8,0:0:0:0:
256,192,341324,1,0,0:0:0:0:
256,192,341456,1,0,0:0:0:0:
256,192,341588,1,8,0:0:0:0:
256,192,341719,1,8,0:0:0:0:
256,192,341851,1,8,0:0:0:0:
256,192,341983,1,0,0:0:0:0:
256,192,342229,1,8,0:0:0:0:
256,192,342378,1,0,0:0:0:0:
256,192,342773,1,8,0:0:0:0:
256,192,343020,1,0,0:0:0:0:
256,192,343168,1,8,0:0:0:0:
256,192,343563,1,8,0:0:0:0:
256,192,343810,1,0,0:0:0:0:
256,192,343958,1,0,0:0:0:0:
256,192,344353,1,8,0:0:0:0:
256,192,344600,1,8,0:0:0:0:
256,192,344748,1,0,0:0:0:0:
256,192,345143,1,8,0:0:0:0:
256,192,345340,1,0,0:0:0:0:
256,192,345538,1,8,0:0:0:0:
256,192,345735,1,8,0:0:0:0:
256,192,345933,1,0,0:0:0:0:
256,192,346180,1,0,0:0:0:0:
256,192,346328,1,8,0:0:0:0:
256,192,346723,1,8,0:0:0:0:
256,192,346970,1,8,0:0:0:0:
256,192,347118,1,0,0:0:0:0:
256,192,347513,1,8,0:0:0:0:
256,192,347908,1,0,0:0:0:0:
256,192,348303,1,8,0:0:0:0:
256,192,348501,1,0,0:0:0:0:
256,192,348698,1,8,0:0:0:0:
256,192,349093,1,8,0:0:0:0:
256,192,349340,1,0,0:0:0:0:
256,192,349488,1,8,0:0:0:0:
256,192,349686,1,0,0:0:0:0:
256,192,349883,1,8,0:0:0:0:
256,192,350279,1,8,0:0:0:0:
256,192,350674,1,8,0:0:0:0:
256,192,350871,1,8,0:0:0:0:
256,192,351069,1,0,0:0:0:0:
256,192,351316,1,0,0:0:0:0:
256,192,351464,1,0,0:0:0:0:
256,192,351859,1,8,0:0:0:0:
256,192,352106,1,0,0:0:0:0:
256,192,352254,1,8,0:0:0:0:
256,192,352451,1,0,0:0:0:0:
256,192,352649,1,0,0:0:0:0:
256,192,353044,1,8,0:0:0:0:
256,192,353291,1,0,0:0:0:0:
256,192,353439,1,8,0:0:0:0:
256,192,353834,1,8,0:0:0:0:
256,192,353966,1,8,0:0:0:0:
256,192,354097,1,8,0:0:0:0:
256,192,354229,1,0,0:0:0:0:
256,192,354361,1,8,0:0:0:0:
256,192,354492,1,8,0:0:0:0:
256,192,354624,1,4,0:0:0:0:
256,192,354871,1,0,0:0:0:0:
256,192,355019,1,8,0:0:0:0:
256,192,355415,1,8,0:0:0:0:
256,192,355662,1,0,0:0:0:0:
256,192,355810,1,8,0:0:0:0:
256,192,356206,1,0,0:0:0:0:
256,192,356601,1,0,0:0:0:0:
256,192,356997,1,8,0:0:0:0:
256,192,357244,1,0,0:0:0:0:
256,192,357392,1,8,0:0:0:0:
256,192,357788,1,8,0:0:0:0:
256,192,357985,1,0,0:0:0:0:
256,192,358183,1,8,0:0:0:0:
256,192,358579,1,8,0:0:0:0:
288,192,358826,1,0,0:0:0:0:
288,192,358974,1,8,0:0:0:0:
288,192,359221,1,8,0:0:0:0:
288,192,359370,1,8,0:0:0:0:
256,192,359617,1,8,0:0:0:0:
256,192,359765,1,0,0:0:0:0:
256,192,360161,1,8,0:0:0:0:
256,192,360556,1,0,0:0:0:0:
256,192,360952,1,8,0:0:0:0:
256,192,361150,1,0,0:0:0:0:
256,192,361347,1,8,0:0:0:0:
256,192,361743,1,8,0:0:0:0:
256,192,361990,1,0,0:0:0:0:
256,192,362138,1,8,0:0:0:0:
256,192,362336,1,0,0:0:0:0:
256,192,362534,1,8,0:0:0:0:
256,192,362929,1,0,0:0:0:0:
256,192,363325,1,8,0:0:0:0:
256,192,363523,1,8,0:0:0:0:
256,192,363720,1,0,0:0:0:0:
256,192,363918,1,0,0:0:0:0:
256,192,364017,1,0,0:0:0:0:
256,192,364116,1,0,0:0:0:0:
256,192,364363,1,8,0:0:0:0:
256,192,364511,1,0,0:0:0:0:
256,192,364907,1,8,0:0:0:0:
256,192,365154,1,0,0:0:0:0:
256,192,365302,1,8,0:0:0:0:
256,192,365698,1,0,0:0:0:0:
256,192,366094,1,0,0:0:0:0:
256,192,366341,1,0,0:0:0:0:
256,192,366489,1,8,0:0:0:0:
256,192,366885,1,8,0:0:0:0:
256,192,367016,1,8,0:0:0:0:
256,192,367148,1,8,0:0:0:0:
256,192,367280,1,4,0:0:0:0:
256,192,367676,1,8,0:0:0:0:
256,192,367923,1,0,0:0:0:0:
256,192,368071,1,8,0:0:0:0:
256,192,368318,1,8,0:0:0:0:
256,192,368467,1,8,0:0:0:0:
256,192,368714,1,8,0:0:0:0:
256,192,368862,1,0,0:0:0:0:
256,192,369258,1,8,0:0:0:0:
256,192,369653,1,8,0:0:0:0:
256,192,369900,1,0,0:0:0:0:
256,192,370049,1,0,0:0:0:0:
256,192,370444,1,8,0:0:0:0:
256,192,370691,1,8,0:0:0:0:
256,192,370840,1,8,0:0:0:0:
256,192,371235,1,8,0:0:0:0:
256,192,371482,1,0,0:0:0:0:
256,192,371631,1,8,0:0:0:0:
256,192,371878,1,8,0:0:0:0:
256,192,372026,1,8,0:0:0:0:
256,192,372273,1,8,0:0:0:0:
256,192,372422,1,0,0:0:0:0:
256,192,372817,1,8,0:0:0:0:
256,192,373065,1,0,0:0:0:0:
256,192,373213,1,0,0:0:0:0:
256,192,373608,1,12,0:0:0:0:
256,192,374004,1,8,0:0:0:0:
256,192,374251,1,8,0:0:0:0:
256,192,374399,1,8,0:0:0:0:
256,192,374647,1,0,0:0:0:0:
256,192,374795,1,8,0:0:0:0:
256,192,375042,1,8,0:0:0:0:
256,192,375190,1,0,0:0:0:0:
256,192,375438,1,8,0:0:0:0:
256,192,375586,1,8,0:0:0:0:
256,192,375981,1,8,0:0:0:0:
256,192,376229,1,0,0:0:0:0:
256,192,376377,1,0,0:0:0:0:
256,192,376772,1,8,0:0:0:0:
256,192,377018,1,8,0:0:0:0:
256,192,377166,1,0,0:0:0:0:
256,192,377561,1,8,0:0:0:0:
256,192,377808,1,0,0:0:0:0:
256,192,377956,1,8,0:0:0:0:
256,192,378203,1,0,0:0:0:0:
256,192,378351,1,0,0:0:0:0:
256,192,378746,1,8,0:0:0:0:
256,192,379141,1,8,0:0:0:0:
256,192,379536,1,8,0:0:0:0:
256,192,379668,1,8,0:0:0:0:
256,192,379800,1,0,0:0:0:0:
256,192,379931,1,8,0:0:0:0:
256,192,380063,1,8,0:0:0:0:
256,192,380195,1,0,0:0:0:0:
256,192,380326,1,8,0:0:0:0:
256,192,380458,1,0,0:0:0:0:
256,192,380590,1,0,0:0:0:0:
256,192,380721,1,8,0:0:0:0:
256,192,380853,1,8,0:0:0:0:
256,192,380985,1,0,0:0:0:0:
256,192,381116,1,8,0:0:0:0:
256,192,381248,1,0,0:0:0:0:
256,192,381380,1,0,0:0:0:0:
256,192,381511,1,8,0:0:0:0:
256,192,381643,1,8,0:0:0:0:
256,192,381775,1,0,0:0:0:0:
256,192,381906,1,8,0:0:0:0:
256,192,382038,1,0,0:0:0:0:
256,192,382170,1,0,0:0:0:0:
256,192,382301,1,8,0:0:0:0:
256,192,382433,1,8,0:0:0:0:
256,192,382565,1,0,0:0:0:0:
256,192,382696,1,8,0:0:0:0:
256,192,382828,1,0,0:0:0:0:
256,192,382960,1,0,0:0:0:0:
256,192,383091,1,8,0:0:0:0:
256,192,383223,1,0,0:0:0:0:
256,192,383355,1,0,0:0:0:0:
256,192,383486,1,8,0:0:0:0:
256,192,383618,1,8,0:0:0:0:
256,192,383750,1,0,0:0:0:0:
256,192,383881,1,8,0:0:0:0:
256,192,384013,1,0,0:0:0:0:
256,192,384145,1,0,0:0:0:0:
256,192,384276,1,8,0:0:0:0:
256,192,384408,1,8,0:0:0:0:
256,192,384540,1,0,0:0:0:0:
256,192,384671,1,8,0:0:0:0:
256,192,384803,1,0,0:0:0:0:
256,192,384935,1,0,0:0:0:0:
256,192,385066,1,8,0:0:0:0:
256,192,385198,1,8,0:0:0:0:
256,192,385330,1,0,0:0:0:0:
256,192,385461,1,8,0:0:0:0:
256,192,385593,1,0,0:0:0:0:
256,192,385725,1,0,0:0:0:0:
256,192,385856,1,8,0:0:0:0:
256,192,385988,1,8,0:0:0:0:
256,192,386120,1,0,0:0:0:0:
256,192,386251,1,12,0:0:0:0:
256,192,386498,1,0,0:0:0:0:
256,192,386646,1,8,0:0:0:0:
256,192,387041,1,8,0:0:0:0:
256,192,387288,1,8,0:0:0:0:
256,192,387436,1,8,0:0:0:0:
256,192,387683,1,8,0:0:0:0:
256,192,387831,1,0,0:0:0:0:
256,192,388078,1,0,0:0:0:0:
256,192,388226,1,8,0:0:0:0:
256,192,388621,1,8,0:0:0:0:
256,192,388868,1,0,0:0:0:0:
256,192,389016,1,0,0:0:0:0:
256,192,389411,1,8,0:0:0:0:
256,192,389658,1,8,0:0:0:0:
256,192,389806,1,0,0:0:0:0:
256,192,390201,1,8,0:0:0:0:
256,192,390448,1,0,0:0:0:0:
256,192,390596,1,8,0:0:0:0:
256,192,390991,1,0,0:0:0:0:
256,192,391238,1,8,0:0:0:0:
256,192,391386,1,8,0:0:0:0:
256,192,391633,1,0,0:0:0:0:
256,192,391782,1,8,0:0:0:0:
256,192,392046,1,0,0:0:0:0:
256,192,392177,1,8,0:0:0:0:
256,192,392309,1,8,0:0:0:0:
256,192,392441,1,8,0:0:0:0:
256,192,392573,1,4,0:0:0:0:
256,192,392969,1,8,0:0:0:0:
256,192,393364,1,8,0:0:0:0:
256,192,393612,1,0,0:0:0:0:
256,192,393760,1,8,0:0:0:0:
256,192,394156,1,8,0:0:0:0:
256,192,394403,1,8,0:0:0:0:
256,192,394551,1,8,0:0:0:0:
256,192,394947,1,8,0:0:0:0:
256,192,395194,1,0,0:0:0:0:
256,192,395343,1,0,0:0:0:0:
256,192,395738,1,8,0:0:0:0:
256,192,395936,1,0,0:0:0:0:
256,192,396134,1,8,0:0:0:0:
256,192,396530,1,8,0:0:0:0:
256,192,396777,1,0,0:0:0:0:
256,192,396925,1,8,0:0:0:0:
256,192,397321,1,8,0:0:0:0:
256,192,397568,1,8,0:0:0:0:
256,192,397717,1,0,0:0:0:0:
256,192,398112,1,8,0:0:0:0:
256,192,398359,1,0,0:0:0:0:
256,192,398508,1,0,0:0:0:0:
256,192,398903,1,12,0:0:0:0:
256,192,399101,1,0,0:0:0:0:
256,192,399299,1,8,0:0:0:0:
256,192,399695,1,8,0:0:0:0:
256,192,399942,1,0,0:0:0:0:
256,192,400090,1,8,0:0:0:0:
256,192,400288,1,0,0:0:0:0:
256,192,400486,1,8,0:0:0:0:
256,192,400882,1,8,0:0:0:0:
256,192,401277,1,8,0:0:0:0:
256,192,401475,1,8,0:0:0:0:
256,192,401673,1,0,0:0:0:0:
256,192,401920,1,0,0:0:0:0:
256,192,402069,1,8,0:0:0:0:
256,192,402316,1,8,0:0:0:0:
256,192,402464,1,0,0:0:0:0:
256,192,402860,1,8,0:0:0:0:
256,192,403107,1,0,0:0:0:0:
256,192,403256,1,0,0:0:0:0:
256,192,403503,1,0,0:0:0:0:
256,192,403651,1,8,0:0:0:0:
256,192,404047,1,8,0:0:0:0:
256,192,404443,1,8,0:0:0:0:
256,192,404838,1,0,0:0:0:0:
256,192,404970,1,8,0:0:0:0:
256,192,405102,1,8,0:0:0:0:
256,192,405234,1,4,0:0:0:0:
256,192,405481,1,8,0:0:0:0:
256,192,405629,1,8,0:0:0:0:
256,192,406025,1,8,0:0:0:0:
256,192,406272,1,0,0:0:0:0:
256,192,406421,1,8,0:0:0:0:
256,192,406668,1,8,0:0:0:0:
256,192,406816,1,8,0:0:0:0:
256,192,407064,1,8,0:0:0:0:
256,192,407212,1,0,0:0:0:0:
256,192,407459,1,8,0:0:0:0:
256,192,407608,1,8,0:0:0:0:
256,192,407855,1,0,0:0:0:0:
256,192,408003,1,0,0:0:0:0:
256,192,408399,1,8,0:0:0:0:
256,192,408646,1,8,0:0:0:0:
256,192,408795,1,0,0:0:0:0:
256,192,409190,1,8,0:0:0:0:
256,192,409438,1,0,0:0:0:0:
256,192,409586,1,8,0:0:0:0:
256,192,409982,1,8,0:0:0:0:
256,192,410376,1,12,0:0:0:0:
256,192,410771,1,12,0:0:0:0:
256,192,411166,1,12,0:0:0:0:
256,192,411560,1,8,0:0:0:0:
256,192,411807,1,8,0:0:0:0:
256,192,411955,1,8,0:0:0:0:
256,192,412350,1,8,0:0:0:0:
256,192,412597,1,0,0:0:0:0:
256,192,412745,1,8,0:0:0:0:
256,192,412991,1,8,0:0:0:0:
256,192,413139,1,8,0:0:0:0:
256,192,413386,1,8,0:0:0:0:
256,192,413534,1,0,0:0:0:0:
256,192,413929,1,8,0:0:0:0:
256,192,414176,1,0,0:0:0:0:
256,192,414324,1,0,0:0:0:0:
256,192,414718,1,0,0:0:0:0:
256,192,414965,1,8,0:0:0:0:
256,192,415113,1,8,0:0:0:0:
256,192,415508,1,8,0:0:0:0:
256,192,415755,1,0,0:0:0:0:
256,192,415903,1,8,0:0:0:0:
256,192,416297,1,8,0:0:0:0:
256,192,416692,1,8,0:0:0:0:
256,192,416939,1,0,0:0:0:0:
256,192,417087,1,0,0:0:0:0:
256,192,417350,1,0,0:0:0:0:
256,192,417482,1,8,0:0:0:0:
256,192,417613,1,8,0:0:0:0:
256,192,417745,1,8,0:0:0:0:
256,192,417876,1,4,0:0:0:0:
256,192,418123,1,8,0:0:0:0:
256,192,418271,1,8,0:0:0:0:
256,192,418666,1,8,0:0:0:0:
256,192,418913,1,0,0:0:0:0:
256,192,419061,1,8,0:0:0:0:
256,192,419308,1,8,0:0:0:0:
256,192,419457,1,8,0:0:0:0:
256,192,419704,1,8,0:0:0:0:
256,192,419852,1,0,0:0:0:0:
256,192,420247,1,8,0:0:0:0:
256,192,420494,1,0,0:0:0:0:
256,192,420642,1,0,0:0:0:0:
256,192,420889,1,8,0:0:0:0:
256,192,421038,1,0,0:0:0:0:
256,192,421285,1,8,0:0:0:0:
256,192,421433,1,0,0:0:0:0:
256,192,421828,1,8,0:0:0:0:
256,192,422075,1,0,0:0:0:0:
256,192,422223,1,8,0:0:0:0:
256,192,422619,1,8,0:0:0:0:
256,192,422866,1,0,0:0:0:0:
256,192,423014,1,0,0:0:0:0:
256,192,423409,1,8,0:0:0:0:
256,192,423804,1,0,0:0:0:0:
256,192,424200,1,4,0:0:0:0:
256,192,424447,1,8,0:0:0:0:
256,192,424595,1,8,0:0:0:0:
256,192,424990,1,8,0:0:0:0:
256,192,425237,1,0,0:0:0:0:
256,192,425385,1,8,0:0:0:0:
256,192,425632,1,8,0:0:0:0:
256,192,425781,1,8,0:0:0:0:
256,192,426028,1,8,0:0:0:0:
256,192,426176,1,0,0:0:0:0:
256,192,426571,1,8,0:0:0:0:
256,192,426818,1,0,0:0:0:0:
256,192,426966,1,0,0:0:0:0:
256,192,427362,1,12,0:0:0:0:
256,192,427609,1,8,0:0:0:0:
256,192,427757,1,8,0:0:0:0:
256,192,428152,1,8,0:0:0:0:
256,192,428399,1,0,0:0:0:0:
256,192,428547,1,8,0:0:0:0:
256,192,428794,1,8,0:0:0:0:
256,192,428943,1,0,0:0:0:0:
256,192,429338,1,8,0:0:0:0:
256,192,429601,1,0,0:0:0:0:
256,192,429733,1,8,0:0:0:0:
256,192,429865,1,8,0:0:0:0:
256,192,429997,1,0,0:0:0:0:
256,192,430128,1,8,0:0:0:0:
256,192,430260,1,8,0:0:0:0:
256,192,430392,1,8,0:0:0:0:
256,192,430524,1,4,0:0:0:0:
256,192,430771,1,0,0:0:0:0:
256,192,430919,1,8,0:0:0:0:
256,192,431314,1,8,0:0:0:0:
256,192,431561,1,8,0:0:0:0:
256,192,431709,1,8,0:0:0:0:
256,192,432105,1,8,0:0:0:0:
256,192,432352,1,8,0:0:0:0:
256,192,432500,1,0,0:0:0:0:
256,192,432895,1,8,0:0:0:0:
256,192,433142,1,0,0:0:0:0:
256,192,433291,1,0,0:0:0:0:
256,192,433538,1,0,0:0:0:0:
256,192,433686,1,12,0:0:0:0:
256,192,433933,1,8,0:0:0:0:
256,192,434081,1,0,0:0:0:0:
256,192,434477,1,8,0:0:0:0:
256,192,434724,1,0,0:0:0:0:
256,192,434872,1,8,0:0:0:0:
256,192,435119,1,0,0:0:0:0:
256,192,435268,1,8,0:0:0:0:
256,192,435465,1,8,0:0:0:0:
256,192,435663,1,0,0:0:0:0:
256,192,436059,1,8,0:0:0:0:
256,192,436306,1,8,0:0:0:0:
256,192,436454,1,0,0:0:0:0:
256,192,436850,1,12,0:0:0:0:
256,192,437097,1,8,0:0:0:0:
256,192,437245,1,0,0:0:0:0:
256,192,437641,1,8,0:0:0:0:
256,192,437888,1,0,0:0:0:0:
256,192,438036,1,8,0:0:0:0:
256,192,438283,1,8,0:0:0:0:
256,192,438432,1,8,0:0:0:0:
256,192,438679,1,8,0:0:0:0:
256,192,438827,1,0,0:0:0:0:
256,192,439223,1,8,0:0:0:0:
256,192,439470,1,0,0:0:0:0:
256,192,439618,1,0,0:0:0:0:
256,192,440014,1,4,0:0:0:0:
256,192,440261,1,8,0:0:0:0:
256,192,440409,1,8,0:0:0:0:
256,192,440805,1,8,0:0:0:0:
256,192,441052,1,0,0:0:0:0:
256,192,441200,1,8,0:0:0:0:
256,192,441448,1,8,0:0:0:0:
256,192,441596,1,8,0:0:0:0:
256,192,441843,1,8,0:0:0:0:
256,192,441991,1,0,0:0:0:0:
256,192,442387,1,8,0:0:0:0:
256,192,442782,1,8,0:0:0:0:
256,192,442914,1,8,0:0:0:0:
256,192,443046,1,8,0:0:0:0:
256,192,443178,1,4,0:0:0:0:
256,192,443425,1,0,0:0:0:0:
256,192,443573,1,8,0:0:0:0:
256,192,443821,1,8,0:0:0:0:
256,192,443969,1,8,0:0:0:0:
256,192,444216,1,0,0:0:0:0:
256,192,444364,1,8,0:0:0:0:
256,192,444760,1,8,0:0:0:0:
256,192,445007,1,8,0:0:0:0:
256,192,445156,1,0,0:0:0:0:
256,192,445551,1,8,0:0:0:0:
256,192,445798,1,0,0:0:0:0:
256,192,445947,1,0,0:0:0:0:
256,192,446194,1,0,0:0:0:0:
256,192,446342,1,8,0:0:0:0:
256,192,446589,1,8,0:0:0:0:
256,192,446738,1,8,0:0:0:0:
256,192,447133,1,8,0:0:0:0:
256,192,447380,1,0,0:0:0:0:
256,192,447529,1,8,0:0:0:0:
256,192,447776,1,8,0:0:0:0:
256,192,447924,1,8,0:0:0:0:
256,192,448171,1,8,0:0:0:0:
256,192,448320,1,0,0:0:0:0:
256,192,448715,1,8,0:0:0:0:
256,192,448962,1,0,0:0:0:0:
256,192,449111,1,0,0:0:0:0:
256,192,449506,1,4,0:0:0:0:
256,192,449908,1,0,0:0:0:0:
256,192,450311,1,8,0:0:0:0:
256,192,450563,1,0,0:0:0:0:
256,192,450714,1,8,0:0:0:0:
256,192,450965,1,8,0:0:0:0:
256,192,451116,1,0,0:0:0:0:
256,192,451520,1,8,0:0:0:0:
256,192,451952,1,0,0:0:0:0:
256,192,452433,1,0,0:0:0:0:
256,192,453015,1,12,0:0:0:0:
256,192,453204,8,0,458616,0:0:0:0:
