osu file format v14

[General]
AudioFilename: audio.mp3
AudioLeadIn: 0
PreviewTime: 98942
Countdown: 0
SampleSet: Normal
StackLeniency: 0.7
Mode: 1
LetterboxInBreaks: 0
WidescreenStoryboard: 1

[Editor]
Bookmarks: 7558,14942,22327,29711,37096,44481,51865,59250,66634,74019,81404,88788,96173,99865,107250,114634,122019,129404
DistanceSpacing: 0.8
BeatDivisor: 4
GridSize: 32
TimelineZoom: 2.7

[Metadata]
Title:The Last Page
TitleUnicode:The Last Page
Artist:ARForest
ArtistUnicode:ARForest
Creator:Teezel
Version:Muzukashii
Source:osu!
Tags:electronic instrumental artcore unfinished fa featured artist lanota muse dash video game bofxv19 bms of fighters extreme violence frenz2019 sleep deprived collective
BeatmapID:2652130
BeatmapSetID:1276509

[Difficulty]
HPDrainRate:6
CircleSize:5
OverallDifficulty:5
ApproachRate:5
SliderMultiplier:1.4
SliderTickRate:1

[Events]
//Background and Video events
0,0,"bg.jpg",0,-120
//Break Periods
//Storyboard Layer 0 (Background)
//Storyboard Layer 1 (Fail)
//Storyboard Layer 2 (Pass)
//Storyboard Layer 3 (Foreground)
//Storyboard Layer 4 (Overlay)
//Storyboard Sound Samples

[TimingPoints]
7558,307.692307692308,3,1,0,40,1,0
7558,-100,3,1,0,40,0,0
14942,-100,3,1,0,45,0,0
22327,-100,3,1,0,60,0,0
29711,-100,3,1,0,70,0,0
37096,-100,3,1,0,40,0,0
44481,-100,3,1,0,45,0,0
50942,-100,3,1,0,47,0,0
51865,-100,3,1,0,50,0,0
59250,-100,3,1,0,40,0,0
66634,-100,3,1,0,60,0,0
74019,-100,3,1,0,70,0,0
81404,-100,3,1,0,55,0,0
88788,-100,3,1,0,70,0,0
90634,-100,3,1,0,71,0,0
92481,-100,3,1,0,72,0,0
94327,-100,3,1,0,73,0,0
96173,-100,3,1,0,74,0,0
98942,-100,3,1,0,75,0,0
99865,-100,3,1,0,90,0,1
129404,-100,3,1,0,90,0,0
129558,-100,3,1,0,40,0,0

[HitObjects]
256,192,7558,5,0,0:0:0:0:
256,192,8019,1,0,0:0:0:0:
256,192,8481,1,0,0:0:0:0:
256,192,8788,1,0,0:0:0:0:
256,192,9096,1,0,0:0:0:0:
256,192,9404,1,8,0:0:0:0:
256,192,9865,1,8,0:0:0:0:
256,192,10327,1,8,0:0:0:0:
256,192,10634,1,8,0:0:0:0:
256,192,10942,1,8,0:0:0:0:
256,192,11250,1,0,0:0:0:0:
256,192,11711,1,0,0:0:0:0:
256,192,12173,1,0,0:0:0:0:
256,192,12481,1,0,0:0:0:0:
256,192,12788,1,0,0:0:0:0:
256,192,13096,1,8,0:0:0:0:
256,192,13558,1,8,0:0:0:0:
256,192,14019,1,8,0:0:0:0:
256,192,14327,1,8,0:0:0:0:
256,192,14634,1,8,0:0:0:0:
256,192,14942,5,0,0:0:0:0:
256,192,15404,1,0,0:0:0:0:
256,192,15711,1,8,0:0:0:0:
256,192,15865,1,0,0:0:0:0:
256,192,16173,1,0,0:0:0:0:
256,192,16481,1,0,0:0:0:0:
256,192,16788,1,8,0:0:0:0:
256,192,17250,1,8,0:0:0:0:
256,192,17558,1,0,0:0:0:0:
256,192,17711,1,8,0:0:0:0:
256,192,18019,1,8,0:0:0:0:
256,192,18327,1,8,0:0:0:0:
256,192,18634,1,0,0:0:0:0:
256,192,19096,1,0,0:0:0:0:
256,192,19404,1,8,0:0:0:0:
256,192,19558,1,0,0:0:0:0:
256,192,19865,1,0,0:0:0:0:
256,192,20173,1,0,0:0:0:0:
256,192,20481,1,8,0:0:0:0:
256,192,20942,1,8,0:0:0:0:
256,192,21250,1,0,0:0:0:0:
256,192,21404,1,8,0:0:0:0:
256,192,21711,1,0,0:0:0:0:
256,192,21865,1,0,0:0:0:0:
256,192,22019,1,8,0:0:0:0:
256,192,22173,1,0,0:0:0:0:
256,192,22327,5,8,0:0:0:0:
256,192,22788,1,0,0:0:0:0:
256,192,23096,1,0,0:0:0:0:
256,192,23250,1,8,0:0:0:0:
256,192,23404,1,0,0:0:0:0:
256,192,23558,1,8,0:0:0:0:
256,192,23634,1,8,0:0:0:0:
256,192,23711,1,8,0:0:0:0:
256,192,23865,1,0,0:0:0:0:
256,192,24173,1,0,0:0:0:0:
256,192,24788,1,8,0:0:0:0:
256,192,25096,1,8,0:0:0:0:
256,192,25404,1,0,0:0:0:0:
256,192,25711,1,8,0:0:0:0:
256,192,25865,1,0,0:0:0:0:
256,192,25942,1,0,0:0:0:0:
256,192,26019,1,0,0:0:0:0:
256,192,26481,1,0,0:0:0:0:
256,192,26788,1,0,0:0:0:0:
256,192,26942,1,8,0:0:0:0:
256,192,27096,1,0,0:0:0:0:
256,192,27250,1,8,0:0:0:0:
256,192,27327,1,8,0:0:0:0:
256,192,27404,1,8,0:0:0:0:
256,192,27558,1,0,0:0:0:0:
256,192,27865,1,0,0:0:0:0:
256,192,28481,1,8,0:0:0:0:
256,192,28634,1,0,0:0:0:0:
256,192,28788,1,8,0:0:0:0:
256,192,29096,1,0,0:0:0:0:
256,192,29250,1,0,0:0:0:0:
256,192,29404,1,8,0:0:0:0:
256,192,29558,1,0,0:0:0:0:
256,192,29711,5,12,0:0:0:0:
256,192,30173,1,0,0:0:0:0:
256,192,30481,1,8,0:0:0:0:
256,192,30634,1,0,0:0:0:0:
256,192,30788,1,8,0:0:0:0:
256,192,30942,1,0,0:0:0:0:
256,192,31019,1,0,0:0:0:0:
256,192,31096,1,0,0:0:0:0:
256,192,31250,1,8,0:0:0:0:
256,192,31558,1,0,0:0:0:0:
256,192,32019,1,8,0:0:0:0:
256,192,32173,1,0,0:0:0:0:
256,192,32481,1,0,0:0:0:0:
256,192,32788,1,0,0:0:0:0:
256,192,33096,1,8,0:0:0:0:
256,192,33250,1,0,0:0:0:0:
256,192,33327,1,0,0:0:0:0:
256,192,33404,1,0,0:0:0:0:
256,192,33865,1,0,0:0:0:0:
256,192,34173,1,8,0:0:0:0:
256,192,34327,1,0,0:0:0:0:
256,192,34481,1,8,0:0:0:0:
256,192,34634,1,0,0:0:0:0:
256,192,34711,1,0,0:0:0:0:
256,192,34788,1,0,0:0:0:0:
256,192,34942,1,8,0:0:0:0:
256,192,35250,1,0,0:0:0:0:
256,192,35558,1,0,0:0:0:0:
256,192,35711,1,0,0:0:0:0:
256,192,35865,1,8,0:0:0:0:
256,192,36019,1,0,0:0:0:0:
256,192,36173,1,8,0:0:0:0:
256,192,36481,1,0,0:0:0:0:
256,192,36634,1,8,0:0:0:0:
256,192,36711,1,8,0:0:0:0:
256,192,36788,1,8,0:0:0:0:
256,192,36942,1,0,0:0:0:0:
256,192,37096,5,8,0:0:0:0:
256,192,37558,1,8,0:0:0:0:
256,192,38019,1,0,0:0:0:0:
256,192,38634,1,8,0:0:0:0:
256,192,38942,1,0,0:0:0:0:
256,192,39404,1,0,0:0:0:0:
256,192,39711,1,8,0:0:0:0:
256,192,39865,1,8,0:0:0:0:
256,192,40019,1,0,0:0:0:0:
256,192,40327,1,0,0:0:0:0:
256,192,40634,1,0,0:0:0:0:
256,192,40788,1,8,0:0:0:0:
256,192,41250,1,0,0:0:0:0:
256,192,41711,1,8,0:0:0:0:
256,192,42019,1,0,0:0:0:0:
256,192,42173,1,0,0:0:0:0:
256,192,42327,1,8,0:0:0:0:
256,192,42634,1,0,0:0:0:0:
256,192,43096,1,0,0:0:0:0:
256,192,43404,1,8,0:0:0:0:
256,192,43558,1,0,0:0:0:0:
256,192,43865,1,0,0:0:0:0:
256,192,44173,1,8,0:0:0:0:
256,192,44481,5,8,0:0:0:0:
256,192,44788,1,0,0:0:0:0:
256,192,45096,1,0,0:0:0:0:
256,192,45250,1,0,0:0:0:0:
256,192,45404,1,8,0:0:0:0:
256,192,45711,1,0,0:0:0:0:
256,192,46327,1,8,0:0:0:0:
256,192,46634,1,8,0:0:0:0:
256,192,46788,1,8,0:0:0:0:
256,192,46942,1,0,0:0:0:0:
256,192,47250,1,8,0:0:0:0:
256,192,47558,1,0,0:0:0:0:
256,192,48173,1,0,0:0:0:0:
256,192,48327,1,0,0:0:0:0:
256,192,48481,1,8,0:0:0:0:
256,192,48788,1,8,0:0:0:0:
256,192,49096,1,8,0:0:0:0:
256,192,49250,1,0,0:0:0:0:
256,192,49404,1,8,0:0:0:0:
256,192,50019,1,0,0:0:0:0:
256,192,50327,1,0,0:0:0:0:
256,192,50634,1,8,0:0:0:0:
256,192,50942,1,0,0:0:0:0:
256,192,51019,1,0,0:0:0:0:
256,192,51096,1,0,0:0:0:0:
256,192,51250,1,8,0:0:0:0:
256,192,51404,1,8,0:0:0:0:
256,192,51558,1,0,0:0:0:0:
256,192,51865,5,4,0:0:0:0:
256,192,52481,1,0,0:0:0:0:
256,192,52788,1,8,0:0:0:0:
256,192,53096,1,8,0:0:0:0:
256,192,53250,1,0,0:0:0:0:
256,192,53558,1,8,0:0:0:0:
256,192,53711,1,0,0:0:0:0:
256,192,54327,1,0,0:0:0:0:
256,192,54634,1,0,0:0:0:0:
256,192,54942,1,8,0:0:0:0:
256,192,55250,1,8,0:0:0:0:
256,192,55558,1,0,0:0:0:0:
256,192,56173,1,8,0:0:0:0:
256,192,56481,1,8,0:0:0:0:
256,192,56788,1,0,0:0:0:0:
256,192,57096,1,8,0:0:0:0:
256,192,57404,1,0,0:0:0:0:
256,192,58019,1,8,0:0:0:0:
256,192,58327,1,8,0:0:0:0:
256,192,58481,1,8,0:0:0:0:
256,192,58634,1,0,0:0:0:0:
256,192,58942,1,8,0:0:0:0:
256,192,59250,5,0,0:0:0:0:
256,192,60173,1,0,0:0:0:0:
256,192,61096,1,0,0:0:0:0:
256,192,61711,1,8,0:0:0:0:
256,192,62019,1,0,0:0:0:0:
256,192,62327,1,8,0:0:0:0:
256,192,62634,1,0,0:0:0:0:
256,192,62942,1,8,0:0:0:0:
256,192,64788,1,0,0:0:0:0:
256,192,65711,1,8,0:0:0:0:
256,192,66019,1,0,0:0:0:0:
256,192,66096,1,0,0:0:0:0:
256,192,66173,1,0,0:0:0:0:
256,192,66327,1,8,0:0:0:0:
256,192,66481,1,0,0:0:0:0:
256,192,66634,5,8,0:0:0:0:
256,192,67096,1,0,0:0:0:0:
256,192,67404,1,0,0:0:0:0:
256,192,67558,1,8,0:0:0:0:
256,192,67711,1,0,0:0:0:0:
256,192,67865,1,8,0:0:0:0:
256,192,67942,1,8,0:0:0:0:
256,192,68019,1,8,0:0:0:0:
256,192,68173,1,0,0:0:0:0:
256,192,68481,1,0,0:0:0:0:
256,192,69096,1,8,0:0:0:0:
256,192,69404,1,8,0:0:0:0:
256,192,69711,1,0,0:0:0:0:
256,192,70019,1,8,0:0:0:0:
256,192,70173,1,0,0:0:0:0:
256,192,70250,1,0,0:0:0:0:
256,192,70327,1,0,0:0:0:0:
256,192,70788,1,0,0:0:0:0:
256,192,71096,1,0,0:0:0:0:
256,192,71250,1,8,0:0:0:0:
256,192,71404,1,0,0:0:0:0:
256,192,71558,1,8,0:0:0:0:
256,192,71634,1,8,0:0:0:0:
256,192,71711,1,8,0:0:0:0:
256,192,71865,1,0,0:0:0:0:
256,192,72173,1,0,0:0:0:0:
256,192,72788,1,8,0:0:0:0:
256,192,72942,1,0,0:0:0:0:
256,192,73096,1,8,0:0:0:0:
256,192,73404,1,0,0:0:0:0:
256,192,73558,1,0,0:0:0:0:
256,192,73711,1,8,0:0:0:0:
256,192,73865,1,0,0:0:0:0:
256,192,74019,5,12,0:0:0:0:
256,192,74481,1,0,0:0:0:0:
256,192,74788,1,8,0:0:0:0:
256,192,74942,1,0,0:0:0:0:
256,192,75096,1,8,0:0:0:0:
256,192,75250,1,0,0:0:0:0:
256,192,75327,1,0,0:0:0:0:
256,192,75404,1,0,0:0:0:0:
256,192,75558,1,8,0:0:0:0:
256,192,75865,1,0,0:0:0:0:
256,192,76327,1,8,0:0:0:0:
256,192,76481,1,0,0:0:0:0:
256,192,76788,1,0,0:0:0:0:
256,192,77096,1,0,0:0:0:0:
256,192,77404,1,8,0:0:0:0:
256,192,77558,1,0,0:0:0:0:
256,192,77634,1,0,0:0:0:0:
256,192,77711,1,0,0:0:0:0:
256,192,78173,1,0,0:0:0:0:
256,192,78481,1,8,0:0:0:0:
256,192,78634,1,0,0:0:0:0:
256,192,78788,1,8,0:0:0:0:
256,192,78942,1,0,0:0:0:0:
256,192,79019,1,0,0:0:0:0:
256,192,79096,1,0,0:0:0:0:
256,192,79250,1,8,0:0:0:0:
256,192,79558,1,0,0:0:0:0:
256,192,80019,1,0,0:0:0:0:
256,192,80173,1,8,0:0:0:0:
256,192,80327,1,0,0:0:0:0:
256,192,80481,1,8,0:0:0:0:
256,192,80788,1,0,0:0:0:0:
256,192,80942,1,8,0:0:0:0:
256,192,81019,1,8,0:0:0:0:
256,192,81096,1,8,0:0:0:0:
256,192,81250,1,0,0:0:0:0:
256,192,81404,5,8,0:0:0:0:
256,192,82019,1,0,0:0:0:0:
256,192,82327,1,8,0:0:0:0:
256,192,82634,1,8,0:0:0:0:
256,192,82942,1,0,0:0:0:0:
256,192,83250,1,0,0:0:0:0:
256,192,84173,1,0,0:0:0:0:
256,192,84634,1,8,0:0:0:0:
256,192,85096,1,8,0:0:0:0:
256,192,85558,1,0,0:0:0:0:
256,192,86019,1,8,0:0:0:0:
256,192,86327,1,8,0:0:0:0:
256,192,86634,1,0,0:0:0:0:
256,192,86942,1,8,0:0:0:0:
256,192,87558,1,8,0:0:0:0:
256,192,87865,1,0,0:0:0:0:
256,192,88481,1,8,0:0:0:0:
256,192,88788,5,4,0:0:0:0:
256,192,89096,1,8,0:0:0:0:
256,192,89250,1,8,0:0:0:0:
256,192,89404,1,0,0:0:0:0:
256,192,89711,1,8,0:0:0:0:
256,192,90327,1,8,0:0:0:0:
256,192,90634,1,0,0:0:0:0:
256,192,90942,1,8,0:0:0:0:
256,192,91096,1,8,0:0:0:0:
256,192,91250,1,0,0:0:0:0:
256,192,91558,1,8,0:0:0:0:
256,192,91865,1,0,0:0:0:0:
256,192,92173,1,0,0:0:0:0:
256,192,92481,1,8,0:0:0:0:
256,192,92942,1,0,0:0:0:0:
256,192,93404,1,8,0:0:0:0:
256,192,93711,1,0,0:0:0:0:
256,192,93865,1,0,0:0:0:0:
256,192,94019,1,8,0:0:0:0:
256,192,94327,1,8,0:0:0:0:
256,192,94788,1,8,0:0:0:0:
256,192,95096,1,0,0:0:0:0:
256,192,95250,1,8,0:0:0:0:
256,192,95558,1,0,0:0:0:0:
256,192,95711,1,0,0:0:0:0:
256,192,95865,1,8,0:0:0:0:
256,192,96019,1,0,0:0:0:0:
256,192,96173,1,12,0:0:0:0:
256,192,98942,5,0,0:0:0:0:
256,192,99019,1,0,0:0:0:0:
256,192,99096,1,0,0:0:0:0:
256,192,99250,1,8,0:0:0:0:
256,192,99404,1,8,0:0:0:0:
256,192,99558,1,0,0:0:0:0:
256,192,99711,1,0,0:0:0:0:
256,192,99865,5,12,0:0:0:0:
256,192,100173,1,8,0:0:0:0:
256,192,100327,1,0,0:0:0:0:
256,192,100788,1,0,0:0:0:0:
256,192,100865,1,0,0:0:0:0:
256,192,100942,1,0,0:0:0:0:
256,192,101096,1,8,0:0:0:0:
256,192,101250,1,0,0:0:0:0:
256,192,101404,1,8,0:0:0:0:
256,192,101711,1,0,0:0:0:0:
256,192,102019,1,8,0:0:0:0:
256,192,102173,1,0,0:0:0:0:
256,192,102327,1,8,0:0:0:0:
256,192,102634,1,0,0:0:0:0:
256,192,102788,1,8,0:0:0:0:
256,192,102942,1,0,0:0:0:0:
256,192,103096,1,0,0:0:0:0:
256,192,103250,1,8,0:0:0:0:
256,192,103404,1,0,0:0:0:0:
256,192,103481,1,0,0:0:0:0:
256,192,103558,1,0,0:0:0:0:
256,192,103865,1,8,0:0:0:0:
256,192,104019,1,0,0:0:0:0:
256,192,104481,1,0,0:0:0:0:
256,192,104634,1,8,0:0:0:0:
256,192,104788,1,0,0:0:0:0:
256,192,104942,1,0,0:0:0:0:
256,192,105096,1,8,0:0:0:0:
256,192,105404,1,8,0:0:0:0:
256,192,105558,1,0,0:0:0:0:
256,192,105711,1,0,0:0:0:0:
256,192,105865,1,8,0:0:0:0:
256,192,106019,1,0,0:0:0:0:
256,192,106173,1,0,0:0:0:0:
256,192,106327,1,8,0:0:0:0:
256,192,106481,1,0,0:0:0:0:
256,192,106558,1,0,0:0:0:0:
256,192,106634,1,0,0:0:0:0:
256,192,106942,1,8,0:0:0:0:
256,192,107096,1,0,0:0:0:0:
256,192,107250,5,8,0:0:0:0:
256,192,107558,1,8,0:0:0:0:
256,192,107711,1,0,0:0:0:0:
256,192,108173,1,0,0:0:0:0:
256,192,108250,1,0,0:0:0:0:
256,192,108327,1,0,0:0:0:0:
256,192,108481,1,8,0:0:0:0:
256,192,108634,1,0,0:0:0:0:
256,192,108788,1,8,0:0:0:0:
256,192,109096,1,0,0:0:0:0:
256,192,109404,1,8,0:0:0:0:
256,192,109558,1,0,0:0:0:0:
256,192,109711,1,8,0:0:0:0:
256,192,110019,1,0,0:0:0:0:
256,192,110173,1,0,0:0:0:0:
256,192,110327,1,8,0:0:0:0:
256,192,110481,1,0,0:0:0:0:
256,192,110634,1,8,0:0:0:0:
256,192,110942,1,8,0:0:0:0:
256,192,111096,1,8,0:0:0:0:
256,192,111250,1,0,0:0:0:0:
256,192,111404,1,8,0:0:0:0:
256,192,111558,1,0,0:0:0:0:
256,192,111711,1,0,0:0:0:0:
256,192,111865,1,8,0:0:0:0:
256,192,112019,1,0,0:0:0:0:
256,192,112096,1,0,0:0:0:0:
256,192,112173,1,0,0:0:0:0:
256,192,112481,1,0,0:0:0:0:
256,192,112634,1,0,0:0:0:0:
256,192,112788,1,8,0:0:0:0:
256,192,112942,1,8,0:0:0:0:
256,192,113096,1,0,0:0:0:0:
256,192,113404,1,0,0:0:0:0:
256,192,113558,1,0,0:0:0:0:
256,192,113711,1,8,0:0:0:0:
256,192,113865,1,0,0:0:0:0:
256,192,114019,1,8,0:0:0:0:
256,192,114173,1,0,0:0:0:0:
256,192,114250,1,0,0:0:0:0:
256,192,114327,1,0,0:0:0:0:
256,192,114481,1,0,0:0:0:0:
256,192,114634,5,8,0:0:0:0:
256,192,114942,1,8,0:0:0:0:
256,192,115096,1,0,0:0:0:0:
256,192,115558,1,0,0:0:0:0:
256,192,115634,1,0,0:0:0:0:
256,192,115711,1,0,0:0:0:0:
256,192,115865,1,8,0:0:0:0:
256,192,116019,1,0,0:0:0:0:
256,192,116173,1,8,0:0:0:0:
256,192,116481,1,0,0:0:0:0:
256,192,116788,1,8,0:0:0:0:
256,192,116942,1,0,0:0:0:0:
256,192,117096,1,8,0:0:0:0:
256,192,117404,1,0,0:0:0:0:
256,192,117558,1,8,0:0:0:0:
256,192,117711,1,0,0:0:0:0:
256,192,117865,1,0,0:0:0:0:
256,192,118019,1,8,0:0:0:0:
256,192,118173,1,0,0:0:0:0:
256,192,118250,1,0,0:0:0:0:
256,192,118327,1,0,0:0:0:0:
256,192,118634,1,8,0:0:0:0:
256,192,118788,1,0,0:0:0:0:
256,192,119250,1,0,0:0:0:0:
256,192,119404,1,8,0:0:0:0:
256,192,119558,1,0,0:0:0:0:
256,192,119711,1,0,0:0:0:0:
256,192,119865,1,8,0:0:0:0:
256,192,120173,1,8,0:0:0:0:
256,192,120327,1,0,0:0:0:0:
256,192,120481,1,0,0:0:0:0:
256,192,120634,1,8,0:0:0:0:
256,192,120788,1,0,0:0:0:0:
256,192,120942,1,0,0:0:0:0:
256,192,121096,1,8,0:0:0:0:
256,192,121250,1,0,0:0:0:0:
256,192,121327,1,0,0:0:0:0:
256,192,121404,1,0,0:0:0:0:
256,192,121711,1,8,0:0:0:0:
256,192,121865,1,0,0:0:0:0:
256,192,122019,5,8,0:0:0:0:
256,192,122327,1,8,0:0:0:0:
256,192,122481,1,0,0:0:0:0:
256,192,122942,1,0,0:0:0:0:
256,192,123019,1,0,0:0:0:0:
256,192,123096,1,0,0:0:0:0:
256,192,123250,1,8,0:0:0:0:
256,192,123404,1,0,0:0:0:0:
256,192,123558,1,8,0:0:0:0:
256,192,123865,1,0,0:0:0:0:
256,192,124173,1,8,0:0:0:0:
256,192,124327,1,0,0:0:0:0:
256,192,124481,1,8,0:0:0:0:
256,192,124788,1,0,0:0:0:0:
256,192,124942,1,8,0:0:0:0:
256,192,125096,1,0,0:0:0:0:
256,192,125250,1,0,0:0:0:0:
256,192,125404,1,8,0:0:0:0:
256,192,125711,1,8,0:0:0:0:
256,192,125865,1,8,0:0:0:0:
256,192,126019,1,0,0:0:0:0:
256,192,126173,1,8,0:0:0:0:
256,192,126327,1,0,0:0:0:0:
256,192,126481,1,0,0:0:0:0:
256,192,126634,1,8,0:0:0:0:
256,192,126788,1,0,0:0:0:0:
256,192,126865,1,0,0:0:0:0:
256,192,126942,1,0,0:0:0:0:
256,192,127250,1,0,0:0:0:0:
256,192,127404,1,8,0:0:0:0:
256,192,127558,1,0,0:0:0:0:
256,192,127711,1,0,0:0:0:0:
256,192,127865,1,8,0:0:0:0:
256,192,128173,1,8,0:0:0:0:
256,192,128327,1,8,0:0:0:0:
256,192,128481,1,0,0:0:0:0:
256,192,128634,1,0,0:0:0:0:
256,192,128788,1,8,0:0:0:0:
256,192,128942,1,0,0:0:0:0:
256,192,129019,1,0,0:0:0:0:
256,192,129096,1,0,0:0:0:0:
256,192,129250,1,0,0:0:0:0:
256,192,129404,5,8,0:0:0:0:
256,192,129558,12,0,131250,0:0:0:0:
256,192,131865,5,0,0:0:0:0:
256,192,132173,1,8,0:0:0:0:
256,192,133096,1,0,0:0:0:0:
256,192,133711,1,8,0:0:0:0:
256,192,134019,1,0,0:0:0:0:
256,192,134942,1,8,0:0:0:0:
256,192,135558,1,0,0:0:0:0:
256,192,135865,1,8,0:0:0:0:
