osu file format v14

[General]
AudioFilename: audio.mp3
AudioLeadIn: 0
PreviewTime: 98934
Countdown: 0
SampleSet: Soft
StackLeniency: 0.7
Mode: 3
LetterboxInBreaks: 0
EpilepsyWarning: 1
SpecialStyle: 0
WidescreenStoryboard: 1

[Editor]
Bookmarks: 14934,22319,29703,37088,44473,51857,59242,66626,74011,81396,88780,114626
DistanceSpacing: 0.8
BeatDivisor: 4
GridSize: 4
TimelineZoom: 1.7

[Metadata]
Title:The Last Page
TitleUnicode:The Last Page
Artist:ARForest
ArtistUnicode:ARForest
Creator:PokeSky
Version:Easy
Source:osu!
Tags:electronic instrumental artcore video game bofxv19 bms of fighters extreme violence frenz2019 inukoro lanota muse dash the unfinished fa featured artist osu!
BeatmapID:2654029
BeatmapSetID:1276332

[Difficulty]
HPDrainRate:6.5
CircleSize:4
OverallDifficulty:6.5
ApproachRate:5
SliderMultiplier:1.4
SliderTickRate:1

[Events]
//Background and Video events
0,0,"bg.jpg",0,0
//Break Periods
//Storyboard Layer 0 (Background)
//Storyboard Layer 1 (Fail)
//Storyboard Layer 2 (Pass)
//Storyboard Layer 3 (Foreground)
//Storyboard Layer 4 (Overlay)
//Storyboard Sound Samples

[TimingPoints]
7550,307.692307692308,3,2,2,30,1,0
22319,-100.0,3,2,2,40,0,0
29703,-100.0,3,2,2,50,0,1
37088,-100.0,3,2,2,30,0,0
51857,-100.0,3,2,2,40,0,0
59242,-100.0,3,2,2,30,0,0
66626,-100.0,3,2,2,40,0,0
74011,-100.0,3,2,2,50,0,0
81396,-100.0,3,2,2,30,0,0
88780,-100.0,3,2,2,40,0,0
94319,-100.0,3,2,2,50,0,0
99857,-100.0,3,2,1,60,0,1
129396,-100.0,3,2,1,30,0,0

[HitObjects]
320,192,7550,1,0,0:0:0:0:
64,192,7857,128,0,8165:0:0:0:0:
448,192,8165,1,0,0:0:0:0:
320,192,8319,1,0,0:0:0:0:
192,192,8473,1,0,0:0:0:0:
448,192,8780,128,0,9088:0:0:0:0:
64,192,9088,1,0,0:0:0:0:
192,192,9242,1,0,0:0:0:0:
320,192,9396,1,0,0:0:0:0:
192,192,9703,128,0,10011:0:0:0:0:
448,192,10011,1,0,0:0:0:0:
64,192,10165,1,0,0:0:0:0:
320,192,10319,1,0,0:0:0:0:
448,192,10626,128,0,10934:0:0:0:0:
192,192,10934,1,0,0:0:0:0:
320,192,11088,1,0,0:0:0:0:
64,192,11242,1,0,0:0:0:0:
192,192,11550,128,0,11857:0:0:0:0:
320,192,11857,1,0,0:0:0:0:
448,192,12011,1,0,0:0:0:0:
64,192,12165,1,0,0:0:0:0:
320,192,12473,128,0,12780:0:0:0:0:
192,192,12780,1,0,0:0:0:0:
448,192,12934,1,0,0:0:0:0:
64,192,13088,1,0,0:0:0:0:
192,192,13396,128,0,13703:0:0:0:0:
448,192,13703,1,0,0:0:0:0:
320,192,13857,1,0,0:0:0:0:
192,192,14011,1,0,0:0:0:0:
448,192,14319,128,0,14626:0:0:0:0:
64,192,14626,1,0,0:0:0:0:
320,192,14780,1,0,0:0:0:0:
192,192,14934,1,0,0:0:0:0:
64,192,15242,128,0,15550:0:0:0:0:
448,192,15550,1,0,0:0:0:0:
320,192,15703,1,0,0:0:0:0:
192,192,15857,1,0,0:0:0:0:
448,192,16165,128,0,16473:0:0:0:0:
64,192,16473,1,0,0:0:0:0:
320,192,16626,1,0,0:0:0:0:
192,192,16780,1,0,0:0:0:0:
320,192,17088,128,0,17396:0:0:0:0:
64,192,17396,1,0,0:0:0:0:
448,192,17550,1,0,0:0:0:0:
192,192,17703,1,0,0:0:0:0:
64,192,18011,128,0,18319:0:0:0:0:
320,192,18319,1,0,0:0:0:0:
192,192,18473,1,0,0:0:0:0:
448,192,18626,1,0,0:0:0:0:
320,192,18934,128,0,19242:0:0:0:0:
64,192,19242,1,0,0:0:0:0:
192,192,19396,1,0,0:0:0:0:
320,192,19550,1,0,0:0:0:0:
448,192,19857,128,0,20165:0:0:0:0:
320,192,20165,1,0,0:0:0:0:
64,192,20319,1,0,0:0:0:0:
192,192,20473,1,0,0:0:0:0:
320,192,20780,128,0,21088:0:0:0:0:
64,192,21088,1,0,0:0:0:0:
448,192,21242,1,0,0:0:0:0:
192,192,21396,1,0,0:0:0:0:
320,192,21703,1,0,0:0:0:0:
64,192,21857,128,0,22011:0:0:0:0:
192,192,22011,128,0,22165:0:0:0:0:
320,192,22165,128,0,22319:0:0:0:0:
448,192,22319,128,10,22934:0:0:0:0:
64,192,22934,128,0,23242:0:0:0:0:
448,192,23242,128,8,23550:0:0:0:0:
192,192,23550,128,8,23857:0:0:0:0:
320,192,23857,128,8,24165:0:0:0:0:
64,192,24165,128,8,24780:0:0:0:0:
448,192,24780,128,8,25088:0:0:0:0:
192,192,25088,128,8,25396:0:0:0:0:
320,192,25396,128,0,25703:0:0:0:0:
448,192,25703,128,8,26011:0:0:0:0:
64,192,26011,128,10,26626:0:0:0:0:
64,192,26934,128,8,27242:0:0:0:0:
192,192,27242,128,8,27550:0:0:0:0:
320,192,27550,128,8,27857:0:0:0:0:
448,192,27857,128,8,28473:0:0:0:0:
192,192,28473,128,8,28780:0:0:0:0:
64,192,28780,128,8,29088:0:0:0:0:
320,192,29088,128,0,29396:0:0:0:0:
448,192,29396,128,8,29703:0:0:0:0:
64,192,29703,1,10,0:0:0:0:
192,192,29703,1,4,0:0:0:0:
320,192,30011,1,8,0:0:0:0:
64,192,30165,1,10,0:0:0:0:
448,192,30473,1,8,0:0:0:0:
192,192,30626,1,10,0:0:0:0:
320,192,30780,1,8,0:0:0:0:
64,192,30934,128,10,31242:0:0:0:0:
448,192,31242,1,10,0:0:0:0:
320,192,31396,1,8,0:0:0:0:
192,192,31550,1,10,0:0:0:0:
64,192,32011,1,10,0:0:0:0:
448,192,32165,1,8,0:0:0:0:
192,192,32473,1,10,0:0:0:0:
320,192,32780,1,2,0:0:0:0:
64,192,33088,1,10,0:0:0:0:
448,192,33242,1,8,0:0:0:0:
192,192,33396,1,10,0:0:0:0:
64,192,33857,1,10,0:0:0:0:
320,192,34165,1,8,0:0:0:0:
192,192,34319,1,10,0:0:0:0:
448,192,34626,128,10,34934:0:0:0:0:
64,192,34934,1,10,0:0:0:0:
192,192,35088,1,8,0:0:0:0:
320,192,35242,1,10,0:0:0:0:
448,192,35703,1,10,0:0:0:0:
64,192,35857,1,8,0:0:0:0:
192,192,36011,1,8,0:0:0:0:
320,192,36165,1,10,0:0:0:0:
64,192,36473,1,8,0:0:0:0:
192,192,36626,1,8,0:0:0:0:
320,192,36780,1,10,0:0:0:0:
448,192,36934,1,8,0:0:0:0:
64,192,37088,1,4,0:0:0:0:
192,192,37088,1,0,0:0:0:0:
320,192,37396,1,0,0:0:0:0:
448,192,37550,1,0,0:0:0:0:
64,192,37857,1,0,0:0:0:0:
192,192,38011,1,0,0:0:0:0:
448,192,38319,1,0,0:0:0:0:
192,192,38473,1,0,0:0:0:0:
320,192,38626,1,0,0:0:0:0:
64,192,38780,1,0,0:0:0:0:
448,192,38934,1,0,0:0:0:0:
192,192,39242,1,0,0:0:0:0:
320,192,39396,1,0,0:0:0:0:
64,192,39703,1,0,0:0:0:0:
448,192,39857,1,0,0:0:0:0:
320,192,40011,1,0,0:0:0:0:
192,192,40165,1,0,0:0:0:0:
448,192,40473,1,0,0:0:0:0:
320,192,40780,1,0,0:0:0:0:
192,192,40934,1,0,0:0:0:0:
64,192,41088,1,0,0:0:0:0:
448,192,41242,1,0,0:0:0:0:
192,192,41550,1,0,0:0:0:0:
320,192,41703,1,0,0:0:0:0:
64,192,42011,1,0,0:0:0:0:
192,192,42319,1,0,0:0:0:0:
320,192,42626,1,0,0:0:0:0:
448,192,42780,1,0,0:0:0:0:
64,192,43088,1,0,0:0:0:0:
320,192,43242,1,0,0:0:0:0:
192,192,43550,1,0,0:0:0:0:
64,192,43857,1,0,0:0:0:0:
320,192,44165,1,0,0:0:0:0:
192,192,44473,1,0,0:0:0:0:
448,192,44780,1,0,0:0:0:0:
448,192,45088,1,0,0:0:0:0:
64,192,45396,1,0,0:0:0:0:
320,192,45703,1,0,0:0:0:0:
320,192,46011,1,0,0:0:0:0:
448,192,46319,1,0,0:0:0:0:
192,192,46626,1,0,0:0:0:0:
192,192,46934,1,0,0:0:0:0:
320,192,47242,1,0,0:0:0:0:
64,192,47550,1,0,0:0:0:0:
64,192,47857,1,0,0:0:0:0:
448,192,48165,1,0,0:0:0:0:
192,192,48473,1,0,0:0:0:0:
192,192,48780,1,0,0:0:0:0:
64,192,49088,1,0,0:0:0:0:
448,192,49396,1,0,0:0:0:0:
448,192,49703,1,0,0:0:0:0:
320,192,50011,128,0,50319:0:0:0:0:
192,192,50319,128,0,50626:0:0:0:0:
448,192,50626,128,0,50934:0:0:0:0:
64,192,50934,128,0,51242:0:0:0:0:
192,192,51242,128,0,51550:0:0:0:0:
320,192,51550,128,0,51857:0:0:0:0:
64,192,51857,1,2,0:0:0:0:
448,192,52165,1,8,0:0:0:0:
448,192,52473,1,8,0:0:0:0:
64,192,53088,1,8,0:0:0:0:
320,192,53242,1,8,0:0:0:0:
64,192,53396,1,8,0:0:0:0:
192,192,54011,1,8,0:0:0:0:
192,192,54319,1,8,0:0:0:0:
448,192,54934,1,8,0:0:0:0:
64,192,55088,1,8,0:0:0:0:
448,192,55242,1,8,0:0:0:0:
64,192,55396,1,8,0:0:0:0:
448,192,55550,1,10,0:0:0:0:
192,192,55857,1,8,0:0:0:0:
192,192,56165,1,8,0:0:0:0:
448,192,56780,1,8,0:0:0:0:
64,192,56934,1,8,0:0:0:0:
448,192,57088,1,8,0:0:0:0:
192,192,57703,1,8,0:0:0:0:
192,192,58011,1,8,0:0:0:0:
320,192,58319,128,0,59242:0:0:0:0:
64,192,59242,1,4,0:0:0:0:
192,192,59242,1,0,0:0:0:0:
448,192,59550,1,0,0:0:0:0:
192,192,59703,1,0,0:0:0:0:
64,192,60165,1,0,0:0:0:0:
64,192,60473,1,0,0:0:0:0:
192,192,60626,1,0,0:0:0:0:
320,192,60780,1,0,0:0:0:0:
448,192,61088,1,0,0:0:0:0:
448,192,61396,1,0,0:0:0:0:
448,192,61703,1,0,0:0:0:0:
192,192,62011,1,0,0:0:0:0:
64,192,62165,1,0,0:0:0:0:
448,192,62319,1,0,0:0:0:0:
320,192,62473,1,0,0:0:0:0:
192,192,62626,1,0,0:0:0:0:
448,192,62934,1,0,0:0:0:0:
64,192,63242,1,0,0:0:0:0:
320,192,63550,1,0,0:0:0:0:
192,192,63857,1,0,0:0:0:0:
448,192,64165,1,0,0:0:0:0:
64,192,64319,1,0,0:0:0:0:
320,192,64473,1,0,0:0:0:0:
192,192,64626,1,0,0:0:0:0:
64,192,64780,1,0,0:0:0:0:
448,192,65088,1,0,0:0:0:0:
192,192,65396,1,0,0:0:0:0:
320,192,65550,1,0,0:0:0:0:
448,192,65703,128,0,66011:0:0:0:0:
192,192,66011,128,0,66165:0:0:0:0:
320,192,66165,128,0,66319:0:0:0:0:
64,192,66319,128,0,66473:0:0:0:0:
448,192,66473,128,0,66626:0:0:0:0:
192,192,66626,1,2,0:0:0:0:
320,192,66934,1,0,0:0:0:0:
64,192,67242,1,0,0:0:0:0:
192,192,67396,1,8,0:0:0:0:
320,192,67550,1,8,0:0:0:0:
64,192,67857,128,8,68165:0:0:0:0:
448,192,68165,1,8,0:0:0:0:
320,192,68319,1,8,0:0:0:0:
192,192,68473,1,8,0:0:0:0:
448,192,68780,1,0,0:0:0:0:
64,192,69088,1,8,0:0:0:0:
320,192,69242,1,8,0:0:0:0:
192,192,69396,1,8,0:0:0:0:
448,192,69703,1,0,0:0:0:0:
320,192,70011,1,8,0:0:0:0:
64,192,70165,1,8,0:0:0:0:
192,192,70319,1,10,0:0:0:0:
448,192,70626,1,0,0:0:0:0:
64,192,70934,1,0,0:0:0:0:
192,192,71088,1,8,0:0:0:0:
320,192,71242,1,8,0:0:0:0:
448,192,71550,128,8,71857:0:0:0:0:
64,192,71857,1,8,0:0:0:0:
192,192,72011,1,8,0:0:0:0:
320,192,72165,1,8,0:0:0:0:
64,192,72473,1,0,0:0:0:0:
448,192,72780,1,8,0:0:0:0:
192,192,72934,1,8,0:0:0:0:
320,192,73088,1,8,0:0:0:0:
64,192,73396,1,0,0:0:0:0:
448,192,73550,1,8,0:0:0:0:
192,192,73703,1,8,0:0:0:0:
320,192,73857,1,8,0:0:0:0:
64,192,74011,1,12,0:0:0:0:
448,192,74011,1,2,0:0:0:0:
192,192,74319,1,0,0:0:0:0:
320,192,74473,1,2,0:0:0:0:
448,192,74473,1,0,0:0:0:0:
64,192,74780,1,8,0:0:0:0:
192,192,74934,1,2,0:0:0:0:
320,192,74934,1,8,0:0:0:0:
448,192,75242,128,10,75550:0:0:0:0:
64,192,75550,1,8,0:0:0:0:
192,192,75550,1,2,0:0:0:0:
320,192,75857,1,8,0:0:0:0:
448,192,75857,1,2,0:0:0:0:
192,192,76165,1,0,0:0:0:0:
64,192,76319,1,2,0:0:0:0:
448,192,76319,1,0,0:0:0:0:
320,192,76626,1,8,0:0:0:0:
64,192,76780,1,2,0:0:0:0:
192,192,76780,1,8,0:0:0:0:
320,192,77088,1,2,0:0:0:0:
448,192,77088,1,0,0:0:0:0:
64,192,77396,1,2,0:0:0:0:
448,192,77396,1,8,0:0:0:0:
64,192,77703,1,2,0:0:0:0:
192,192,77703,1,8,0:0:0:0:
448,192,78011,1,0,0:0:0:0:
192,192,78165,1,2,0:0:0:0:
320,192,78165,1,0,0:0:0:0:
64,192,78473,1,8,0:0:0:0:
320,192,78626,1,2,0:0:0:0:
448,192,78626,1,8,0:0:0:0:
192,192,78934,128,10,79242:0:0:0:0:
320,192,79242,1,8,0:0:0:0:
448,192,79242,1,2,0:0:0:0:
64,192,79550,1,2,0:0:0:0:
192,192,79550,1,8,0:0:0:0:
448,192,79857,1,0,0:0:0:0:
64,192,80011,1,2,0:0:0:0:
320,192,80011,1,0,0:0:0:0:
192,192,80319,1,0,0:0:0:0:
320,192,80473,1,2,0:0:0:0:
448,192,80473,1,8,0:0:0:0:
64,192,80780,1,0,0:0:0:0:
192,192,80934,1,8,0:0:0:0:
320,192,81088,1,10,0:0:0:0:
448,192,81242,1,8,0:0:0:0:
64,192,81396,1,4,0:0:0:0:
192,192,81396,1,0,0:0:0:0:
64,192,82011,1,0,0:0:0:0:
448,192,82319,1,0,0:0:0:0:
320,192,82626,1,0,0:0:0:0:
192,192,82934,1,0,0:0:0:0:
64,192,83242,1,0,0:0:0:0:
192,192,84165,1,0,0:0:0:0:
320,192,84626,1,0,0:0:0:0:
448,192,85088,1,0,0:0:0:0:
320,192,85550,1,0,0:0:0:0:
64,192,86011,1,0,0:0:0:0:
192,192,86319,1,0,0:0:0:0:
320,192,86626,1,0,0:0:0:0:
448,192,86934,1,0,0:0:0:0:
320,192,87242,1,0,0:0:0:0:
192,192,87550,1,0,0:0:0:0:
64,192,87857,1,0,0:0:0:0:
192,192,88165,1,0,0:0:0:0:
448,192,88473,1,0,0:0:0:0:
64,192,88780,1,4,0:0:0:0:
320,192,88780,128,2,89242:0:0:0:0:
64,192,89242,128,0,89703:0:0:0:0:
192,192,89703,128,0,90011:0:0:0:0:
320,192,90011,128,0,90319:0:0:0:0:
448,192,90319,128,0,90626:0:0:0:0:
64,192,90626,128,0,90934:0:0:0:0:
320,192,90934,128,0,91242:0:0:0:0:
64,192,91242,128,0,91550:0:0:0:0:
448,192,91550,128,0,91857:0:0:0:0:
192,192,91857,128,0,92165:0:0:0:0:
448,192,92165,128,0,92473:0:0:0:0:
64,192,92473,128,0,93703:0:0:0:0:
192,192,93703,128,0,94011:0:0:0:0:
320,192,94011,128,0,94319:0:0:0:0:
448,192,94319,128,8,96165:0:0:0:0:
64,192,94626,1,8,0:0:0:0:
192,192,94934,1,8,0:0:0:0:
320,192,95242,1,8,0:0:0:0:
64,192,95550,1,8,0:0:0:0:
192,192,95857,1,8,0:0:0:0:
320,192,96165,1,12,0:0:0:0:
64,192,98934,128,8,99242:0:0:0:0:
320,192,99242,128,8,99550:0:0:0:0:
192,192,99550,128,8,99857:0:0:0:0:
64,192,99857,1,12,0:0:0:0:
448,192,99857,1,2,0:0:0:0:
320,192,100165,1,8,0:0:0:0:
448,192,100165,1,0,0:0:0:0:
64,192,100473,1,8,0:0:0:0:
320,192,100473,1,0,0:0:0:0:
64,192,101011,1,8,0:0:0:0:
192,192,101011,1,0,0:0:0:0:
320,192,101396,1,8,0:0:0:0:
448,192,101396,1,0,0:0:0:0:
192,192,101703,1,2,0:0:0:0:
64,192,101934,1,8,0:0:0:0:
448,192,101934,1,0,0:0:0:0:
192,192,102319,1,8,0:0:0:0:
320,192,102319,1,0,0:0:0:0:
64,192,102626,1,2,0:0:0:0:
448,192,102780,1,8,0:0:0:0:
192,192,102934,1,2,0:0:0:0:
320,192,103242,1,8,0:0:0:0:
448,192,103242,1,0,0:0:0:0:
64,192,103550,1,2,0:0:0:0:
192,192,103857,1,8,0:0:0:0:
448,192,103857,1,0,0:0:0:0:
64,192,104165,1,8,0:0:0:0:
320,192,104165,1,0,0:0:0:0:
320,192,104626,1,8,0:0:0:0:
448,192,104626,1,0,0:0:0:0:
64,192,104780,1,2,0:0:0:0:
192,192,105088,1,8,0:0:0:0:
320,192,105088,1,0,0:0:0:0:
320,192,105396,1,8,0:0:0:0:
448,192,105396,1,0,0:0:0:0:
64,192,105857,1,8,0:0:0:0:
192,192,105857,1,0,0:0:0:0:
192,192,106319,1,8,0:0:0:0:
448,192,106319,1,0,0:0:0:0:
64,192,106626,1,8,0:0:0:0:
320,192,106626,1,0,0:0:0:0:
64,192,106934,1,8,0:0:0:0:
192,192,106934,1,0,0:0:0:0:
448,192,107242,1,2,0:0:0:0:
192,192,107550,1,8,0:0:0:0:
320,192,107550,1,0,0:0:0:0:
64,192,107857,1,8,0:0:0:0:
320,192,107857,1,0,0:0:0:0:
192,192,108396,1,8,0:0:0:0:
448,192,108396,1,0,0:0:0:0:
64,192,108780,1,8,0:0:0:0:
320,192,108780,1,0,0:0:0:0:
192,192,109088,1,2,0:0:0:0:
320,192,109319,1,8,0:0:0:0:
448,192,109319,1,0,0:0:0:0:
64,192,109703,1,8,0:0:0:0:
192,192,109703,1,0,0:0:0:0:
448,192,110011,1,2,0:0:0:0:
320,192,110165,1,8,0:0:0:0:
192,192,110319,1,2,0:0:0:0:
64,192,110626,1,8,0:0:0:0:
448,192,110626,1,0,0:0:0:0:
192,192,110934,1,8,0:0:0:0:
320,192,110934,1,4,0:0:0:0:
64,192,111396,1,8,0:0:0:0:
320,192,111396,1,0,0:0:0:0:
192,192,111857,1,8,0:0:0:0:
448,192,111857,1,4,0:0:0:0:
64,192,112165,1,2,0:0:0:0:
192,192,112319,1,8,0:0:0:0:
448,192,112473,1,2,0:0:0:0:
320,192,112626,1,8,0:0:0:0:
64,192,112780,1,8,0:0:0:0:
192,192,112780,1,4,0:0:0:0:
448,192,113088,1,2,0:0:0:0:
64,192,113242,1,8,0:0:0:0:
320,192,113396,1,2,0:0:0:0:
64,192,113703,1,10,0:0:0:0:
192,192,113703,1,4,0:0:0:0:
320,192,114011,1,2,0:0:0:0:
448,192,114011,1,8,0:0:0:0:
64,192,114319,1,8,0:0:0:0:
448,192,114319,1,2,0:0:0:0:
192,192,114626,1,10,0:0:0:0:
320,192,114626,1,4,0:0:0:0:
64,192,114934,1,8,0:0:0:0:
192,192,114934,1,0,0:0:0:0:
64,192,115242,1,8,0:0:0:0:
448,192,115242,1,0,0:0:0:0:
320,192,115780,1,8,0:0:0:0:
448,192,115780,1,0,0:0:0:0:
64,192,116165,1,8,0:0:0:0:
192,192,116165,1,0,0:0:0:0:
320,192,116473,1,2,0:0:0:0:
64,192,116703,1,8,0:0:0:0:
448,192,116703,1,0,0:0:0:0:
192,192,117088,1,8,0:0:0:0:
320,192,117088,1,0,0:0:0:0:
448,192,117396,1,2,0:0:0:0:
64,192,117550,1,8,0:0:0:0:
320,192,117703,1,2,0:0:0:0:
64,192,118011,1,8,0:0:0:0:
192,192,118011,1,0,0:0:0:0:
448,192,118319,1,2,0:0:0:0:
64,192,118626,1,8,0:0:0:0:
320,192,118626,1,0,0:0:0:0:
192,192,118934,1,8,0:0:0:0:
448,192,118934,1,0,0:0:0:0:
64,192,119396,1,8,0:0:0:0:
192,192,119396,1,0,0:0:0:0:
448,192,119550,1,2,0:0:0:0:
192,192,119857,1,8,0:0:0:0:
320,192,119857,1,0,0:0:0:0:
64,192,120165,1,8,0:0:0:0:
448,192,120165,1,0,0:0:0:0:
320,192,120626,1,8,0:0:0:0:
448,192,120626,1,0,0:0:0:0:
64,192,121088,1,8,0:0:0:0:
320,192,121088,1,0,0:0:0:0:
192,192,121396,1,8,0:0:0:0:
448,192,121396,1,0,0:0:0:0:
320,192,121703,1,8,0:0:0:0:
448,192,121703,1,0,0:0:0:0:
64,192,122011,1,2,0:0:0:0:
192,192,122011,1,4,0:0:0:0:
64,192,122319,1,8,0:0:0:0:
320,192,122319,1,0,0:0:0:0:
192,192,122626,1,8,0:0:0:0:
448,192,122626,1,0,0:0:0:0:
64,192,123165,1,8,0:0:0:0:
320,192,123165,1,0,0:0:0:0:
192,192,123550,1,8,0:0:0:0:
448,192,123550,1,0,0:0:0:0:
320,192,123857,1,2,0:0:0:0:
64,192,124088,1,8,0:0:0:0:
192,192,124088,1,0,0:0:0:0:
320,192,124473,1,8,0:0:0:0:
448,192,124473,1,0,0:0:0:0:
64,192,124780,1,2,0:0:0:0:
192,192,124934,1,8,0:0:0:0:
320,192,125088,1,2,0:0:0:0:
64,192,125396,1,8,0:0:0:0:
448,192,125396,1,0,0:0:0:0:
192,192,125703,1,8,0:0:0:0:
320,192,125703,1,4,0:0:0:0:
192,192,126165,1,8,0:0:0:0:
448,192,126165,1,0,0:0:0:0:
64,192,126626,1,8,0:0:0:0:
320,192,126626,1,0,0:0:0:0:
448,192,126934,1,2,0:0:0:0:
320,192,127088,1,8,0:0:0:0:
64,192,127242,1,2,0:0:0:0:
192,192,127396,1,8,0:0:0:0:
320,192,127550,1,8,0:0:0:0:
448,192,127550,1,4,0:0:0:0:
64,192,127857,1,8,0:0:0:0:
448,192,127857,1,0,0:0:0:0:
192,192,128165,1,8,0:0:0:0:
320,192,128165,1,0,0:0:0:0:
64,192,128473,1,8,0:0:0:0:
192,192,128473,1,2,0:0:0:0:
320,192,128780,1,2,0:0:0:0:
448,192,128780,1,8,0:0:0:0:
192,192,129088,1,10,0:0:0:0:
320,192,129242,1,10,0:0:0:0:
64,192,129396,1,2,0:0:0:0:
448,192,129396,1,4,0:0:0:0:
192,192,129703,128,0,130011:0:0:0:0:
448,192,130011,1,0,0:0:0:0:
64,192,130165,1,0,0:0:0:0:
320,192,130319,1,0,0:0:0:0:
448,192,130626,128,0,130934:0:0:0:0:
192,192,130934,1,0,0:0:0:0:
64,192,131088,1,0,0:0:0:0:
320,192,131242,1,0,0:0:0:0:
192,192,131550,128,0,131857:0:0:0:0:
448,192,131857,1,0,0:0:0:0:
320,192,132011,1,0,0:0:0:0:
64,192,132165,1,0,0:0:0:0:
448,192,132473,128,0,132780:0:0:0:0:
192,192,132780,1,0,0:0:0:0:
320,192,132934,1,0,0:0:0:0:
64,192,133088,1,0,0:0:0:0:
320,192,133396,128,0,133703:0:0:0:0:
192,192,133703,1,0,0:0:0:0:
64,192,133857,1,0,0:0:0:0:
448,192,134011,1,0,0:0:0:0:
64,192,134319,128,0,134626:0:0:0:0:
320,192,134626,1,0,0:0:0:0:
192,192,134780,1,0,0:0:0:0:
448,192,134934,1,0,0:0:0:0:
320,192,135242,128,0,135550:0:0:0:0:
64,192,135550,1,0,0:0:0:0:
448,192,135703,1,0,0:0:0:0:
192,192,135857,1,0,0:0:0:0:
448,192,136165,128,0,136473:0:0:0:0:
64,192,136473,1,0,0:0:0:0:
320,192,136626,1,0,0:0:0:0:
