osu file format v14

[General]
AudioFilename: audio.mp3
AudioLeadIn: 0
PreviewTime: 98929
Countdown: 0
SampleSet: Soft
StackLeniency: 0.7
Mode: 3
LetterboxInBreaks: 0
EpilepsyWarning: 1
SpecialStyle: 0
WidescreenStoryboard: 1

[Editor]
DistanceSpacing: 0.8
BeatDivisor: 4
GridSize: 4
TimelineZoom: 3.400001

[Metadata]
Title:The Last Page
TitleUnicode:The Last Page
Artist:ARForest
ArtistUnicode:ARForest
Creator:Keiga
Version:Grand Finale
Source:osu!
Tags:-ziel- peter _kobii k_a_b_i_- electronic video game instrumental artcore unfinished frenz2019 bofxv19 bms of fighters extreme violence sleep deprived collective fa featured artist mg mappers' guild lanota muse dash
BeatmapID:2697513
BeatmapSetID:1300398

[Difficulty]
HPDrainRate:8.5
CircleSize:4
OverallDifficulty:7.5
ApproachRate:5
SliderMultiplier:1.4
SliderTickRate:1

[Events]
//Background and Video events
0,0,"pexels-hristo-fidanov-1252869 crop.jpg",0,0
//Break Periods
//Storyboard Layer 0 (Background)
//Storyboard Layer 1 (Fail)
//Storyboard Layer 2 (Pass)
//Storyboard Layer 3 (Foreground)
//Storyboard Layer 4 (Overlay)
//Storyboard Sound Samples

[TimingPoints]
7564,307.692307692308,3,2,1,30,1,0
22333,-100,3,2,1,40,0,0
29717,-100,3,2,1,50,0,0
37179,-100,3,2,1,30,0,0
51871,-100,3,2,1,40,0,0
59333,-100,3,2,1,30,0,0
66640,-100,3,2,1,40,0,0
74025,-100,3,2,1,50,0,0
81487,-100,3,2,1,30,0,0
88794,-100,3,2,1,40,0,0
92487,-100,3,2,1,50,0,0
96256,-100,3,2,1,20,0,0
98948,-100,3,2,1,50,0,0
99871,-100,3,2,1,60,0,1
129410,-100,3,2,1,60,0,0
129487,-100,3,2,1,50,0,0
130333,-100,3,2,1,40,0,0
131256,-100,3,2,1,30,0,0

[HitObjects]
64,192,7564,5,0,0:0:0:30:LR_Chm Med.wav
192,192,7564,128,0,7615:0:0:0:0:
448,192,7564,1,0,0:0:0:0:
448,192,7871,128,0,7922:0:0:0:0:
192,192,7948,128,0,7999:0:0:0:0:
320,192,8025,128,0,8076:0:0:0:0:
64,192,8102,128,0,8153:0:0:0:0:
192,192,8179,128,0,8230:0:0:0:0:
192,192,8333,128,0,8384:0:0:0:0:
192,192,8487,128,0,8538:0:0:0:0:
448,192,8794,128,0,8846:0:0:0:0:
320,192,8871,128,0,8922:0:0:0:0:
192,192,8948,128,0,8999:0:0:0:0:
64,192,9025,128,0,9076:0:0:0:0:
192,192,9102,128,0,9153:0:0:0:0:
320,192,9256,128,0,9307:0:0:0:0:
192,192,9410,128,0,9461:0:0:0:0:
448,192,9717,128,0,9769:0:0:0:0:
192,192,9794,128,0,9846:0:0:0:0:
320,192,9871,128,0,9922:0:0:0:0:
64,192,9948,128,0,9999:0:0:0:0:
192,192,10025,128,0,10076:0:0:0:0:
192,192,10179,128,0,10230:0:0:0:0:
192,192,10333,128,0,10384:0:0:0:0:
448,192,10640,128,0,10692:0:0:0:0:
320,192,10717,128,0,10769:0:0:0:0:
192,192,10794,128,0,10846:0:0:0:0:
64,192,10871,128,0,10922:0:0:0:0:
320,192,10948,128,0,10999:0:0:0:0:
448,192,11102,128,0,11153:0:0:0:0:
192,192,11256,128,0,11307:0:0:0:0:
448,192,11564,128,0,11615:0:0:0:0:
192,192,11640,128,0,11692:0:0:0:0:
320,192,11717,128,0,11769:0:0:0:0:
64,192,11794,128,0,11846:0:0:0:0:
192,192,11871,128,0,11922:0:0:0:0:
192,192,12025,128,0,12076:0:0:0:0:
192,192,12179,128,0,12230:0:0:0:0:
448,192,12487,128,0,12538:0:0:0:0:
320,192,12564,128,0,12615:0:0:0:0:
192,192,12640,128,0,12692:0:0:0:0:
64,192,12717,128,0,12769:0:0:0:0:
192,192,12794,128,0,12846:0:0:0:0:
320,192,12948,128,0,12999:0:0:0:0:
192,192,13102,128,0,13153:0:0:0:0:
448,192,13410,128,0,13461:0:0:0:0:
192,192,13487,128,0,13538:0:0:0:0:
320,192,13564,128,0,13615:0:0:0:0:
64,192,13640,128,0,13692:0:0:0:0:
192,192,13717,128,0,13769:0:0:0:0:
192,192,13871,128,0,13922:0:0:0:0:
192,192,14025,128,0,14076:0:0:0:0:
448,192,14333,128,0,14384:0:0:0:0:
320,192,14410,128,0,14461:0:0:0:0:
192,192,14487,128,0,14538:0:0:0:0:
64,192,14564,128,0,14615:0:0:0:0:
320,192,14640,128,0,14692:0:0:0:0:
448,192,14794,128,0,14846:0:0:0:0:
64,192,14948,1,0,0:0:0:0:
192,192,14948,128,0,14999:0:0:0:0:
64,192,15256,1,0,0:0:0:0:
448,192,15256,128,0,15307:0:0:0:0:
192,192,15333,128,0,15384:0:0:0:0:
320,192,15410,128,0,15461:0:0:0:0:
448,192,15410,1,0,0:0:0:0:
64,192,15487,128,0,15538:0:0:0:0:
192,192,15564,128,0,15615:0:0:0:0:
448,192,15564,128,0,15871:0:0:0:0:
192,192,15717,128,0,15769:0:0:0:0:
64,192,15871,1,0,0:0:0:0:
192,192,15871,128,0,15922:0:0:0:0:
320,192,16025,1,0,0:0:0:0:
64,192,16179,1,0,0:0:0:0:
448,192,16179,128,0,16230:0:0:0:0:
320,192,16256,128,0,16307:0:0:0:0:
192,192,16333,128,0,16384:0:0:0:0:
64,192,16410,128,0,16461:0:0:0:0:
192,192,16487,128,0,16538:0:0:0:0:
448,192,16487,128,0,16640:0:0:0:0:
320,192,16640,128,0,16692:0:0:0:0:
192,192,16794,128,0,16846:0:0:0:0:
448,192,16794,1,0,0:0:0:0:
64,192,16948,1,0,0:0:0:0:
64,192,17102,1,0,0:0:0:0:
448,192,17102,128,0,17153:0:0:0:0:
192,192,17179,128,0,17230:0:0:0:0:
320,192,17256,128,0,17307:0:0:0:0:
448,192,17256,1,0,0:0:0:0:
64,192,17333,128,0,17384:0:0:0:0:
192,192,17410,128,0,17461:0:0:0:0:
448,192,17410,128,0,17717:0:0:0:0:
192,192,17564,128,0,17615:0:0:0:0:
64,192,17717,1,0,0:0:0:0:
192,192,17717,128,0,17769:0:0:0:0:
320,192,17871,1,0,0:0:0:0:
64,192,18025,1,0,0:0:0:0:
448,192,18025,128,0,18076:0:0:0:0:
320,192,18102,128,0,18153:0:0:0:0:
192,192,18179,128,0,18230:0:0:0:0:
64,192,18256,128,0,18307:0:0:0:0:
320,192,18333,128,0,18384:0:0:0:0:
448,192,18333,1,0,0:0:0:0:
448,192,18487,128,0,18538:0:0:0:0:
64,192,18640,1,0,0:0:0:0:
192,192,18640,128,0,18692:0:0:0:0:
64,192,18948,1,0,0:0:0:0:
448,192,18948,128,0,18999:0:0:0:0:
192,192,19025,128,0,19076:0:0:0:0:
320,192,19102,128,0,19153:0:0:0:0:
448,192,19102,1,0,0:0:0:0:
64,192,19179,128,0,19230:0:0:0:0:
192,192,19256,128,0,19307:0:0:0:0:
448,192,19256,128,0,19564:0:0:0:0:
192,192,19410,128,0,19461:0:0:0:0:
64,192,19564,1,0,0:0:0:0:
192,192,19564,128,0,19615:0:0:0:0:
320,192,19717,1,0,0:0:0:0:
64,192,19871,1,0,0:0:0:0:
448,192,19871,128,0,19922:0:0:0:0:
320,192,19948,128,0,19999:0:0:0:0:
192,192,20025,128,0,20076:0:0:0:0:
64,192,20102,128,0,20153:0:0:0:0:
192,192,20179,128,0,20230:0:0:0:0:
448,192,20179,128,0,20333:0:0:0:0:
320,192,20333,128,0,20384:0:0:0:0:
192,192,20487,128,0,20538:0:0:0:0:
448,192,20487,1,0,0:0:0:0:
64,192,20640,1,0,0:0:0:0:
64,192,20794,1,0,0:0:0:0:
448,192,20794,128,0,20846:0:0:0:0:
192,192,20871,128,0,20922:0:0:0:0:
320,192,20948,128,0,20999:0:0:0:0:
448,192,20948,1,0,0:0:0:0:
64,192,21025,128,0,21076:0:0:0:0:
192,192,21102,128,0,21153:0:0:0:0:
448,192,21102,128,0,21410:0:0:0:0:
192,192,21256,128,0,21307:0:0:0:0:
64,192,21410,1,0,0:0:0:0:
192,192,21410,128,0,21461:0:0:0:0:
320,192,21564,1,0,0:0:0:0:
64,192,21717,1,0,0:0:0:0:
448,192,21717,128,0,21769:0:0:0:0:
320,192,21794,128,0,21846:0:0:0:0:
64,192,21871,128,0,22025:0:0:0:0:
192,192,22025,128,0,22179:0:0:0:0:
448,192,22025,1,0,0:0:0:0:
320,192,22179,128,0,22333:0:0:0:0:
64,192,22333,1,2,0:0:0:0:
192,192,22333,1,8,0:0:0:0:
448,192,22333,128,0,22948:0:0:0:0:
64,192,22640,1,0,0:0:0:0:
64,192,22794,1,0,0:0:0:0:
64,192,22948,128,0,23256:0:0:0:0:
320,192,22948,128,0,23256:0:0:0:0:
192,192,23102,1,8,0:0:0:0:
448,192,23102,1,0,0:0:0:0:
192,192,23256,1,8,0:0:0:0:
448,192,23256,128,0,23564:0:0:0:0:
64,192,23564,1,8,0:0:0:0:
320,192,23564,1,0,0:0:0:0:
192,192,23615,1,8,0:0:0:0:
448,192,23666,1,8,0:0:0:0:
64,192,23717,1,8,0:0:0:0:
192,192,23769,1,8,0:0:0:0:
448,192,23820,1,8,0:0:0:0:
64,192,23871,1,8,0:0:0:0:
320,192,23871,128,0,24179:0:0:0:0:
192,192,24025,1,8,0:0:0:0:
192,192,24179,128,8,25102:0:0:0:0:
448,192,24179,1,0,0:0:0:0:
64,192,24333,1,0,0:0:0:0:
448,192,24487,128,0,24640:0:0:0:0:
64,192,24794,1,8,0:0:0:0:
448,192,24794,1,0,0:0:0:0:
64,192,24948,1,8,0:0:0:0:
448,192,24948,1,0,0:0:0:0:
64,192,25102,128,8,25410:0:0:0:0:
320,192,25102,1,0,0:0:0:0:
192,192,25410,128,0,25717:0:0:0:0:
448,192,25410,1,0,0:0:0:0:
64,192,25717,1,8,0:0:0:0:
320,192,25717,128,0,25948:0:0:0:0:
64,192,25871,1,8,0:0:0:0:
192,192,25948,1,8,0:0:0:0:
64,192,26025,128,8,27256:0:0:0:0:
320,192,26025,1,2,0:0:0:0:
448,192,26025,1,0,0:0:0:0:
448,192,26333,1,0,0:0:0:0:
448,192,26487,1,0,0:0:0:0:
320,192,26640,128,0,26948:0:0:0:0:
192,192,26794,1,8,0:0:0:0:
448,192,26794,1,0,0:0:0:0:
192,192,26948,1,8,0:0:0:0:
448,192,26948,1,0,0:0:0:0:
320,192,27102,1,8,0:0:0:0:
192,192,27256,1,8,0:0:0:0:
448,192,27256,1,0,0:0:0:0:
320,192,27307,1,8,0:0:0:0:
64,192,27358,1,8,0:0:0:0:
192,192,27410,1,8,0:0:0:0:
448,192,27461,1,8,0:0:0:0:
64,192,27512,1,8,0:0:0:0:
192,192,27564,1,8,0:0:0:0:
320,192,27564,128,0,27871:0:0:0:0:
64,192,27717,1,8,0:0:0:0:
448,192,27717,1,0,0:0:0:0:
192,192,27871,1,8,0:0:0:0:
448,192,27871,128,0,28794:0:0:0:0:
64,192,28179,1,0,0:0:0:0:
192,192,28333,1,0,0:0:0:0:
64,192,28487,1,8,0:0:0:0:
320,192,28487,1,0,0:0:0:0:
64,192,28640,1,8,0:0:0:0:
320,192,28640,1,0,0:0:0:0:
64,192,28794,128,8,29102:0:0:0:0:
320,192,28794,1,0,0:0:0:0:
192,192,29102,128,0,29410:0:0:0:0:
448,192,29102,1,0,0:0:0:0:
320,192,29256,1,8,0:0:0:0:
448,192,29333,1,8,0:0:0:0:
64,192,29410,1,8,0:0:0:0:
320,192,29410,128,0,29717:0:0:0:0:
192,192,29564,1,8,0:0:0:0:
64,192,29640,1,2,0:0:0:0:
192,192,29717,128,10,29794:0:0:0:0:
448,192,29717,128,4,30179:3:0:0:0:
64,192,29794,128,0,29871:0:0:0:0:
320,192,29871,128,0,29948:0:0:0:0:
192,192,29948,128,0,30025:0:0:0:0:
64,192,30025,128,0,30102:0:0:0:0:
320,192,30102,128,0,30179:0:0:0:0:
64,192,30179,1,2,0:0:0:0:
192,192,30179,128,0,30256:0:0:0:0:
320,192,30256,128,0,30333:0:0:0:0:
448,192,30333,128,0,30410:0:0:0:0:
320,192,30410,128,0,30487:0:0:0:0:
64,192,30487,128,0,30564:0:0:0:0:
192,192,30564,128,0,30640:0:0:0:0:
320,192,30640,128,2,30717:0:0:0:0:
448,192,30640,1,0,0:0:0:0:
64,192,30717,128,0,30794:0:0:0:0:
192,192,30794,128,0,30871:0:0:0:0:
448,192,30871,128,0,30948:0:0:0:0:
64,192,30948,128,2,31102:0:0:0:0:
192,192,30948,128,8,31256:0:0:0:0:
448,192,31025,128,0,31179:0:0:0:0:
320,192,31102,128,8,31179:0:0:0:0:
64,192,31179,128,0,31256:0:0:0:0:
320,192,31256,128,2,31333:0:0:0:0:
448,192,31256,128,8,31564:0:0:0:0:
192,192,31333,128,0,31410:0:0:0:0:
64,192,31410,128,0,31487:0:0:0:0:
320,192,31487,128,0,31564:0:0:0:0:
64,192,31564,128,2,32025:0:0:0:0:
192,192,31564,128,0,31640:0:0:0:0:
448,192,31640,128,0,31717:0:0:0:0:
320,192,31717,128,0,31794:0:0:0:0:
192,192,31794,128,0,31871:0:0:0:0:
448,192,31871,128,0,31948:0:0:0:0:
192,192,31948,128,0,32025:0:0:0:0:
320,192,32025,1,2,0:0:0:0:
448,192,32025,128,0,32102:0:0:0:0:
64,192,32102,128,0,32179:0:0:0:0:
192,192,32179,128,0,32256:0:0:0:0:
320,192,32256,128,0,32333:0:0:0:0:
448,192,32333,128,0,32410:0:0:0:0:
320,192,32410,128,0,32487:0:0:0:0:
64,192,32487,128,2,32564:0:0:0:0:
192,192,32487,128,0,32794:0:0:0:0:
448,192,32564,128,0,32640:0:0:0:0:
320,192,32640,128,0,32717:0:0:0:0:
64,192,32717,128,0,32794:0:0:0:0:
320,192,32794,128,2,33102:0:0:0:0:
448,192,32794,128,0,32871:0:0:0:0:
192,192,32871,128,0,32948:0:0:0:0:
64,192,32948,128,0,33025:0:0:0:0:
448,192,33025,128,0,33102:0:0:0:0:
64,192,33102,128,2,33410:0:0:0:0:
192,192,33102,128,0,33179:0:0:0:0:
448,192,33179,128,0,33256:0:0:0:0:
320,192,33256,128,0,33333:0:0:0:0:
192,192,33333,128,0,33410:0:0:0:0:
320,192,33410,128,2,33717:0:0:0:0:
448,192,33410,128,0,33487:0:0:0:0:
64,192,33487,128,0,33564:0:0:0:0:
192,192,33564,128,0,33640:0:0:0:0:
448,192,33640,128,0,33717:0:0:0:0:
64,192,33717,128,0,33871:0:0:0:0:
192,192,33794,128,0,33871:0:0:0:0:
320,192,33871,128,2,33948:0:0:0:0:
448,192,33871,1,0,0:0:0:0:
64,192,33948,128,0,34025:0:0:0:0:
192,192,34025,128,0,34333:0:0:0:0:
320,192,34102,128,0,34179:0:0:0:0:
448,192,34179,128,0,34256:0:0:0:0:
64,192,34256,128,0,34333:0:0:0:0:
320,192,34333,128,2,34640:0:0:0:0:
448,192,34333,128,0,34410:0:0:0:0:
192,192,34410,128,0,34487:0:0:0:0:
64,192,34487,128,0,34564:0:0:0:0:
448,192,34564,128,0,34640:0:0:0:0:
64,192,34640,128,2,34794:0:0:0:0:
192,192,34640,128,8,34948:0:0:0:0:
448,192,34717,128,0,34871:0:0:0:0:
320,192,34794,128,8,34871:0:0:0:0:
64,192,34871,128,0,34948:0:0:0:0:
320,192,34948,128,2,35025:0:0:0:0:
448,192,34948,128,8,35256:0:0:0:0:
64,192,35025,128,0,35102:0:0:0:0:
192,192,35102,128,0,35179:0:0:0:0:
320,192,35179,128,0,35256:0:0:0:0:
64,192,35256,128,2,35717:0:0:0:0:
192,192,35256,128,0,35333:0:0:0:0:
320,192,35333,128,0,35410:0:0:0:0:
448,192,35410,128,0,35487:0:0:0:0:
192,192,35487,128,0,35564:0:0:0:0:
320,192,35564,128,0,35640:0:0:0:0:
192,192,35640,128,0,35717:0:0:0:0:
320,192,35717,128,2,35794:0:0:0:0:
448,192,35717,1,0,0:0:0:0:
64,192,35794,128,0,35871:0:0:0:0:
448,192,35871,128,0,35948:0:0:0:0:
320,192,35948,128,0,36025:0:0:0:0:
192,192,36025,128,0,36102:0:0:0:0:
64,192,36102,128,0,36179:0:0:0:0:
320,192,36179,128,2,36256:0:0:0:0:
448,192,36179,128,0,36640:0:0:0:0:
64,192,36256,128,0,36333:0:0:0:0:
192,192,36333,128,0,36410:0:0:0:0:
320,192,36410,128,0,36487:0:0:0:0:
64,192,36487,128,0,36564:0:0:0:0:
192,192,36564,128,0,36640:0:0:0:0:
64,192,36640,1,8,0:0:0:0:
320,192,36640,128,0,36717:0:0:0:0:
192,192,36717,128,8,36794:0:0:0:0:
64,192,36794,128,8,36871:0:0:0:0:
320,192,36794,1,2,0:0:0:0:
448,192,36871,128,0,36948:0:0:0:0:
192,192,36948,128,8,37025:0:0:0:0:
320,192,37025,128,0,37102:0:0:0:0:
64,192,37102,128,4,37179:3:0:0:0:
448,192,37102,128,0,37179:0:0:0:0:
64,192,37410,128,0,37487:0:0:0:0:
192,192,37564,128,0,37640:0:0:0:0:
448,192,37717,1,0,0:0:0:0:
64,192,38025,128,0,38102:0:0:0:0:
64,192,38333,128,0,38640:0:0:0:0:
448,192,38487,128,0,38794:0:0:0:0:
192,192,38640,128,0,38948:0:0:0:0:
320,192,38794,128,0,38948:0:0:0:0:
64,192,38948,128,0,39025:0:0:0:0:
448,192,38948,128,0,39025:0:0:0:0:
64,192,39256,128,0,39564:0:0:0:0:
192,192,39410,128,0,39717:0:0:0:0:
448,192,39564,1,0,0:0:0:0:
320,192,39717,128,0,39871:0:0:0:0:
448,192,39871,128,0,39948:0:0:0:0:
192,192,40025,128,0,40102:0:0:0:0:
320,192,40179,128,0,40487:0:0:0:0:
64,192,40333,128,0,40640:0:0:0:0:
192,192,40487,128,0,40794:0:0:0:0:
448,192,40640,128,0,40794:0:0:0:0:
64,192,40794,128,0,40871:0:0:0:0:
320,192,40794,128,0,40871:0:0:0:0:
192,192,40948,128,0,41025:0:0:0:0:
448,192,41102,128,0,41410:0:0:0:0:
64,192,41256,128,0,41564:0:0:0:0:
320,192,41410,1,0,0:0:0:0:
192,192,41564,128,0,41717:0:0:0:0:
320,192,41717,128,0,41794:0:0:0:0:
448,192,41717,128,0,41794:0:0:0:0:
192,192,41871,128,0,41948:0:0:0:0:
64,192,42025,128,0,42333:0:0:0:0:
192,192,42179,128,0,42487:0:0:0:0:
320,192,42333,128,0,42564:0:0:0:0:
448,192,42487,128,0,42640:0:0:0:0:
64,192,42640,128,0,42717:0:0:0:0:
320,192,42640,128,0,42717:0:0:0:0:
192,192,42794,128,0,42871:0:0:0:0:
64,192,42948,128,0,43256:0:0:0:0:
448,192,43102,128,0,43410:0:0:0:0:
320,192,43256,128,0,43487:0:0:0:0:
64,192,43410,128,0,43564:0:0:0:0:
320,192,43564,128,0,43640:0:0:0:0:
448,192,43564,128,0,43640:0:0:0:0:
192,192,43717,128,0,43794:0:0:0:0:
320,192,43871,128,0,44179:0:0:0:0:
448,192,44025,128,0,44333:0:0:0:0:
64,192,44179,128,0,44487:0:0:0:0:
192,192,44333,128,0,44487:0:0:0:0:
320,192,44487,128,0,44564:0:0:0:0:
448,192,44487,128,0,44564:0:0:0:0:
64,192,44640,128,0,44717:0:0:0:0:
64,192,44794,128,0,44846:0:0:0:0:
320,192,44794,128,0,45102:0:0:0:0:
448,192,44948,128,0,45256:0:0:0:0:
64,192,45102,128,0,45153:0:0:0:0:
192,192,45102,128,0,45333:0:0:0:0:
320,192,45256,128,0,45410:0:0:0:0:
192,192,45410,128,0,45487:0:0:0:0:
64,192,45564,128,0,45640:0:0:0:0:
64,192,45717,128,0,45769:0:0:0:0:
448,192,45717,128,0,46025:0:0:0:0:
192,192,45871,128,0,46179:0:0:0:0:
64,192,46025,128,0,46076:0:0:0:0:
320,192,46025,128,0,46333:0:0:0:0:
448,192,46179,128,0,46333:0:0:0:0:
64,192,46333,128,0,46410:0:0:0:0:
192,192,46333,128,0,46410:0:0:0:0:
192,192,46640,128,0,46948:0:0:0:0:
448,192,46640,128,0,46692:0:0:0:0:
320,192,46794,128,0,47102:0:0:0:0:
64,192,46948,128,0,47256:0:0:0:0:
448,192,46948,128,0,46999:0:0:0:0:
192,192,47102,128,0,47256:0:0:0:0:
448,192,47256,128,0,47333:0:0:0:0:
64,192,47410,1,0,0:0:0:0:
448,192,47564,128,0,47615:0:0:0:0:
64,192,47717,1,0,0:0:0:0:
448,192,47871,128,0,47922:0:0:0:0:
448,192,48025,1,0,0:0:0:0:
192,192,48179,128,0,48256:0:0:0:0:
320,192,48179,128,0,48256:0:0:0:0:
64,192,48333,128,0,48410:0:0:0:0:
192,192,48487,128,0,48794:0:0:0:0:
448,192,48487,128,0,48538:0:0:0:0:
320,192,48640,128,0,48948:0:0:0:0:
64,192,48794,128,0,49102:0:0:0:0:
448,192,48794,128,0,48846:0:0:0:0:
448,192,48948,128,0,49102:0:0:0:0:
320,192,49102,128,0,49179:0:0:0:0:
192,192,49256,128,0,49333:0:0:0:0:
64,192,49410,128,0,49717:0:0:0:0:
448,192,49410,128,0,49461:0:0:0:0:
448,192,49717,128,0,49769:0:0:0:0:
320,192,50025,128,0,50102:0:0:0:0:
448,192,50025,128,0,50102:0:0:0:0:
192,192,50333,128,0,50410:0:0:0:0:
320,192,50333,128,0,50640:0:0:0:0:
448,192,50487,1,0,0:0:0:0:
64,192,50640,128,0,50717:0:0:0:0:
192,192,50640,128,0,50871:0:0:0:0:
320,192,50794,128,0,50871:0:0:0:0:
192,192,50948,128,0,51025:0:0:0:0:
320,192,50948,128,0,51333:0:0:0:0:
448,192,50948,128,0,51487:0:0:0:0:
192,192,51256,128,0,51794:0:0:0:0:
320,192,51410,128,0,51794:0:0:0:0:
448,192,51564,128,0,51794:0:0:0:0:
64,192,51717,128,0,51871:0:0:0:0:
192,192,51871,1,2,0:0:0:0:
320,192,51871,128,0,52487:0:0:0:0:
448,192,51871,1,0,0:0:0:0:
192,192,52025,1,0,0:0:0:0:
64,192,52179,1,8,0:0:0:0:
448,192,52179,1,0,0:0:0:0:
64,192,52333,1,0,0:0:0:0:
192,192,52487,1,8,0:0:0:0:
448,192,52487,1,0,0:0:0:0:
192,192,52640,128,0,52794:0:0:0:0:
320,192,52794,128,0,53102:0:0:0:0:
448,192,52794,1,0,0:0:0:0:
64,192,52948,1,0,0:0:0:0:
192,192,53102,1,8,0:0:0:0:
448,192,53102,128,0,53256:0:0:0:0:
64,192,53256,1,8,0:0:0:0:
320,192,53256,128,0,53564:0:0:0:0:
64,192,53410,1,8,0:0:0:0:
448,192,53410,128,0,53564:0:0:0:0:
192,192,53564,128,0,53640:0:0:0:0:
64,192,53717,128,0,54333:0:0:0:0:
192,192,53717,1,0,0:0:0:0:
448,192,53871,1,0,0:0:0:0:
192,192,54025,1,8,0:0:0:0:
448,192,54025,1,0,0:0:0:0:
320,192,54179,1,0,0:0:0:0:
192,192,54333,1,8,0:0:0:0:
448,192,54333,1,0,0:0:0:0:
448,192,54487,1,0,0:0:0:0:
64,192,54640,128,0,54948:0:0:0:0:
192,192,54640,1,0,0:0:0:0:
448,192,54794,1,0,0:0:0:0:
192,192,54948,128,8,55256:0:0:0:0:
448,192,54948,1,0,0:0:0:0:
64,192,55102,1,8,0:0:0:0:
320,192,55102,1,0,0:0:0:0:
64,192,55256,1,8,0:0:0:0:
448,192,55256,128,0,55564:0:0:0:0:
192,192,55410,1,8,0:0:0:0:
320,192,55410,1,2,0:0:0:0:
64,192,55564,1,2,0:0:0:0:
192,192,55564,128,0,55871:0:0:0:0:
320,192,55564,1,0,0:0:0:0:
448,192,55717,1,0,0:0:0:0:
64,192,55871,128,8,56179:0:0:0:0:
320,192,55871,1,0,0:0:0:0:
320,192,56025,1,0,0:0:0:0:
192,192,56179,128,8,56487:0:0:0:0:
448,192,56179,1,0,0:0:0:0:
320,192,56333,1,0,0:0:0:0:
320,192,56487,128,0,56794:0:0:0:0:
448,192,56487,1,0,0:0:0:0:
192,192,56640,1,0,0:0:0:0:
64,192,56794,128,8,57102:0:0:0:0:
448,192,56794,1,0,0:0:0:0:
192,192,56948,1,8,0:0:0:0:
448,192,56948,1,0,0:0:0:0:
192,192,57102,128,8,57410:0:0:0:0:
448,192,57102,128,0,57333:0:0:0:0:
64,192,57256,1,0,0:0:0:0:
320,192,57410,128,0,57717:0:0:0:0:
448,192,57410,1,0,0:0:0:0:
64,192,57564,1,0,0:0:0:0:
192,192,57717,128,8,58025:0:0:0:0:
448,192,57717,1,0,0:0:0:0:
64,192,57871,1,0,0:0:0:0:
64,192,58025,1,8,0:0:0:0:
320,192,58025,128,0,58256:0:0:0:0:
192,192,58179,1,0,0:0:0:0:
320,192,58333,1,0,0:0:0:0:
448,192,58333,128,0,58640:0:0:0:0:
64,192,58487,1,0,0:0:0:0:
192,192,58487,128,0,58640:0:0:0:0:
64,192,58640,128,0,58692:0:0:0:40:LR_Chm Med.wav
320,192,58640,128,0,58948:0:0:0:0:
64,192,58794,128,0,58948:0:0:0:0:
448,192,58794,1,0,0:0:0:0:
192,192,58948,128,0,59256:0:0:0:0:
320,192,59102,1,0,0:0:0:0:
448,192,59102,128,0,59179:0:0:0:0:
64,192,59256,128,4,61102:0:0:0:0:
320,192,59256,128,2,59333:3:0:0:0:
448,192,59256,128,0,59333:0:0:0:0:
192,192,59564,128,0,59615:0:0:0:0:
320,192,59717,128,0,59794:0:0:0:0:
192,192,60025,128,0,60076:0:0:0:0:
320,192,60179,128,0,60256:0:0:0:0:
448,192,60179,128,0,60256:0:0:0:0:
320,192,60333,128,0,60384:0:0:0:0:
192,192,60487,128,0,60538:0:0:0:0:
448,192,60640,128,0,60717:0:0:0:0:
192,192,60794,128,0,60871:0:0:0:0:
320,192,60948,128,0,61025:0:0:0:0:
192,192,61102,128,0,61179:0:0:0:0:
448,192,61102,128,0,61179:0:0:0:0:
320,192,61256,128,0,61333:0:0:0:0:
192,192,61410,128,0,61487:0:0:0:0:
64,192,61564,128,0,61640:0:0:0:0:
192,192,61717,128,0,61794:0:0:0:0:
320,192,61871,128,0,61948:0:0:0:0:
64,192,62025,128,0,62102:0:0:0:0:
448,192,62025,128,0,62102:0:0:0:0:
320,192,62179,128,0,62256:0:0:0:0:
192,192,62333,128,0,62410:0:0:0:0:
64,192,62487,128,0,62564:0:0:0:0:
320,192,62640,128,0,62717:0:0:0:0:
192,192,62794,128,0,62871:0:0:0:0:
320,192,62948,128,0,63025:0:0:0:0:
448,192,62948,128,0,64794:0:0:0:0:
64,192,63256,128,0,63307:0:0:0:0:
192,192,63564,128,0,63615:0:0:0:0:
320,192,63871,128,0,63922:0:0:0:0:
192,192,64179,128,0,64230:0:0:0:0:
64,192,64333,128,0,64384:0:0:0:0:
192,192,64487,128,0,64538:0:0:0:0:
320,192,64640,128,0,64692:0:0:0:0:
64,192,64794,128,0,65640:0:0:0:0:
192,192,64794,128,0,64871:0:0:0:0:
448,192,64948,128,0,64999:0:0:0:0:
320,192,65102,128,0,65153:0:0:0:0:
192,192,65256,128,0,65307:0:0:0:0:
192,192,65410,128,0,65461:0:0:0:0:
320,192,65564,128,0,65615:0:0:0:0:
64,192,65717,128,0,65794:0:0:0:0:
448,192,65717,128,0,65769:0:0:0:0:
320,192,66025,128,0,66102:0:0:0:0:
64,192,66102,128,0,66179:0:0:0:0:
192,192,66179,128,0,66256:0:0:0:0:
320,192,66256,128,0,66333:0:0:0:0:
448,192,66333,128,0,66410:0:0:0:0:
64,192,66410,128,0,66487:0:0:0:0:
192,192,66487,128,0,66564:0:0:0:0:
448,192,66564,128,0,66640:0:0:0:0:
64,192,66640,1,8,0:0:0:0:
192,192,66640,128,2,66692:0:0:0:0:
320,192,66640,1,0,0:0:0:0:
448,192,66948,1,0,0:0:0:0:
64,192,66999,1,0,0:0:0:0:
192,192,67051,1,0,0:0:0:0:
320,192,67102,1,0,0:0:0:0:
64,192,67179,1,0,0:0:0:0:
192,192,67256,128,0,67333:0:0:0:0:
64,192,67410,1,8,0:0:0:0:
320,192,67410,128,0,67461:0:0:0:0:
192,192,67564,128,8,67615:0:0:0:0:
448,192,67564,1,0,0:0:0:0:
320,192,67717,1,0,0:0:0:0:
64,192,67871,1,8,0:0:0:0:
448,192,67871,1,0,0:0:0:0:
192,192,67922,1,8,0:0:0:0:
320,192,67974,1,8,0:0:0:0:
448,192,68025,1,8,0:0:0:0:
64,192,68102,1,8,0:0:0:0:
192,192,68179,128,8,68230:0:0:0:0:
448,192,68179,1,0,0:0:0:0:
64,192,68333,1,8,0:0:0:0:
320,192,68333,128,0,68384:0:0:0:0:
192,192,68487,128,8,68538:0:0:0:0:
448,192,68487,1,0,0:0:0:0:
448,192,68794,1,0,0:0:0:0:
64,192,68846,1,0,0:0:0:0:
192,192,68897,1,0,0:0:0:0:
320,192,68948,1,0,0:0:0:0:
64,192,69025,1,0,0:0:0:0:
192,192,69102,128,8,69179:0:0:0:0:
448,192,69102,1,0,0:0:0:0:
64,192,69256,1,8,0:0:0:0:
320,192,69256,128,0,69307:0:0:0:0:
192,192,69410,128,8,69461:0:0:0:0:
448,192,69410,1,0,0:0:0:0:
448,192,69717,1,0,0:0:0:0:
192,192,69769,1,0,0:0:0:0:
320,192,69820,1,0,0:0:0:0:
448,192,69871,1,0,0:0:0:0:
192,192,69948,1,0,0:0:0:0:
64,192,70025,1,8,0:0:0:0:
320,192,70025,128,0,70076:0:0:0:0:
192,192,70179,1,8,0:0:0:0:
448,192,70179,128,0,70230:0:0:0:0:
320,192,70256,1,8,0:0:0:0:
64,192,70333,1,8,0:0:0:0:
192,192,70333,128,2,70384:0:0:0:0:
448,192,70333,1,0,0:0:0:0:
448,192,70640,1,0,0:0:0:0:
64,192,70692,1,0,0:0:0:0:
192,192,70743,1,0,0:0:0:0:
320,192,70794,1,0,0:0:0:0:
64,192,70871,1,0,0:0:0:0:
192,192,70948,128,0,71025:0:0:0:0:
64,192,71102,1,8,0:0:0:0:
320,192,71102,128,0,71153:0:0:0:0:
192,192,71256,128,8,71307:0:0:0:0:
448,192,71256,1,0,0:0:0:0:
320,192,71410,1,0,0:0:0:0:
64,192,71564,1,8,0:0:0:0:
448,192,71564,128,0,71615:0:0:0:0:
192,192,71615,1,8,0:0:0:0:
320,192,71666,1,8,0:0:0:0:
448,192,71717,1,8,0:0:0:0:
64,192,71794,1,8,0:0:0:0:
192,192,71871,128,8,71922:0:0:0:0:
448,192,71871,1,0,0:0:0:0:
64,192,72025,1,8,0:0:0:0:
320,192,72025,128,0,72076:0:0:0:0:
192,192,72179,128,8,72230:0:0:0:0:
448,192,72179,1,0,0:0:0:0:
448,192,72487,1,0,0:0:0:0:
64,192,72538,1,0,0:0:0:0:
192,192,72589,1,0,0:0:0:0:
320,192,72640,1,0,0:0:0:0:
64,192,72717,1,0,0:0:0:0:
192,192,72794,128,8,72871:0:0:0:0:
448,192,72794,1,0,0:0:0:0:
64,192,72948,1,8,0:0:0:0:
320,192,72948,128,0,72999:0:0:0:0:
192,192,73102,128,8,73153:0:0:0:0:
448,192,73102,1,0,0:0:0:0:
448,192,73410,1,0,0:0:0:0:
192,192,73461,1,0,0:0:0:0:
320,192,73512,1,0,0:0:0:0:
64,192,73564,1,8,0:0:0:0:
448,192,73564,1,0,0:0:0:0:
192,192,73640,1,8,0:0:0:0:
320,192,73640,1,0,0:0:0:0:
64,192,73717,1,8,0:0:0:0:
448,192,73717,1,0,0:0:0:0:
192,192,73794,1,0,0:0:0:0:
64,192,73871,1,8,0:0:0:0:
448,192,73871,1,0,0:0:0:0:
320,192,73948,1,0,0:0:0:0:
64,192,74025,1,8,0:0:0:0:
192,192,74025,128,4,74076:3:0:0:0:
448,192,74025,1,2,0:0:0:0:
320,192,74179,128,0,74256:0:0:0:0:
192,192,74256,128,0,74333:0:0:0:0:
448,192,74333,128,0,74384:0:0:0:0:
192,192,74410,128,0,74461:0:0:0:0:
320,192,74487,128,0,74538:0:0:0:0:
448,192,74487,1,0,0:0:0:0:
64,192,74564,128,0,74615:0:0:0:0:
192,192,74640,128,0,74717:0:0:0:0:
320,192,74794,128,0,74846:0:0:0:0:
448,192,74794,1,0,0:0:0:0:
64,192,74948,1,2,0:0:0:0:
192,192,74948,128,0,74999:0:0:0:0:
64,192,75102,128,0,75179:0:0:0:0:
192,192,75179,128,0,75256:0:0:0:0:
64,192,75256,1,8,0:0:0:0:
448,192,75256,128,2,75564:0:0:0:0:
320,192,75333,128,0,75410:0:0:0:0:
192,192,75410,128,8,75487:0:0:0:0:
64,192,75487,128,0,75564:0:0:0:0:
192,192,75564,128,8,75615:0:0:0:0:
320,192,75564,1,2,0:0:0:0:
320,192,75717,128,0,75769:0:0:0:0:
64,192,75871,1,2,0:0:0:0:
192,192,75871,128,0,75922:0:0:0:0:
320,192,76025,128,0,76102:0:0:0:0:
192,192,76102,128,0,76179:0:0:0:0:
448,192,76179,128,0,76230:0:0:0:0:
192,192,76256,128,0,76307:0:0:0:0:
320,192,76333,128,0,76384:0:0:0:0:
448,192,76333,1,0,0:0:0:0:
64,192,76410,128,0,76461:0:0:0:0:
192,192,76487,128,0,76564:0:0:0:0:
320,192,76640,128,0,76692:0:0:0:0:
64,192,76794,1,2,0:0:0:0:
192,192,76794,128,0,76846:0:0:0:0:
64,192,76948,128,0,77025:0:0:0:0:
192,192,77025,128,0,77102:0:0:0:0:
64,192,77102,1,2,0:0:0:0:
448,192,77102,128,0,77153:0:0:0:0:
320,192,77179,128,0,77230:0:0:0:0:
192,192,77256,128,0,77307:0:0:0:0:
64,192,77333,128,0,77384:0:0:0:0:
320,192,77410,128,2,77461:0:0:0:0:
448,192,77410,1,0,0:0:0:0:
448,192,77564,128,0,77615:0:0:0:0:
320,192,77640,1,0,0:0:0:0:
64,192,77717,1,2,0:0:0:0:
192,192,77717,128,0,77769:0:0:0:0:
320,192,77871,128,0,77948:0:0:0:0:
192,192,77948,128,0,78025:0:0:0:0:
448,192,78025,128,0,78076:0:0:0:0:
192,192,78102,128,0,78153:0:0:0:0:
320,192,78179,128,0,78230:0:0:0:0:
448,192,78179,1,0,0:0:0:0:
64,192,78256,128,0,78307:0:0:0:0:
192,192,78333,128,0,78410:0:0:0:0:
320,192,78487,128,0,78538:0:0:0:0:
64,192,78640,1,2,0:0:0:0:
192,192,78640,128,0,78692:0:0:0:0:
64,192,78794,128,0,78871:0:0:0:0:
192,192,78871,128,0,78948:0:0:0:0:
64,192,78948,1,8,0:0:0:0:
448,192,78948,128,2,79256:0:0:0:0:
320,192,79025,128,0,79102:0:0:0:0:
192,192,79102,128,8,79179:0:0:0:0:
64,192,79179,128,0,79256:0:0:0:0:
192,192,79256,128,8,79307:0:0:0:0:
320,192,79256,1,2,0:0:0:0:
320,192,79410,128,0,79461:0:0:0:0:
64,192,79564,1,2,0:0:0:0:
192,192,79564,128,0,79615:0:0:0:0:
320,192,79717,128,0,79794:0:0:0:0:
192,192,79794,128,0,79871:0:0:0:0:
448,192,79871,128,0,79922:0:0:0:0:
192,192,79948,128,0,79999:0:0:0:0:
320,192,80025,128,0,80076:0:0:0:0:
448,192,80025,1,0,0:0:0:0:
64,192,80102,128,0,80153:0:0:0:0:
192,192,80179,128,0,80256:0:0:0:0:
320,192,80333,128,0,80384:0:0:0:0:
64,192,80487,128,2,80564:0:0:0:0:
192,192,80487,128,0,80538:0:0:0:0:
320,192,80640,128,0,80717:0:0:0:0:
192,192,80717,128,0,80794:0:0:0:0:
64,192,80794,1,2,0:0:0:0:
448,192,80794,128,0,80871:0:0:0:0:
320,192,80871,1,0,0:0:0:0:
64,192,80948,1,8,0:0:0:0:
448,192,80948,1,0,0:0:0:0:
192,192,81025,1,8,0:0:0:0:
320,192,81025,1,0,0:0:0:0:
64,192,81102,128,8,81179:0:0:0:0:
448,192,81102,1,2,0:0:0:0:
192,192,81179,1,0,0:0:0:0:
64,192,81256,1,8,0:0:0:0:
448,192,81256,1,0,0:0:0:0:
320,192,81333,1,0,0:0:0:0:
64,192,81410,1,4,3:0:0:0:
192,192,81410,128,2,81487:0:0:0:0:
448,192,81410,128,0,83256:0:0:0:0:
64,192,82025,128,0,82102:0:0:0:0:
320,192,82333,128,0,82410:0:0:0:0:
192,192,82640,128,0,82717:0:0:0:0:
320,192,82948,128,0,83025:0:0:0:0:
64,192,83256,128,0,83333:0:0:0:0:
320,192,83256,128,0,85025:0:0:0:0:
64,192,84179,128,0,84256:0:0:0:0:
192,192,84640,128,0,84717:0:0:0:0:
320,192,85102,128,0,86025:0:0:0:0:
448,192,85102,128,0,85179:0:0:0:0:
192,192,85564,128,0,85640:0:0:0:0:
64,192,86025,128,0,86102:0:0:0:0:
192,192,86025,128,0,86948:0:0:0:0:
320,192,86333,128,0,86410:0:0:0:0:
448,192,86640,128,0,86717:0:0:0:0:
64,192,86948,128,0,87871:0:0:0:0:
448,192,86948,128,0,87025:0:0:0:0:
320,192,87256,128,0,87333:0:0:0:0:
192,192,87564,128,0,87640:0:0:0:0:
320,192,87871,128,0,87948:0:0:0:0:
448,192,87871,128,0,88717:0:0:0:0:
64,192,88179,128,0,88487:0:0:0:0:
192,192,88179,128,0,88256:0:0:0:0:
192,192,88487,128,0,88794:0:0:0:0:
320,192,88487,128,0,88564:0:0:0:0:
64,192,88794,1,4,0:0:0:0:
320,192,88794,128,2,89256:0:0:0:0:
448,192,88794,128,0,88871:0:0:0:0:
448,192,88948,1,0,0:0:0:0:
448,192,89102,1,0,0:0:0:0:
192,192,89256,128,0,89717:0:0:0:0:
448,192,89256,1,0,0:0:0:0:
448,192,89410,1,0,0:0:0:0:
448,192,89564,1,0,0:0:0:0:
64,192,89717,128,0,90025:0:0:0:0:
448,192,89717,1,0,0:0:0:0:
448,192,89871,1,0,0:0:0:0:
192,192,90025,128,0,90333:0:0:0:0:
448,192,90025,1,0,0:0:0:0:
448,192,90179,1,0,0:0:0:0:
64,192,90333,1,0,0:0:0:0:
448,192,90333,128,0,90640:0:0:0:0:
64,192,90487,1,0,0:0:0:0:
64,192,90640,128,0,90717:0:0:0:0:
320,192,90640,128,0,90948:0:0:0:0:
64,192,90794,1,0,0:0:0:0:
64,192,90948,128,0,91256:0:0:0:0:
448,192,90948,1,0,0:0:0:0:
448,192,91102,1,0,0:0:0:0:
320,192,91256,128,0,91564:0:0:0:0:
448,192,91256,1,0,0:0:0:0:
64,192,91410,1,0,0:0:0:0:
64,192,91564,1,0,0:0:0:0:
448,192,91564,128,0,91871:0:0:0:0:
64,192,91717,1,0,0:0:0:0:
64,192,91871,128,0,92179:0:0:0:0:
320,192,91871,1,0,0:0:0:0:
448,192,92025,1,0,0:0:0:0:
192,192,92179,1,0,0:0:0:0:
448,192,92179,128,0,92487:0:0:0:0:
64,192,92333,1,0,0:0:0:0:
64,192,92487,128,0,92564:0:0:0:0:
320,192,92487,128,0,93717:0:0:0:0:
64,192,92640,1,0,0:0:0:0:
64,192,92794,1,0,0:0:0:0:
64,192,92948,1,0,0:0:0:0:
64,192,93102,1,0,0:0:0:0:
64,192,93256,1,0,0:0:0:0:
64,192,93410,1,0,0:0:0:0:
64,192,93564,1,0,0:0:0:0:
64,192,93717,128,0,94025:0:0:0:0:
448,192,93717,1,0,0:0:0:0:
448,192,93871,1,0,0:0:0:0:
320,192,94025,128,0,94333:0:0:0:0:
448,192,94025,1,0,0:0:0:0:
448,192,94179,1,0,0:0:0:0:
64,192,94333,128,0,94564:0:0:0:0:
448,192,94333,128,0,94410:0:0:0:0:
192,192,94410,1,0,0:0:0:0:
320,192,94487,1,0,0:0:0:0:
448,192,94564,1,0,0:0:0:0:
64,192,94640,128,0,94871:0:0:0:0:
192,192,94717,128,0,94948:0:0:0:0:
320,192,94794,1,0,0:0:0:0:
448,192,94871,1,0,0:0:0:0:
64,192,94948,128,0,95179:0:0:0:0:
192,192,95025,128,0,95256:0:0:0:0:
320,192,95102,128,0,95333:0:0:0:0:
448,192,95179,1,0,0:0:0:0:
64,192,95256,128,0,95487:0:0:0:0:
192,192,95333,128,0,95564:0:0:0:0:
320,192,95410,128,0,95640:0:0:0:0:
448,192,95487,128,0,95717:0:0:0:0:
64,192,95564,128,0,95794:0:0:0:0:
192,192,95640,128,0,95871:0:0:0:0:
320,192,95717,128,0,95948:0:0:0:0:
448,192,95794,128,0,96025:0:0:0:0:
64,192,95871,128,0,96102:0:0:0:0:
192,192,95948,128,2,96102:3:0:0:0:
320,192,96025,128,2,96102:3:0:0:0:
448,192,96102,128,2,96179:3:0:0:0:
64,192,96179,1,2,3:0:0:0:
192,192,96179,1,4,3:0:0:0:
320,192,96179,1,0,0:0:0:0:
448,192,97102,128,0,97153:0:0:0:20:clockLow.wav
448,192,98025,128,0,98102:0:0:0:50:clockLow.wav
64,192,98948,128,8,98999:0:0:0:0:
448,192,98999,1,8,0:0:0:0:
192,192,99051,1,8,0:0:0:0:
320,192,99102,1,8,0:0:0:0:
448,192,99153,1,8,0:0:0:0:
64,192,99205,1,8,0:0:0:0:
192,192,99256,128,8,99307:0:0:0:0:
448,192,99307,1,8,0:0:0:0:
64,192,99358,1,8,0:0:0:0:
320,192,99410,1,8,0:0:0:0:
192,192,99461,1,8,0:0:0:0:
448,192,99512,1,8,0:0:0:0:
320,192,99564,128,8,99615:0:0:0:0:
192,192,99615,1,8,0:0:0:0:
448,192,99666,1,8,0:0:0:0:
64,192,99717,1,8,0:0:0:0:
192,192,99769,1,8,0:0:0:0:
320,192,99820,1,8,0:0:0:0:
64,192,99871,128,4,99948:0:0:0:0:
192,192,99871,1,2,3:0:0:0:
448,192,99871,128,0,100025:0:0:0:0:
320,192,99948,128,0,100025:0:0:0:0:
192,192,100025,128,0,100102:0:0:0:0:
64,192,100102,128,0,100179:0:0:0:0:
320,192,100179,128,8,100256:3:0:0:0:
448,192,100179,128,0,100256:0:0:0:0:
192,192,100256,128,0,100333:0:0:0:0:
64,192,100333,1,2,3:0:0:0:
320,192,100333,128,0,100410:0:0:0:0:
448,192,100410,128,0,100487:0:0:0:0:
64,192,100487,128,8,100564:3:0:0:0:
192,192,100487,128,0,100564:0:0:0:0:
320,192,100564,128,0,100640:0:0:0:0:
448,192,100640,128,0,100717:0:0:0:0:
64,192,100717,128,0,100794:0:0:0:0:
320,192,100794,128,2,100871:3:0:0:0:
448,192,100794,1,0,0:0:0:0:
64,192,100871,128,0,100948:0:0:0:0:
192,192,100948,128,0,101025:0:0:0:0:
320,192,101025,128,8,101102:3:0:0:0:
448,192,101025,128,0,101102:0:0:0:0:
64,192,101102,128,2,101256:3:0:0:0:
192,192,101102,1,0,0:0:0:0:
320,192,101179,128,0,101256:0:0:0:0:
192,192,101256,1,2,3:0:0:0:
448,192,101256,128,0,101333:0:0:0:0:
64,192,101333,128,0,101410:0:0:0:0:
320,192,101410,128,8,101564:3:0:0:0:
448,192,101410,128,0,101487:0:0:0:0:
192,192,101487,128,0,101564:0:0:0:0:
64,192,101564,128,0,101640:0:0:0:0:
448,192,101640,128,0,101717:0:0:0:0:
64,192,101717,1,2,3:0:0:0:
192,192,101717,128,0,101871:0:0:0:0:
448,192,101794,128,0,101871:0:0:0:0:
320,192,101871,128,0,101948:0:0:0:0:
64,192,101948,128,8,102025:3:0:0:0:
192,192,101948,128,0,102025:0:0:0:0:
320,192,102025,1,2,3:0:0:0:
448,192,102025,128,0,102102:0:0:0:0:
64,192,102102,128,0,102179:0:0:0:0:
192,192,102179,128,2,102256:3:0:0:0:
448,192,102179,1,0,0:0:0:0:
320,192,102256,128,0,102333:0:0:0:0:
64,192,102333,128,8,102410:3:0:0:0:
192,192,102333,128,0,102410:0:0:0:0:
448,192,102410,128,0,102487:0:0:0:0:
64,192,102487,1,2,3:0:0:0:
320,192,102487,128,0,102564:0:0:0:0:
192,192,102564,128,0,102640:0:0:0:0:
64,192,102640,128,2,102794:3:0:0:0:
448,192,102640,1,0,0:0:0:0:
320,192,102717,128,0,102794:0:0:0:0:
192,192,102794,128,8,102871:3:0:0:0:
448,192,102794,128,0,102871:0:0:0:0:
320,192,102871,128,0,102948:0:0:0:0:
64,192,102948,1,2,3:0:0:0:
192,192,102948,128,0,103102:0:0:0:0:
320,192,103025,128,0,103102:0:0:0:0:
64,192,103102,128,2,103179:3:0:0:0:
448,192,103102,1,0,0:0:0:0:
192,192,103179,128,0,103256:0:0:0:0:
320,192,103256,128,8,103333:3:0:0:0:
448,192,103256,128,0,103410:0:0:0:0:
64,192,103333,128,0,103410:0:0:0:0:
192,192,103410,128,2,103487:3:0:0:0:
320,192,103410,1,0,0:0:0:0:
64,192,103487,128,8,103564:3:0:0:0:
448,192,103487,128,0,103564:0:0:0:0:
192,192,103564,128,2,103717:3:0:0:0:
320,192,103564,1,0,0:0:0:0:
448,192,103640,128,0,103717:0:0:0:0:
320,192,103717,128,0,103794:0:0:0:0:
192,192,103794,128,0,103871:0:0:0:0:
64,192,103871,128,8,103948:3:0:0:0:
448,192,103871,128,0,103948:0:0:0:0:
320,192,103948,128,0,104025:0:0:0:0:
64,192,104025,1,2,3:0:0:0:
192,192,104025,128,0,104102:0:0:0:0:
448,192,104102,128,0,104179:0:0:0:0:
64,192,104179,128,8,104256:3:0:0:0:
320,192,104179,128,0,104256:0:0:0:0:
192,192,104256,128,0,104333:0:0:0:0:
320,192,104333,128,0,104410:0:0:0:0:
448,192,104410,128,0,104487:0:0:0:0:
64,192,104487,128,2,104640:3:0:0:0:
192,192,104487,1,0,0:0:0:0:
320,192,104564,128,0,104640:0:0:0:0:
192,192,104640,128,8,104717:3:0:0:0:
448,192,104640,128,0,104717:0:0:0:0:
320,192,104717,128,0,104794:0:0:0:0:
192,192,104794,128,2,104948:3:0:0:0:
448,192,104794,1,0,0:0:0:0:
64,192,104871,128,0,104948:0:0:0:0:
320,192,104948,128,2,105025:3:0:0:0:
448,192,104948,1,0,0:0:0:0:
64,192,105025,128,0,105102:0:0:0:0:
320,192,105102,128,8,105256:3:0:0:0:
448,192,105102,128,0,105179:0:0:0:0:
192,192,105179,128,0,105256:0:0:0:0:
64,192,105256,128,2,105333:3:0:0:0:
448,192,105256,1,0,0:0:0:0:
320,192,105333,128,0,105410:0:0:0:0:
64,192,105410,128,8,105487:3:0:0:0:
192,192,105410,128,0,105564:0:0:0:0:
448,192,105487,128,0,105564:0:0:0:0:
64,192,105564,1,2,3:0:0:0:
320,192,105564,128,0,105640:0:0:0:0:
192,192,105640,128,0,105717:0:0:0:0:
320,192,105717,1,2,3:0:0:0:
448,192,105717,128,0,105794:0:0:0:0:
64,192,105794,128,0,105871:0:0:0:0:
192,192,105871,128,8,105948:3:0:0:0:
448,192,105871,128,0,105948:0:0:0:0:
320,192,105948,128,0,106025:0:0:0:0:
64,192,106025,128,2,106102:3:0:0:0:
448,192,106025,1,0,0:0:0:0:
192,192,106102,128,0,106179:0:0:0:0:
64,192,106179,1,2,3:0:0:0:
320,192,106179,128,0,106256:0:0:0:0:
448,192,106256,128,0,106333:0:0:0:0:
64,192,106333,128,8,106487:3:0:0:0:
192,192,106333,128,0,106410:0:0:0:0:
320,192,106410,128,0,106487:0:0:0:0:
192,192,106487,1,2,3:0:0:0:
448,192,106487,128,0,106564:0:0:0:0:
64,192,106564,128,2,106640:3:0:0:0:
320,192,106564,1,0,0:0:0:0:
192,192,106640,128,8,106794:3:0:0:0:
448,192,106640,128,0,106717:0:0:0:0:
320,192,106717,128,0,106794:0:0:0:0:
64,192,106794,128,2,106871:3:0:0:0:
448,192,106794,1,0,0:0:0:0:
192,192,106871,128,0,106948:0:0:0:0:
320,192,106948,128,8,107102:3:0:0:0:
448,192,106948,128,0,107025:0:0:0:0:
64,192,107025,128,0,107102:0:0:0:0:
192,192,107102,128,2,107179:3:0:0:0:
448,192,107102,1,0,0:0:0:0:
64,192,107179,128,8,107256:3:0:0:0:
320,192,107179,128,0,107256:0:0:0:0:
192,192,107256,1,2,3:0:0:0:
448,192,107256,128,0,107410:0:0:0:0:
320,192,107333,128,0,107410:0:0:0:0:
192,192,107410,128,0,107487:0:0:0:0:
64,192,107487,128,0,107564:0:0:0:0:
320,192,107564,128,8,107640:3:0:0:0:
448,192,107564,128,0,107640:0:0:0:0:
192,192,107640,128,0,107717:0:0:0:0:
64,192,107717,128,2,107794:3:0:0:0:
448,192,107717,1,0,0:0:0:0:
320,192,107794,128,0,107871:0:0:0:0:
192,192,107871,128,8,107948:3:0:0:0:
448,192,107871,128,0,107948:0:0:0:0:
64,192,107948,128,0,108025:0:0:0:0:
320,192,108025,128,0,108102:0:0:0:0:
192,192,108102,128,0,108179:0:0:0:0:
320,192,108179,1,2,3:0:0:0:
448,192,108179,128,0,108256:0:0:0:0:
64,192,108256,128,0,108333:0:0:0:0:
192,192,108333,128,0,108410:0:0:0:0:
320,192,108410,128,8,108487:3:0:0:0:
448,192,108410,128,0,108487:0:0:0:0:
64,192,108487,128,2,108640:3:0:0:0:
192,192,108487,1,0,0:0:0:0:
448,192,108564,128,0,108640:0:0:0:0:
192,192,108640,128,2,108717:3:0:0:0:
320,192,108640,1,0,0:0:0:0:
64,192,108717,128,0,108794:0:0:0:0:
320,192,108794,128,8,108871:3:0:0:0:
448,192,108794,128,0,108948:0:0:0:0:
192,192,108871,128,0,108948:0:0:0:0:
64,192,108948,128,0,109025:0:0:0:0:
448,192,109025,128,0,109102:0:0:0:0:
64,192,109102,1,2,3:0:0:0:
320,192,109102,128,0,109256:0:0:0:0:
192,192,109179,128,0,109256:0:0:0:0:
448,192,109256,128,0,109333:0:0:0:0:
64,192,109333,128,8,109410:3:0:0:0:
192,192,109333,128,0,109410:0:0:0:0:
320,192,109410,128,2,109487:3:0:0:0:
448,192,109410,1,0,0:0:0:0:
64,192,109487,128,0,109564:0:0:0:0:
320,192,109564,1,2,3:0:0:0:
448,192,109564,128,0,109640:0:0:0:0:
192,192,109640,128,0,109717:0:0:0:0:
64,192,109717,128,8,109794:3:0:0:0:
320,192,109717,128,0,109794:0:0:0:0:
448,192,109794,128,0,109871:0:0:0:0:
64,192,109871,1,2,3:0:0:0:
192,192,109871,128,0,109948:0:0:0:0:
320,192,109948,128,0,110025:0:0:0:0:
64,192,110025,128,2,110179:3:0:0:0:
448,192,110025,1,0,0:0:0:0:
192,192,110102,128,0,110179:0:0:0:0:
320,192,110179,128,8,110256:3:0:0:0:
448,192,110179,128,0,110256:0:0:0:0:
64,192,110256,128,0,110333:0:0:0:0:
192,192,110333,128,2,110487:3:0:0:0:
448,192,110333,1,0,0:0:0:0:
320,192,110410,128,0,110487:0:0:0:0:
64,192,110487,1,2,3:0:0:0:
448,192,110487,128,0,110564:0:0:0:0:
192,192,110564,128,0,110640:0:0:0:0:
64,192,110640,128,8,110717:3:0:0:0:
320,192,110640,128,0,110794:0:0:0:0:
448,192,110717,128,0,110794:0:0:0:0:
64,192,110794,128,2,110871:3:0:0:0:
192,192,110794,1,0,0:0:0:0:
320,192,110871,128,0,110948:0:0:0:0:
192,192,110948,128,8,111025:3:0:0:0:
448,192,110948,128,0,111102:0:0:0:0:
320,192,111025,128,0,111102:0:0:0:0:
64,192,111102,128,2,111179:3:0:0:0:
192,192,111102,1,0,0:0:0:0:
320,192,111179,128,0,111256:0:0:0:0:
64,192,111256,1,2,3:0:0:0:
448,192,111256,128,0,111333:0:0:0:0:
192,192,111333,128,0,111410:0:0:0:0:
64,192,111410,128,8,111564:3:0:0:0:
320,192,111410,128,0,111487:0:0:0:0:
448,192,111487,128,0,111564:0:0:0:0:
192,192,111564,128,2,111640:3:0:0:0:
320,192,111564,1,0,0:0:0:0:
448,192,111640,128,0,111717:0:0:0:0:
64,192,111717,128,2,111794:3:0:0:0:
192,192,111717,1,0,0:0:0:0:
320,192,111794,128,0,111871:0:0:0:0:
192,192,111871,128,8,112025:3:0:0:0:
448,192,111871,128,0,111948:0:0:0:0:
64,192,111948,128,0,112025:0:0:0:0:
320,192,112025,1,2,3:0:0:0:
448,192,112025,128,0,112102:0:0:0:0:
64,192,112102,128,2,112179:3:0:0:0:
192,192,112102,1,0,0:0:0:0:
320,192,112179,128,2,112333:3:0:0:0:
448,192,112179,1,0,0:0:0:0:
192,192,112256,128,0,112333:0:0:0:0:
64,192,112333,128,8,112410:3:0:0:0:
448,192,112333,128,0,112410:0:0:0:0:
320,192,112410,128,0,112487:0:0:0:0:
64,192,112487,1,2,3:0:0:0:
448,192,112487,128,0,112640:0:0:0:0:
192,192,112564,128,0,112640:0:0:0:0:
64,192,112640,128,8,112717:3:0:0:0:
320,192,112640,128,0,112717:0:0:0:0:
192,192,112717,1,2,3:0:0:0:
448,192,112717,128,0,112794:0:0:0:0:
64,192,112794,128,8,112871:3:0:0:0:
320,192,112794,128,0,112948:0:0:0:0:
448,192,112871,128,0,112948:0:0:0:0:
64,192,112948,1,2,3:0:0:0:
192,192,112948,128,0,113025:0:0:0:0:
320,192,113025,128,0,113102:0:0:0:0:
192,192,113102,128,2,113256:3:0:0:0:
448,192,113102,1,0,0:0:0:0:
64,192,113179,128,0,113256:0:0:0:0:
320,192,113256,128,8,113333:3:0:0:0:
448,192,113256,128,0,113333:0:0:0:0:
192,192,113333,128,0,113410:0:0:0:0:
64,192,113410,128,2,113564:3:0:0:0:
320,192,113410,1,0,0:0:0:0:
192,192,113487,128,0,113564:0:0:0:0:
448,192,113564,1,2,3:0:0:0:
320,192,113602,1,2,3:0:0:0:
64,192,113640,1,2,3:0:0:0:
192,192,113679,1,2,3:0:0:0:
320,192,113717,128,8,113794:3:0:0:0:
448,192,113717,128,0,113871:0:0:0:0:
64,192,113794,128,2,113871:3:0:0:0:
192,192,113871,1,2,3:0:0:0:
320,192,113871,128,0,113948:0:0:0:0:
448,192,113948,128,8,114025:3:0:0:0:
64,192,114025,1,2,3:0:0:0:
192,192,114025,128,0,114179:0:0:0:0:
448,192,114102,128,8,114179:3:0:0:0:
64,192,114179,1,2,3:0:0:0:
320,192,114179,128,0,114256:0:0:0:0:
192,192,114256,128,2,114333:3:0:0:0:
448,192,114256,1,0,0:0:0:0:
64,192,114333,128,8,114410:3:0:0:0:
320,192,114333,128,0,114487:0:0:0:0:
192,192,114410,128,2,114487:3:0:0:0:
64,192,114487,1,2,3:0:0:0:
448,192,114487,128,0,114564:0:0:0:0:
192,192,114564,128,8,114640:3:0:0:0:
320,192,114564,128,0,114640:0:0:0:0:
64,192,114640,128,4,114717:0:0:0:0:
448,192,114640,128,2,114794:3:0:0:0:
320,192,114717,128,0,114794:0:0:0:0:
192,192,114794,128,0,114871:0:0:0:0:
64,192,114871,128,0,114948:0:0:0:0:
192,192,114948,128,8,115025:3:0:0:0:
448,192,114948,128,0,115025:0:0:0:0:
320,192,115025,128,0,115102:0:0:0:0:
64,192,115102,1,2,3:0:0:0:
192,192,115102,128,0,115179:0:0:0:0:
448,192,115179,128,0,115256:0:0:0:0:
64,192,115256,128,8,115333:3:0:0:0:
320,192,115256,128,0,115333:0:0:0:0:
192,192,115333,128,0,115410:0:0:0:0:
448,192,115410,128,0,115487:0:0:0:0:
320,192,115487,128,0,115564:0:0:0:0:
64,192,115564,128,2,115640:3:0:0:0:
192,192,115564,1,0,0:0:0:0:
320,192,115640,128,0,115717:0:0:0:0:
192,192,115717,128,0,115794:0:0:0:0:
320,192,115794,128,8,115871:3:0:0:0:
448,192,115794,128,0,115871:0:0:0:0:
64,192,115871,128,2,116025:3:0:0:0:
192,192,115871,1,0,0:0:0:0:
448,192,115948,128,0,116025:0:0:0:0:
192,192,116025,128,2,116102:3:0:0:0:
320,192,116025,1,0,0:0:0:0:
64,192,116102,128,0,116179:0:0:0:0:
320,192,116179,128,8,116333:3:0:0:0:
448,192,116179,128,0,116256:0:0:0:0:
192,192,116256,128,0,116333:0:0:0:0:
64,192,116333,128,0,116410:0:0:0:0:
448,192,116410,128,0,116487:0:0:0:0:
64,192,116487,1,2,3:0:0:0:
192,192,116487,128,0,116640:0:0:0:0:
320,192,116564,128,0,116640:0:0:0:0:
448,192,116640,128,0,116717:0:0:0:0:
64,192,116717,128,8,116794:3:0:0:0:
320,192,116717,128,0,116794:0:0:0:0:
192,192,116794,128,2,116871:3:0:0:0:
448,192,116794,1,0,0:0:0:0:
64,192,116871,128,0,116948:0:0:0:0:
320,192,116948,128,2,117025:3:0:0:0:
448,192,116948,1,0,0:0:0:0:
192,192,117025,128,0,117102:0:0:0:0:
64,192,117102,128,8,117179:3:0:0:0:
448,192,117102,128,0,117179:0:0:0:0:
320,192,117179,128,0,117256:0:0:0:0:
64,192,117256,1,2,3:0:0:0:
192,192,117256,128,0,117333:0:0:0:0:
448,192,117333,128,0,117410:0:0:0:0:
64,192,117410,128,2,117564:3:0:0:0:
320,192,117410,1,0,0:0:0:0:
192,192,117487,128,0,117564:0:0:0:0:
320,192,117564,128,8,117640:3:0:0:0:
448,192,117564,128,0,117640:0:0:0:0:
64,192,117640,128,0,117717:0:0:0:0:
192,192,117717,128,2,117871:3:0:0:0:
448,192,117717,1,0,0:0:0:0:
320,192,117794,128,0,117871:0:0:0:0:
64,192,117871,128,2,117948:3:0:0:0:
448,192,117871,1,0,0:0:0:0:
192,192,117948,128,0,118025:0:0:0:0:
320,192,118025,128,8,118102:3:0:0:0:
448,192,118025,128,0,118179:0:0:0:0:
64,192,118102,128,0,118179:0:0:0:0:
192,192,118179,128,2,118256:3:0:0:0:
320,192,118179,1,0,0:0:0:0:
64,192,118256,128,8,118333:3:0:0:0:
448,192,118256,128,0,118333:0:0:0:0:
192,192,118333,128,2,118487:3:0:0:0:
320,192,118333,1,0,0:0:0:0:
448,192,118410,128,0,118487:0:0:0:0:
320,192,118487,128,0,118564:0:0:0:0:
64,192,118564,128,0,118640:0:0:0:0:
192,192,118640,128,8,118717:3:0:0:0:
448,192,118640,128,0,118717:0:0:0:0:
320,192,118717,128,0,118794:0:0:0:0:
64,192,118794,1,2,3:0:0:0:
192,192,118794,128,0,118871:0:0:0:0:
448,192,118871,128,0,118948:0:0:0:0:
64,192,118948,128,8,119025:3:0:0:0:
320,192,118948,128,0,119025:0:0:0:0:
192,192,119025,128,0,119102:0:0:0:0:
320,192,119102,128,0,119179:0:0:0:0:
448,192,119179,128,0,119256:0:0:0:0:
64,192,119256,128,2,119410:3:0:0:0:
192,192,119256,1,0,0:0:0:0:
320,192,119333,128,0,119410:0:0:0:0:
192,192,119410,128,8,119487:3:0:0:0:
448,192,119410,128,0,119487:0:0:0:0:
320,192,119487,128,0,119564:0:0:0:0:
192,192,119564,128,2,119717:3:0:0:0:
448,192,119564,1,0,0:0:0:0:
64,192,119640,128,0,119717:0:0:0:0:
320,192,119717,1,2,3:0:0:0:
448,192,119717,128,0,119794:0:0:0:0:
192,192,119794,128,0,119871:0:0:0:0:
64,192,119871,128,8,119948:3:0:0:0:
320,192,119871,128,0,120025:0:0:0:0:
448,192,119948,128,0,120025:0:0:0:0:
64,192,120025,1,2,3:0:0:0:
192,192,120025,128,0,120102:0:0:0:0:
320,192,120102,128,0,120179:0:0:0:0:
64,192,120179,128,8,120256:3:0:0:0:
448,192,120179,128,0,120333:0:0:0:0:
192,192,120256,128,0,120333:0:0:0:0:
64,192,120333,1,2,3:0:0:0:
320,192,120333,128,0,120410:0:0:0:0:
448,192,120410,128,0,120487:0:0:0:0:
192,192,120487,128,2,120564:3:0:0:0:
320,192,120487,1,0,0:0:0:0:
64,192,120564,128,0,120640:0:0:0:0:
192,192,120640,128,8,120717:3:0:0:0:
448,192,120640,128,0,120717:0:0:0:0:
320,192,120717,128,0,120794:0:0:0:0:
64,192,120794,128,2,120871:3:0:0:0:
192,192,120794,1,0,0:0:0:0:
448,192,120871,128,0,120948:0:0:0:0:
64,192,120948,1,2,3:0:0:0:
192,192,120948,128,0,121025:0:0:0:0:
320,192,121025,128,0,121102:0:0:0:0:
64,192,121102,128,8,121256:3:0:0:0:
448,192,121102,128,0,121179:0:0:0:0:
192,192,121179,128,0,121256:0:0:0:0:
320,192,121256,128,2,121333:3:0:0:0:
448,192,121256,1,0,0:0:0:0:
64,192,121333,1,2,3:0:0:0:
192,192,121333,128,0,121410:0:0:0:0:
320,192,121410,128,8,121564:3:0:0:0:
448,192,121410,128,0,121487:0:0:0:0:
192,192,121487,128,0,121564:0:0:0:0:
64,192,121564,128,2,121640:3:0:0:0:
448,192,121564,1,0,0:0:0:0:
320,192,121640,128,0,121717:0:0:0:0:
64,192,121717,128,8,121794:3:0:0:0:
192,192,121717,128,0,121871:0:0:0:0:
320,192,121794,128,0,121871:0:0:0:0:
64,192,121871,1,2,3:0:0:0:
448,192,121871,128,0,121948:0:0:0:0:
192,192,121948,128,8,122025:3:0:0:0:
320,192,121948,128,0,122025:0:0:0:0:
64,192,122025,1,2,3:0:0:0:
448,192,122025,128,0,122179:0:0:0:0:
192,192,122102,128,0,122179:0:0:0:0:
320,192,122179,128,0,122256:0:0:0:0:
64,192,122256,128,0,122333:0:0:0:0:
320,192,122333,128,8,122410:3:0:0:0:
448,192,122333,128,0,122410:0:0:0:0:
192,192,122410,128,0,122487:0:0:0:0:
64,192,122487,128,2,122564:3:0:0:0:
448,192,122487,1,0,0:0:0:0:
320,192,122564,128,0,122640:0:0:0:0:
192,192,122640,128,8,122717:3:0:0:0:
448,192,122640,128,0,122717:0:0:0:0:
64,192,122717,128,0,122794:0:0:0:0:
320,192,122794,128,0,122871:0:0:0:0:
448,192,122871,128,0,122948:0:0:0:0:
64,192,122948,1,2,3:0:0:0:
192,192,122948,128,0,123025:0:0:0:0:
320,192,123025,128,0,123102:0:0:0:0:
448,192,123102,128,0,123179:0:0:0:0:
64,192,123179,128,8,123256:3:0:0:0:
192,192,123179,128,0,123256:0:0:0:0:
320,192,123256,128,2,123410:3:0:0:0:
448,192,123256,1,0,0:0:0:0:
192,192,123333,128,0,123410:0:0:0:0:
64,192,123410,1,2,3:0:0:0:
448,192,123410,128,0,123487:0:0:0:0:
320,192,123487,128,0,123564:0:0:0:0:
192,192,123564,128,8,123640:3:0:0:0:
448,192,123564,128,0,123717:0:0:0:0:
64,192,123640,128,0,123717:0:0:0:0:
320,192,123717,128,0,123794:0:0:0:0:
64,192,123794,128,0,123871:0:0:0:0:
192,192,123871,128,2,124025:3:0:0:0:
448,192,123871,1,0,0:0:0:0:
320,192,123948,128,0,124025:0:0:0:0:
64,192,124025,128,0,124102:0:0:0:0:
192,192,124102,128,8,124179:3:0:0:0:
448,192,124102,128,0,124179:0:0:0:0:
64,192,124179,1,2,3:0:0:0:
320,192,124179,128,0,124256:0:0:0:0:
192,192,124256,128,0,124333:0:0:0:0:
320,192,124333,1,2,3:0:0:0:
448,192,124333,128,0,124410:0:0:0:0:
64,192,124410,128,0,124487:0:0:0:0:
192,192,124487,128,8,124564:3:0:0:0:
448,192,124487,128,0,124564:0:0:0:0:
320,192,124564,128,0,124640:0:0:0:0:
64,192,124640,1,2,3:0:0:0:
192,192,124640,128,0,124717:0:0:0:0:
320,192,124717,128,0,124794:0:0:0:0:
64,192,124794,128,2,124948:3:0:0:0:
448,192,124794,1,0,0:0:0:0:
192,192,124871,128,0,124948:0:0:0:0:
320,192,124948,128,8,125025:3:0:0:0:
448,192,124948,128,0,125025:0:0:0:0:
64,192,125025,128,0,125102:0:0:0:0:
192,192,125102,1,2,3:0:0:0:
320,192,125102,128,0,125256:0:0:0:0:
448,192,125179,128,0,125256:0:0:0:0:
64,192,125256,1,2,3:0:0:0:
192,192,125256,128,0,125333:0:0:0:0:
320,192,125333,128,0,125410:0:0:0:0:
192,192,125410,128,8,125564:3:0:0:0:
448,192,125410,128,0,125487:0:0:0:0:
64,192,125487,128,0,125564:0:0:0:0:
320,192,125564,128,2,125640:3:0:0:0:
448,192,125564,1,0,0:0:0:0:
192,192,125640,128,0,125717:0:0:0:0:
64,192,125717,128,8,125794:3:0:0:0:
448,192,125717,128,0,125871:0:0:0:0:
320,192,125794,128,0,125871:0:0:0:0:
64,192,125871,1,2,3:0:0:0:
192,192,125871,128,0,125948:0:0:0:0:
320,192,125948,128,0,126025:0:0:0:0:
192,192,126025,128,2,126102:3:0:0:0:
448,192,126025,1,0,0:0:0:0:
320,192,126102,128,0,126179:0:0:0:0:
64,192,126179,128,8,126256:3:0:0:0:
448,192,126179,128,0,126256:0:0:0:0:
192,192,126256,128,0,126333:0:0:0:0:
320,192,126333,128,2,126410:3:0:0:0:
448,192,126333,1,0,0:0:0:0:
192,192,126410,128,0,126487:0:0:0:0:
64,192,126487,128,2,126564:3:0:0:0:
448,192,126487,1,0,0:0:0:0:
320,192,126564,128,0,126640:0:0:0:0:
64,192,126640,128,8,126717:3:0:0:0:
192,192,126640,128,0,126717:0:0:0:0:
448,192,126717,128,0,126794:0:0:0:0:
64,192,126794,1,2,3:0:0:0:
320,192,126794,128,0,126871:0:0:0:0:
192,192,126871,1,2,3:0:0:0:
448,192,126871,128,0,126948:0:0:0:0:
64,192,126948,128,2,127102:3:0:0:0:
320,192,126948,1,0,0:0:0:0:
192,192,127025,128,0,127102:0:0:0:0:
320,192,127102,128,8,127179:3:0:0:0:
448,192,127102,128,0,127179:0:0:0:0:
192,192,127179,128,0,127256:0:0:0:0:
320,192,127256,128,2,127410:3:0:0:0:
448,192,127256,1,0,0:0:0:0:
64,192,127333,128,0,127410:0:0:0:0:
192,192,127410,128,8,127487:3:0:0:0:
448,192,127410,128,0,127487:0:0:0:0:
64,192,127487,128,2,127564:3:0:0:0:
320,192,127487,1,0,0:0:0:0:
192,192,127564,128,8,127640:3:0:0:0:
448,192,127564,128,0,127717:0:0:0:0:
320,192,127640,128,0,127717:0:0:0:0:
64,192,127717,1,2,3:0:0:0:
192,192,127717,128,0,127794:0:0:0:0:
320,192,127794,128,0,127871:0:0:0:0:
64,192,127871,128,8,127948:3:0:0:0:
448,192,127871,128,0,127948:0:0:0:0:
320,192,127948,128,0,128025:0:0:0:0:
64,192,128025,1,2,3:0:0:0:
192,192,128025,128,0,128102:0:0:0:0:
320,192,128102,128,0,128179:0:0:0:0:
192,192,128179,128,8,128256:3:0:0:0:
448,192,128179,128,0,128256:0:0:0:0:
64,192,128256,128,0,128333:0:0:0:0:
448,192,128333,1,2,3:0:0:0:
320,192,128371,1,2,3:0:0:0:
192,192,128410,128,8,128487:3:0:0:0:
64,192,128487,128,8,128564:3:0:0:0:
320,192,128564,128,2,128640:3:0:0:0:
448,192,128564,1,0,0:0:0:0:
64,192,128640,1,2,3:0:0:0:
192,192,128640,128,0,128717:0:0:0:0:
448,192,128717,128,8,128794:3:0:0:0:
64,192,128794,128,2,128871:3:0:0:0:
192,192,128794,1,0,0:0:0:0:
448,192,128871,128,8,128948:3:0:0:0:
64,192,128948,1,2,3:0:0:0:
192,192,128948,128,0,129025:0:0:0:0:
320,192,129025,128,2,129102:3:0:0:0:
448,192,129025,1,0,0:0:0:0:
64,192,129102,128,8,129179:3:0:0:0:
192,192,129179,128,8,129256:3:0:0:0:
448,192,129179,128,0,129256:0:0:0:0:
64,192,129256,128,8,129333:3:0:0:0:
320,192,129256,128,0,129333:0:0:0:0:
448,192,129333,128,8,129410:3:0:0:0:
64,192,129410,128,2,129487:3:0:0:0:
192,192,129410,128,4,129487:0:0:0:0:
320,192,129410,128,0,131256:0:0:0:0:
448,192,129717,128,0,129769:0:0:0:0:
192,192,130025,128,0,130076:0:0:0:0:
64,192,130333,128,0,130410:0:0:0:0:
192,192,130333,128,0,130384:0:0:0:0:
448,192,130640,128,0,130692:0:0:0:0:
192,192,130948,128,0,130999:0:0:0:0:
192,192,131256,128,0,131307:0:0:0:0:
448,192,131256,128,0,131333:0:0:0:0:
320,192,131410,1,0,0:0:0:0:
448,192,131564,128,0,131615:0:0:0:0:
192,192,131640,128,0,131692:0:0:0:0:
320,192,131717,128,0,131769:0:0:0:0:
64,192,131794,128,0,131846:0:0:0:0:
192,192,131871,128,0,131922:0:0:0:0:
320,192,132025,128,0,132076:0:0:0:0:
192,192,132179,128,0,132230:0:0:0:0:
448,192,132179,128,0,132256:0:0:0:0:
320,192,132333,1,0,0:0:0:0:
448,192,132487,128,0,132538:0:0:0:0:
320,192,132564,128,0,132615:0:0:0:0:
192,192,132640,128,0,132692:0:0:0:0:
64,192,132717,128,0,132769:0:0:0:0:
320,192,132794,128,0,132846:0:0:0:0:
448,192,132948,128,0,132999:0:0:0:0:
64,192,133102,128,0,133179:0:0:0:0:
192,192,133102,128,0,133153:0:0:0:0:
320,192,133256,1,0,0:0:0:0:
448,192,133410,128,0,133461:0:0:0:0:
192,192,133487,128,0,133538:0:0:0:0:
320,192,133564,128,0,133615:0:0:0:0:
64,192,133640,128,0,133692:0:0:0:0:
192,192,133717,128,0,133769:0:0:0:0:
320,192,133871,128,0,133922:0:0:0:0:
64,192,134025,128,0,134102:0:0:0:0:
192,192,134025,128,0,134076:0:0:0:0:
320,192,134179,1,0,0:0:0:0:
448,192,134333,128,0,134384:0:0:0:0:
320,192,134410,128,0,134461:0:0:0:0:
192,192,134487,128,0,134538:0:0:0:0:
64,192,134564,128,0,134615:0:0:0:0:
192,192,134640,128,0,134692:0:0:0:0:
320,192,134794,128,0,134846:0:0:0:0:
192,192,134948,128,0,134999:0:0:0:0:
320,192,134948,128,0,135025:0:0:0:0:
320,192,135102,1,0,0:0:0:0:
448,192,135256,128,0,135307:0:0:0:0:
192,192,135333,128,0,135384:0:0:0:0:
320,192,135410,128,0,135461:0:0:0:0:
64,192,135487,128,0,135538:0:0:0:0:
192,192,135564,128,0,135615:0:0:0:0:
192,192,135717,128,0,135769:0:0:0:0:
192,192,135871,128,0,135922:0:0:0:0:
320,192,135871,128,0,135948:0:0:0:0:
320,192,136025,1,0,0:0:0:0:
448,192,136179,128,0,136230:0:0:0:0:
320,192,136256,128,0,136307:0:0:0:0:
192,192,136333,128,0,136384:0:0:0:0:
64,192,136410,128,0,136461:0:0:0:0:
320,192,136487,128,0,136717:0:0:0:0:
448,192,136640,128,0,136717:0:0:0:0:
