osu file format v14

[General]
AudioFilename: audio.mp3
AudioLeadIn: 0
PreviewTime: 98758
Countdown: 0
SampleSet: Normal
StackLeniency: 0.7
Mode: 1
LetterboxInBreaks: 0
WidescreenStoryboard: 1

[Editor]
Bookmarks: 7374,22143,36911,51680,59064,66448,98754
DistanceSpacing: 1
BeatDivisor: 4
GridSize: 32
TimelineZoom: 3.000002

[Metadata]
Title:The Last Page
TitleUnicode:The Last Page
Artist:ARForest
ArtistUnicode:ARForest
Creator:Eyenine
Version:Muzukashii
Source:
Tags:electronic instrumental artcore video game bofxv19 bms of fighters extreme violence frenz2019 inukoro lanota muse dash unfinished fa featured artist osu!
BeatmapID:2561654
BeatmapSetID:1232258

[Difficulty]
HPDrainRate:6
CircleSize:5
OverallDifficulty:5
ApproachRate:7
SliderMultiplier:1.4
SliderTickRate:1

[Events]
//Background and Video events
0,0,"pacific.jpg",0,0
//Break Periods
//Storyboard Layer 0 (Background)
//Storyboard Layer 1 (Fail)
//Storyboard Layer 2 (Pass)
//Storyboard Layer 3 (Foreground)
//Storyboard Layer 4 (Overlay)
//Storyboard Sound Samples

[TimingPoints]
-11,307.692307692308,3,1,0,40,1,0
7335,-111.111111111111,3,1,0,40,0,0
14748,-111.111111111111,3,1,0,45,0,0
21517,-109.89010989011,3,1,0,55,0,0
21671,-108.695652173913,3,1,0,55,0,0
21825,-107.52688172043,3,1,0,55,0,0
21979,-106.382978723404,3,1,0,55,0,0
22133,-105.263157894737,3,1,0,55,0,0
28902,-104.166666666667,3,1,0,65,0,0
29056,-103.092783505155,3,1,0,65,0,0
29133,-102.564102564103,3,1,0,65,0,0
29210,-102.040816326531,3,1,0,65,0,0
29364,-101.010101010101,3,1,0,65,0,0
29527,-100,3,1,0,75,0,1
36912,-100,3,1,0,75,0,0
37056,-102.040816326531,3,1,0,45,0,0
37287,-103.092783505155,3,1,0,45,0,0
37440,-104.166666666667,3,1,0,45,0,0
37594,-105.263157894737,3,1,0,45,0,0
37748,-106.382978723404,3,1,0,45,0,0
37902,-107.52688172043,3,1,0,45,0,0
38056,-108.695652173913,3,1,0,45,0,0
38210,-109.89010989011,3,1,0,45,0,0
38364,-111.111111111111,3,1,0,45,0,0
44287,-111.111111111111,3,1,0,55,0,0
50748,-100,3,1,0,65,0,0
51825,-105.263157894737,3,1,0,55,0,0
59133,-111.111111111111,3,1,0,40,0,0
65825,-109.89010989011,3,1,0,40,0,0
65979,-108.695652173913,3,1,0,40,0,0
66133,-107.52688172043,3,1,0,40,0,0
66287,-106.382978723404,3,1,0,40,0,0
66440,-105.263157894737,3,1,0,65,0,0
73210,-104.166666666667,3,1,0,65,0,0
73364,-103.092783505155,3,1,0,65,0,0
73440,-102.564102564103,3,1,0,65,0,0
73517,-102.040816326531,3,1,0,65,0,0
73671,-101.010101010101,3,1,0,65,0,0
73835,-100,3,1,0,75,0,1
81219,-100,3,1,0,75,0,0
81364,-102.040816326531,3,1,0,45,0,0
81671,-104.166666666667,3,1,0,45,0,0
81979,-106.382978723404,3,1,0,45,0,0
82287,-108.695652173913,3,1,0,45,0,0
82594,-111.111111111111,3,1,0,45,0,0
88517,-111.111111111111,3,1,0,60,0,0
92220,-111.111111111111,3,1,0,70,0,0
96056,-125,3,1,0,20,0,0
98748,-100,3,1,0,70,0,0
99056,-98.3606557377694,3,1,0,70,0,0
99210,-97.5609756097561,3,1,0,70,0,0
99364,-96.7741935483871,3,1,0,70,0,0
99681,-95.2380952380952,3,1,0,80,0,1
129219,-95.2380952380952,3,1,0,80,0,0
129297,-100,3,1,0,50,0,0

[HitObjects]
352,128,7373,5,8,0:0:0:0:
160,128,7835,1,0,0:0:0:0:
352,128,8142,1,8,0:0:0:0:
352,128,8296,1,8,0:0:0:0:
160,128,8604,1,0,0:0:0:0:
160,128,8912,1,0,0:0:0:0:
352,128,9219,5,8,0:0:0:0:
160,128,9681,1,0,0:0:0:0:
352,128,9989,1,8,0:0:0:0:
352,128,10142,1,8,0:0:0:0:
160,128,10450,1,0,0:0:0:0:
160,128,10758,1,0,0:0:0:0:
352,128,11065,5,8,0:0:0:0:
160,128,11527,1,0,0:0:0:0:
352,128,11835,1,8,0:0:0:0:
352,128,11989,1,8,0:0:0:0:
160,128,12296,1,0,0:0:0:0:
160,128,12604,1,0,0:0:0:0:
352,128,12912,5,8,0:0:0:0:
160,128,13373,1,0,0:0:0:0:
352,128,13681,1,8,0:0:0:0:
352,128,13835,1,8,0:0:0:0:
160,128,14142,1,0,0:0:0:0:
160,128,14450,1,0,0:0:0:0:
160,128,14758,1,0,0:0:0:0:
352,128,15065,1,8,0:0:0:0:
352,128,15219,1,8,0:0:0:0:
352,128,15681,1,8,0:0:0:0:
160,128,15989,1,0,0:0:0:0:
352,128,16142,1,8,0:0:0:0:
160,128,16296,1,0,0:0:0:0:
160,128,16604,1,0,0:0:0:0:
352,128,16912,1,8,0:0:0:0:
352,128,17065,1,8,0:0:0:0:
352,128,17527,1,8,0:0:0:0:
160,128,17835,1,0,0:0:0:0:
160,128,17989,1,0,0:0:0:0:
352,128,18142,1,8,0:0:0:0:
352,128,18296,1,8,0:0:0:0:
160,128,18450,1,0,0:0:0:0:
352,128,18758,1,8,0:0:0:0:
352,128,18912,1,8,0:0:0:0:
352,128,19373,1,8,0:0:0:0:
160,128,19681,1,0,0:0:0:0:
352,128,19835,1,8,0:0:0:0:
160,128,19989,1,0,0:0:0:0:
160,128,20296,1,0,0:0:0:0:
352,128,20604,1,8,0:0:0:0:
352,128,20758,1,8,0:0:0:0:
352,128,21219,1,8,0:0:0:0:
160,128,21527,1,0,0:0:0:0:
160,128,21681,1,0,0:0:0:0:
352,128,21835,1,8,0:0:0:0:
352,128,21989,1,8,0:0:0:0:
160,128,22142,1,0,0:0:0:0:
160,128,22450,1,0,0:0:0:0:
352,128,22912,1,8,0:0:0:0:
352,128,23065,1,8,0:0:0:0:
352,128,23373,1,8,0:0:0:0:
352,128,23450,1,8,0:0:0:0:
352,128,23527,1,8,0:0:0:0:
352,128,23681,1,8,0:0:0:0:
352,128,23835,1,8,0:0:0:0:
160,128,23989,1,0,0:0:0:0:
160,128,24296,1,0,0:0:0:0:
352,128,24604,1,8,0:0:0:0:
352,128,24758,1,8,0:0:0:0:
352,128,24912,1,8,0:0:0:0:
160,128,25219,1,0,0:0:0:0:
352,128,25527,1,8,0:0:0:0:
160,128,25681,1,0,0:0:0:0:
160,128,25758,1,0,0:0:0:0:
160,128,25835,1,0,0:0:0:0:
160,128,26142,1,0,0:0:0:0:
352,128,26604,1,8,0:0:0:0:
352,128,26758,1,8,0:0:0:0:
352,128,27065,1,8,0:0:0:0:
352,128,27142,1,8,0:0:0:0:
352,128,27219,1,8,0:0:0:0:
352,128,27373,1,8,0:0:0:0:
352,128,27527,1,8,0:0:0:0:
160,128,27681,1,0,0:0:0:0:
160,128,27989,1,0,0:0:0:0:
352,128,28296,1,8,0:0:0:0:
352,128,28450,1,8,0:0:0:0:
352,128,28604,1,8,0:0:0:0:
160,128,28912,1,0,0:0:0:0:
352,128,29065,1,8,0:0:0:0:
352,128,29142,1,8,0:0:0:0:
352,128,29219,1,8,0:0:0:0:
352,128,29373,1,8,0:0:0:0:
160,256,29527,1,4,0:0:0:0:
160,128,29989,1,0,0:0:0:0:
352,128,30296,1,8,0:0:0:0:
352,128,30450,1,8,0:0:0:0:
352,128,30758,1,8,0:0:0:0:
352,128,30835,1,8,0:0:0:0:
352,128,30912,1,8,0:0:0:0:
352,128,31065,1,8,0:0:0:0:
352,128,31219,1,8,0:0:0:0:
160,128,31373,1,0,0:0:0:0:
160,128,31835,1,0,0:0:0:0:
352,128,31989,1,8,0:0:0:0:
352,128,32142,1,8,0:0:0:0:
160,128,32296,1,0,0:0:0:0:
160,128,32604,1,0,0:0:0:0:
352,128,32912,1,8,0:0:0:0:
160,128,33065,1,0,0:0:0:0:
160,128,33142,1,0,0:0:0:0:
160,128,33219,1,0,0:0:0:0:
160,128,33681,1,0,0:0:0:0:
352,128,33989,1,8,0:0:0:0:
352,128,34142,1,8,0:0:0:0:
352,128,34450,1,8,0:0:0:0:
352,128,34527,1,8,0:0:0:0:
352,128,34604,1,8,0:0:0:0:
352,128,34758,1,8,0:0:0:0:
352,128,34912,1,8,0:0:0:0:
160,128,35065,1,0,0:0:0:0:
160,128,35527,1,0,0:0:0:0:
352,128,35681,1,8,0:0:0:0:
160,128,35835,1,0,0:0:0:0:
352,128,35989,1,8,0:0:0:0:
160,128,36296,1,0,0:0:0:0:
352,128,36450,1,8,0:0:0:0:
352,128,36527,1,8,0:0:0:0:
352,128,36604,1,8,0:0:0:0:
352,128,36758,1,8,0:0:0:0:
160,128,36912,1,0,0:0:0:0:
160,128,37373,1,0,0:0:0:0:
352,128,37681,1,0,0:0:0:0:
352,128,37835,1,8,0:0:0:0:
160,128,38296,1,0,0:0:0:0:
352,128,38450,1,8,0:0:0:0:
160,128,38758,1,0,0:0:0:0:
160,128,39219,1,0,0:0:0:0:
352,128,39527,1,8,0:0:0:0:
352,128,39681,1,8,0:0:0:0:
352,128,40142,1,8,0:0:0:0:
352,128,40296,1,8,0:0:0:0:
160,128,40604,1,0,0:0:0:0:
160,128,41065,1,0,0:0:0:0:
160,128,41373,1,0,0:0:0:0:
352,128,41527,1,8,0:0:0:0:
160,128,41989,1,0,0:0:0:0:
352,128,42142,1,8,0:0:0:0:
160,128,42450,1,0,0:0:0:0:
160,128,42912,1,0,0:0:0:0:
160,128,43219,1,0,0:0:0:0:
352,128,43373,1,8,0:0:0:0:
352,128,43681,1,8,0:0:0:0:
160,128,44296,1,0,0:0:0:0:
352,128,44604,1,8,0:0:0:0:
352,128,44912,1,8,0:0:0:0:
160,128,45219,1,0,0:0:0:0:
352,128,45527,1,8,0:0:0:0:
352,128,45835,1,8,0:0:0:0:
352,128,45989,1,8,0:0:0:0:
160,128,46142,1,0,0:0:0:0:
352,128,46450,1,8,0:0:0:0:
352,128,46758,1,8,0:0:0:0:
160,128,47065,1,0,0:0:0:0:
352,128,47373,1,8,0:0:0:0:
352,128,47681,1,8,0:0:0:0:
352,128,47835,1,8,0:0:0:0:
160,128,47989,1,0,0:0:0:0:
352,128,48296,1,8,0:0:0:0:
352,128,48604,1,8,0:0:0:0:
160,128,48912,1,0,0:0:0:0:
352,128,49219,1,8,0:0:0:0:
352,128,49527,1,8,0:0:0:0:
160,128,49835,1,0,0:0:0:0:
352,128,50142,1,8,0:0:0:0:
352,128,50450,1,8,0:0:0:0:
256,192,50758,2,0,L|256:256,12,35
352,128,52296,1,8,0:0:0:0:
160,128,52604,1,0,0:0:0:0:
352,128,52912,1,8,0:0:0:0:
352,128,53065,1,8,0:0:0:0:
352,128,53219,1,8,0:0:0:0:
160,128,53527,1,0,0:0:0:0:
352,128,53835,1,8,0:0:0:0:
352,128,54142,1,8,0:0:0:0:
160,128,54450,1,0,0:0:0:0:
352,128,54758,1,8,0:0:0:0:
352,128,55065,1,8,0:0:0:0:
352,128,55219,1,8,0:0:0:0:
160,128,55373,1,0,0:0:0:0:
352,128,55681,1,8,0:0:0:0:
352,128,55989,1,8,0:0:0:0:
160,128,56296,1,0,0:0:0:0:
352,128,56604,1,8,0:0:0:0:
352,128,56758,1,8,0:0:0:0:
352,128,56912,1,8,0:0:0:0:
160,128,57219,1,0,0:0:0:0:
352,128,57527,1,8,0:0:0:0:
352,128,57835,1,8,0:0:0:0:
160,128,58142,1,0,0:0:0:0:
352,128,58450,1,8,0:0:0:0:
160,128,59065,5,0,0:0:0:0:
160,128,59989,1,0,0:0:0:0:
160,128,60912,1,0,0:0:0:0:
352,128,61527,1,8,0:0:0:0:
352,128,61681,1,8,0:0:0:0:
160,128,61835,1,0,0:0:0:0:
160,128,62142,1,0,0:0:0:0:
352,128,62296,1,8,0:0:0:0:
160,128,62450,1,0,0:0:0:0:
352,128,62758,1,8,0:0:0:0:
160,128,64604,1,0,0:0:0:0:
352,128,65527,1,8,0:0:0:0:
160,128,65835,1,0,0:0:0:0:
160,128,65989,1,0,0:0:0:0:
352,128,66142,1,8,0:0:0:0:
352,128,66296,1,8,0:0:0:0:
160,128,66450,1,0,0:0:0:0:
352,128,66758,1,8,0:0:0:0:
352,128,67219,1,8,0:0:0:0:
160,128,67373,1,0,0:0:0:0:
352,128,67681,1,8,0:0:0:0:
352,128,67758,1,8,0:0:0:0:
352,128,67835,1,8,0:0:0:0:
352,128,67989,1,8,0:0:0:0:
352,128,68142,1,8,0:0:0:0:
160,128,68296,1,0,0:0:0:0:
352,128,68604,1,8,0:0:0:0:
352,128,68912,1,8,0:0:0:0:
352,128,69065,1,8,0:0:0:0:
160,128,69219,1,0,0:0:0:0:
352,128,69527,1,8,0:0:0:0:
352,128,69835,1,8,0:0:0:0:
160,128,69989,1,0,0:0:0:0:
160,128,70065,1,0,0:0:0:0:
160,128,70142,1,0,0:0:0:0:
352,128,70450,1,8,0:0:0:0:
352,128,70912,1,8,0:0:0:0:
160,128,71065,1,0,0:0:0:0:
352,128,71373,1,8,0:0:0:0:
352,128,71450,1,8,0:0:0:0:
352,128,71527,1,8,0:0:0:0:
352,128,71681,1,8,0:0:0:0:
352,128,71835,1,8,0:0:0:0:
160,128,71989,1,0,0:0:0:0:
352,128,72296,1,8,0:0:0:0:
352,128,72604,1,8,0:0:0:0:
352,128,72758,1,8,0:0:0:0:
160,128,72912,1,0,0:0:0:0:
160,128,73219,1,0,0:0:0:0:
352,128,73373,1,8,0:0:0:0:
352,128,73450,1,8,0:0:0:0:
352,128,73527,1,8,0:0:0:0:
352,128,73681,1,8,0:0:0:0:
160,256,73835,1,4,0:0:0:0:
160,128,74296,1,0,0:0:0:0:
352,128,74604,1,8,0:0:0:0:
160,128,74758,1,0,0:0:0:0:
160,128,74912,1,0,0:0:0:0:
352,128,75065,1,8,0:0:0:0:
352,128,75142,1,8,0:0:0:0:
352,128,75219,1,8,0:0:0:0:
160,128,75373,1,0,0:0:0:0:
352,128,75527,1,8,0:0:0:0:
160,128,75681,1,0,0:0:0:0:
352,128,75989,1,8,0:0:0:0:
160,128,76142,1,0,0:0:0:0:
352,128,76296,1,8,0:0:0:0:
352,128,76450,1,8,0:0:0:0:
160,128,76604,1,0,0:0:0:0:
160,128,76912,1,0,0:0:0:0:
352,128,77065,1,8,0:0:0:0:
352,128,77219,1,8,0:0:0:0:
160,128,77373,1,0,0:0:0:0:
160,128,77450,1,0,0:0:0:0:
160,128,77527,1,0,0:0:0:0:
160,128,77989,1,0,0:0:0:0:
352,128,78296,1,8,0:0:0:0:
160,128,78450,1,0,0:0:0:0:
160,128,78604,1,0,0:0:0:0:
352,128,78758,1,8,0:0:0:0:
352,128,78835,1,8,0:0:0:0:
352,128,78912,1,8,0:0:0:0:
160,128,79065,1,0,0:0:0:0:
352,128,79219,1,8,0:0:0:0:
160,128,79373,1,0,0:0:0:0:
352,128,79681,1,8,0:0:0:0:
160,128,79835,1,0,0:0:0:0:
352,128,79989,1,8,0:0:0:0:
352,128,80142,1,8,0:0:0:0:
160,128,80296,1,0,0:0:0:0:
160,128,80604,1,0,0:0:0:0:
352,128,80758,1,8,0:0:0:0:
352,128,80835,1,8,0:0:0:0:
352,128,80912,1,8,0:0:0:0:
160,128,81065,1,0,0:0:0:0:
352,128,81219,1,8,0:0:0:0:
352,128,81835,1,8,0:0:0:0:
352,128,82142,1,8,0:0:0:0:
352,128,82758,1,8,0:0:0:0:
352,128,83065,1,8,0:0:0:0:
352,128,83989,1,8,0:0:0:0:
352,128,84450,1,8,0:0:0:0:
352,128,84912,1,8,0:0:0:0:
352,128,85373,1,8,0:0:0:0:
352,128,85835,1,8,0:0:0:0:
352,128,86142,1,8,0:0:0:0:
352,128,86450,1,8,0:0:0:0:
352,128,86758,1,8,0:0:0:0:
352,128,87065,1,8,0:0:0:0:
352,128,87373,1,8,0:0:0:0:
352,128,87681,1,8,0:0:0:0:
160,256,88604,1,4,0:0:0:0:
160,128,89065,1,0,0:0:0:0:
352,128,89527,1,8,0:0:0:0:
352,128,89835,1,8,0:0:0:0:
352,128,90142,1,8,0:0:0:0:
160,128,90450,1,0,0:0:0:0:
352,128,90758,1,8,0:0:0:0:
160,128,91065,1,0,0:0:0:0:
352,128,91373,1,8,0:0:0:0:
160,128,91681,1,0,0:0:0:0:
352,128,91989,1,8,0:0:0:0:
352,128,92296,1,8,0:0:0:0:
160,128,92758,1,0,0:0:0:0:
352,128,93219,1,8,0:0:0:0:
160,128,93527,1,0,0:0:0:0:
352,128,93835,1,8,0:0:0:0:
352,128,94142,1,8,0:0:0:0:
352,128,94604,1,8,0:0:0:0:
160,128,95065,1,0,0:0:0:0:
352,128,95373,1,8,0:0:0:0:
352,128,95681,1,8,0:0:0:0:
352,128,95835,1,8,0:0:0:0:
160,256,95989,1,4,0:0:0:0:
352,128,98758,1,8,0:0:0:0:
352,128,99065,1,8,0:0:0:0:
352,128,99219,1,8,0:0:0:0:
352,128,99373,1,8,0:0:0:0:
160,256,99681,1,4,0:0:0:0:
352,128,99989,1,8,0:0:0:0:
352,128,100296,1,8,0:0:0:0:
160,128,100604,1,0,0:0:0:0:
352,128,100912,1,8,0:0:0:0:
160,128,101065,1,0,0:0:0:0:
352,128,101219,1,8,0:0:0:0:
160,128,101527,1,0,0:0:0:0:
352,128,101835,1,8,0:0:0:0:
160,128,101989,1,0,0:0:0:0:
352,128,102142,1,8,0:0:0:0:
160,128,102450,1,0,0:0:0:0:
352,128,102604,1,8,0:0:0:0:
160,128,102758,1,0,0:0:0:0:
160,128,102912,1,0,0:0:0:0:
352,128,103065,1,8,0:0:0:0:
160,128,103219,1,0,0:0:0:0:
160,128,103296,1,0,0:0:0:0:
160,128,103373,1,0,0:0:0:0:
352,128,103681,1,8,0:0:0:0:
352,128,103989,1,8,0:0:0:0:
160,128,104296,1,0,0:0:0:0:
352,128,104450,1,8,0:0:0:0:
160,128,104604,1,0,0:0:0:0:
160,128,104758,1,0,0:0:0:0:
352,128,104912,1,8,0:0:0:0:
160,128,105065,1,0,0:0:0:0:
352,128,105219,1,8,0:0:0:0:
352,128,105681,1,8,0:0:0:0:
160,128,105989,1,0,0:0:0:0:
352,128,106142,1,8,0:0:0:0:
160,128,106296,1,0,0:0:0:0:
160,128,106373,1,0,0:0:0:0:
160,128,106450,1,0,0:0:0:0:
352,128,106604,1,8,0:0:0:0:
352,128,106758,1,8,0:0:0:0:
160,128,106912,1,0,0:0:0:0:
160,128,107065,1,0,0:0:0:0:
352,128,107373,1,8,0:0:0:0:
352,128,107681,1,8,0:0:0:0:
160,128,107989,1,0,0:0:0:0:
352,128,108296,1,8,0:0:0:0:
160,128,108450,1,0,0:0:0:0:
352,128,108604,1,8,0:0:0:0:
160,128,108912,1,0,0:0:0:0:
352,128,109219,1,8,0:0:0:0:
160,128,109373,1,0,0:0:0:0:
352,128,109527,1,8,0:0:0:0:
160,128,109835,1,0,0:0:0:0:
352,128,109989,1,8,0:0:0:0:
160,128,110142,1,0,0:0:0:0:
160,128,110296,1,0,0:0:0:0:
352,128,110450,1,8,0:0:0:0:
160,128,110604,1,0,0:0:0:0:
352,256,110758,1,12,0:0:0:0:
352,128,111219,1,8,0:0:0:0:
160,128,111527,1,0,0:0:0:0:
352,256,111681,1,12,0:0:0:0:
160,128,111835,1,0,0:0:0:0:
160,128,111912,1,0,0:0:0:0:
160,128,111989,1,0,0:0:0:0:
352,128,112142,1,8,0:0:0:0:
160,128,112296,1,0,0:0:0:0:
352,128,112450,1,8,0:0:0:0:
352,256,112604,1,12,0:0:0:0:
352,128,113065,1,8,0:0:0:0:
160,128,113219,1,0,0:0:0:0:
160,128,113373,1,0,0:0:0:0:
160,128,113450,1,0,0:0:0:0:
160,128,113527,1,0,0:0:0:0:
160,128,113681,1,0,0:0:0:0:
352,128,113835,1,8,0:0:0:0:
352,128,113912,1,8,0:0:0:0:
352,128,113989,1,8,0:0:0:0:
352,128,114142,1,8,0:0:0:0:
160,256,114450,1,4,0:0:0:0:
352,128,114758,1,8,0:0:0:0:
352,128,115065,1,8,0:0:0:0:
160,128,115373,1,0,0:0:0:0:
352,128,115681,1,8,0:0:0:0:
160,128,115835,1,0,0:0:0:0:
352,128,115989,1,8,0:0:0:0:
160,128,116296,1,0,0:0:0:0:
352,128,116604,1,8,0:0:0:0:
160,128,116758,1,0,0:0:0:0:
352,128,116912,1,8,0:0:0:0:
160,128,117219,1,0,0:0:0:0:
352,128,117373,1,8,0:0:0:0:
160,128,117527,1,0,0:0:0:0:
160,128,117681,1,0,0:0:0:0:
352,128,117835,1,8,0:0:0:0:
160,128,117989,1,0,0:0:0:0:
160,128,118065,1,0,0:0:0:0:
160,128,118142,1,0,0:0:0:0:
352,128,118450,1,8,0:0:0:0:
352,128,118758,1,8,0:0:0:0:
160,128,119065,1,0,0:0:0:0:
352,128,119219,1,8,0:0:0:0:
160,128,119373,1,0,0:0:0:0:
160,128,119527,1,0,0:0:0:0:
352,128,119681,1,8,0:0:0:0:
352,128,119835,1,8,0:0:0:0:
352,128,119989,1,8,0:0:0:0:
352,128,120450,1,8,0:0:0:0:
160,128,120758,1,0,0:0:0:0:
352,128,120912,1,8,0:0:0:0:
160,128,121065,1,0,0:0:0:0:
160,128,121142,1,0,0:0:0:0:
160,128,121219,1,0,0:0:0:0:
352,128,121373,1,8,0:0:0:0:
352,128,121527,1,8,0:0:0:0:
160,128,121681,1,0,0:0:0:0:
160,256,121835,1,4,0:0:0:0:
352,128,122142,1,8,0:0:0:0:
352,128,122450,1,8,0:0:0:0:
160,128,122758,1,0,0:0:0:0:
352,128,123065,1,8,0:0:0:0:
160,128,123219,1,0,0:0:0:0:
352,128,123373,1,8,0:0:0:0:
160,128,123681,1,0,0:0:0:0:
352,128,123989,1,8,0:0:0:0:
160,128,124142,1,0,0:0:0:0:
352,128,124296,1,8,0:0:0:0:
160,128,124604,1,0,0:0:0:0:
352,128,124758,1,8,0:0:0:0:
160,128,124912,1,0,0:0:0:0:
160,128,125065,1,0,0:0:0:0:
352,128,125219,1,8,0:0:0:0:
352,128,125373,1,8,0:0:0:0:
352,256,125527,1,12,0:0:0:0:
352,128,125989,1,8,0:0:0:0:
160,128,126296,1,0,0:0:0:0:
352,128,126450,1,8,0:0:0:0:
160,128,126604,1,0,0:0:0:0:
160,128,126681,1,0,0:0:0:0:
160,128,126758,1,0,0:0:0:0:
352,128,126912,1,8,0:0:0:0:
160,128,127065,1,0,0:0:0:0:
352,128,127219,1,8,0:0:0:0:
352,256,127373,1,12,0:0:0:0:
352,128,127681,1,8,0:0:0:0:
352,128,127989,1,8,0:0:0:0:
160,128,128142,1,0,0:0:0:0:
352,128,128296,1,8,0:0:0:0:
352,128,128450,1,8,0:0:0:0:
352,128,128527,1,8,0:0:0:0:
352,128,128681,1,8,0:0:0:0:
352,128,128758,1,8,0:0:0:0:
352,128,128912,1,8,0:0:0:0:
160,256,129219,1,4,0:0:0:0:
352,128,129527,1,8,0:0:0:0:
352,128,129681,1,8,0:0:0:0:
160,128,130142,1,0,0:0:0:0:
352,128,130450,1,8,0:0:0:0:
160,128,130604,1,0,0:0:0:0:
352,128,130758,1,8,0:0:0:0:
352,128,130912,1,8,0:0:0:0:
160,128,131065,1,0,0:0:0:0:
352,128,131373,1,8,0:0:0:0:
352,128,131527,1,8,0:0:0:0:
160,128,131989,1,0,0:0:0:0:
352,128,132296,1,8,0:0:0:0:
352,128,132450,1,8,0:0:0:0:
352,128,132604,1,8,0:0:0:0:
352,128,132758,1,8,0:0:0:0:
160,128,132912,1,0,0:0:0:0:
352,128,133219,1,8,0:0:0:0:
352,128,133373,1,8,0:0:0:0:
160,128,133835,1,0,0:0:0:0:
352,128,134142,1,8,0:0:0:0:
160,128,134296,1,0,0:0:0:0:
352,128,134450,1,8,0:0:0:0:
352,128,134604,1,8,0:0:0:0:
160,128,134758,1,0,0:0:0:0:
352,128,135065,1,8,0:0:0:0:
352,128,135219,1,8,0:0:0:0:
160,128,135681,1,0,0:0:0:0:
352,128,135989,1,8,0:0:0:0:
160,128,136142,1,0,0:0:0:0:
352,128,136296,1,8,0:0:0:0:
352,128,136450,1,8,0:0:0:0:
