osu file format v14

[General]
AudioFilename: audio.mp3
AudioLeadIn: 0
PreviewTime: 91435
Countdown: 0
SampleSet: Normal
StackLeniency: 0.7
Mode: 1
LetterboxInBreaks: 0
WidescreenStoryboard: 0

[Editor]
Bookmarks: 18435,36721,55007,73292,91578,109864,128150
DistanceSpacing: 1.1
BeatDivisor: 4
GridSize: 4
TimelineZoom: 0.7

[Metadata]
Title:Regret
TitleUnicode:Regret
Artist:ARForest
ArtistUnicode:ARForest
Creator:Nepuri
Version:Sorrow
Source:
Tags:electronic instrumental Frost Era Nara_NB
BeatmapID:2468709
BeatmapSetID:1184228

[Difficulty]
HPDrainRate:7
CircleSize:5
OverallDifficulty:6
ApproachRate:5
SliderMultiplier:1.4
SliderTickRate:1

[Events]
//Background and Video events
0,0,"2020-07-23_Regret-NepuriBG.png",0,0
//Break Periods
//Storyboard Layer 0 (Background)
//Storyboard Layer 1 (Fail)
//Storyboard Layer 2 (Pass)
//Storyboard Layer 3 (Foreground)
//Storyboard Layer 4 (Overlay)
//Storyboard Sound Samples

[TimingPoints]
150,285.714285714286,4,1,0,85,1,0
150,-250,4,1,0,85,0,0
435,-250,4,1,0,40,0,0
9221,-166.666666666667,4,1,0,55,0,0
18364,-133.333333333333,4,1,0,75,0,0
27507,-111.111111111111,4,1,0,85,0,0
32150,-111.111111111111,4,1,0,85,0,0
32292,-110.344827586207,4,1,0,85,0,0
32435,-109.58904109589,4,1,0,85,0,0
32578,-108.843537414966,4,1,0,85,0,0
32721,-108.108108108108,4,1,0,85,0,0
32864,-107.38255033557,4,1,0,85,0,0
33007,-106.666666666667,4,1,0,85,0,0
33150,-105.960264900662,4,1,0,85,0,0
33292,-105.263157894737,4,1,0,85,0,0
33435,-104.575163398693,4,1,0,85,0,0
33578,-103.896103896104,4,1,0,85,0,0
33721,-103.225806451613,4,1,0,85,0,0
33864,-102.564102564103,4,1,0,85,0,0
34007,-101.910828025478,4,1,0,85,0,0
34150,-101.26582278481,4,1,0,85,0,0
34292,-100.62893081761,4,1,0,85,0,0
34435,-100,4,1,0,85,0,0
34507,-99.6884735202492,4,1,0,85,0,0
34578,-99.3788819875776,4,1,0,85,0,0
34650,-99.0712074303406,4,1,0,85,0,0
34721,-98.7654320987654,4,1,0,85,0,0
34792,-98.4615384615385,4,1,0,85,0,0
34864,-98.159509202454,4,1,0,85,0,0
34935,-97.8593272171254,4,1,0,85,0,0
35007,-97.5609756097561,4,1,0,85,0,0
35078,-97.2644376899696,4,1,0,85,0,0
35150,-96.969696969697,4,1,0,85,0,0
35221,-96.6767371601208,4,1,0,85,0,0
35292,-96.3855421686747,4,1,0,85,0,0
35364,-96.0960960960961,4,1,0,85,0,0
35435,-95.8083832335329,4,1,0,85,0,0
35507,-95.5223880597015,4,1,0,85,0,0
35578,-95.2380952380952,4,1,0,85,0,0
35650,-94.9554896142433,4,1,0,85,0,0
35721,-94.6745562130178,4,1,0,85,0,0
35792,-94.3952802359882,4,1,0,85,0,0
35864,-94.1176470588235,4,1,0,85,0,0
35935,-93.841642228739,4,1,0,85,0,0
36007,-93.5672514619883,4,1,0,85,0,0
36078,-93.2944606413994,4,1,0,85,0,0
36150,-93.0232558139535,4,1,0,85,0,0
36578,-91.4285714285714,4,1,0,85,0,0
36650,-91.1680911680912,4,1,0,85,0,0
36721,-90.9090909090909,4,1,0,85,0,0
37292,-66.6666666666667,4,1,0,85,0,0
37864,-100,4,1,0,85,0,0
38364,-66.6666666666667,4,1,0,85,0,0
38936,-83.3333333333333,4,1,0,85,0,0
39507,-66.6666666666667,4,1,0,85,0,0
40079,-100,4,1,0,85,0,0
40650,-66.6666666666667,4,1,0,85,0,0
40792,-72.7272727272727,4,1,0,85,0,0
40935,-80,4,1,0,85,0,0
41078,-88.8888888888889,4,1,0,85,0,0
41222,-76.9230769230769,4,1,0,85,0,0
41864,-66.6666666666667,4,1,0,85,0,0
42435,-100,4,1,0,85,0,0
43007,-66.6666666666667,4,1,0,85,0,0
43078,-72.7272727272727,4,1,0,85,0,0
43221,-80,4,1,0,85,0,0
43364,-88.8888888888889,4,1,0,85,0,0
43507,-100,4,1,0,85,0,0
44078,-71.4285714285714,4,1,0,85,0,0
44221,-80,4,1,0,85,0,0
45864,-76.9230769230769,4,1,0,85,0,0
46150,-66.6666666666667,4,1,0,85,0,0
46435,-90.9090909090909,4,1,0,85,0,0
48150,-76.9230769230769,4,1,0,85,0,0
48435,-66.6666666666667,4,1,0,85,0,0
48721,-90.9090909090909,4,1,0,85,0,0
51007,-111.111111111111,4,1,0,85,0,0
54150,-125,4,1,0,85,0,0
54864,-133.333333333333,4,1,0,85,0,0
55007,-142.857142857143,4,1,0,85,0,0
73292,-125,4,1,0,85,0,0
82435,-125,4,1,0,85,0,0
82721,-122.448929612682,4,1,0,85,0,0
82864,-121.212121212121,4,1,0,85,0,0
83007,-120.000048000019,4,1,0,85,0,0
83150,-118.811834133927,4,1,0,85,0,0
83292,-117.647058823529,4,1,0,85,0,0
83435,-116.504899613553,4,1,0,85,0,0
83578,-115.384571005934,4,1,0,85,0,0
83721,-114.285714285714,4,1,0,85,0,0
83864,-113.207589889657,4,1,0,85,0,0
84150,-111.111111111111,4,1,0,85,0,0
84435,-109.090869421502,4,1,0,85,0,0
84578,-108.108108108108,4,1,0,85,0,0
84721,-107.142895408177,4,1,0,85,0,0
85007,-105.263157894737,4,1,0,85,0,0
85150,-104.347862381865,4,1,0,85,0,0
85292,-103.448240190262,4,1,0,85,0,0
85435,-102.564102564103,4,1,0,85,0,0
85578,-101.694949727102,4,1,0,85,0,0
85721,-100.840302238554,4,1,0,85,0,0
85864,-100,4,1,0,85,0,0
86007,-99.173586503665,4,1,0,85,0,0
86150,-98.3606234883202,4,1,0,85,0,0
86435,-96.774224765879,4,1,0,85,0,0
86578,-95.9999692800098,4,1,0,85,0,0
86721,-95.2380952380952,4,1,0,85,0,0
86864,-94.4882187364469,4,1,0,85,0,0
86935,-94.1176470588235,4,1,0,85,0,0
87007,-93.7499707031342,4,1,0,85,0,0
87150,-93.0232558139535,4,1,0,85,0,0
87292,-92.3077207100679,4,1,0,85,0,0
87435,-91.6030254647251,4,1,0,85,0,0
87578,-90.9090909090909,4,1,0,85,0,0
87721,-90.2255910452905,4,1,0,85,0,0
87864,-89.5522120739665,4,1,0,85,0,0
88007,-88.8888888888889,4,1,0,85,0,0
88150,-88.2353200692118,4,1,0,85,0,0
88221,-87.9120879120879,4,1,0,85,0,0
88292,-87.591215301835,4,1,0,85,0,0
88364,-87.2727526611644,4,1,0,85,0,0
88435,-86.9565217391304,4,1,0,85,0,0
88507,-86.6425742548522,4,1,0,85,0,0
88578,-86.3309600952403,4,1,0,85,0,0
88650,-86.0215053763441,4,1,0,85,0,0
88721,-85.7142612244968,4,1,0,85,0,0
88792,-85.4092769848475,4,1,0,85,0,0
88864,-85.1063829787234,4,1,0,85,0,0
88935,-84.8056297369244,4,1,0,85,0,0
89007,-84.5070660583285,4,1,0,85,0,0
89078,-84.2105263157895,4,1,0,85,0,0
89150,-83.91606044306,4,1,0,85,0,0
89221,-83.6237166895378,4,1,0,85,0,0
89292,-83.3333333333333,4,1,0,85,0,0
89364,-83.3333333333333,4,1,0,5,0,0
90435,-125,4,1,0,5,0,0
90935,-125,4,1,0,85,0,0
91007,-90.9090909090909,4,1,0,85,0,0
91292,-76.9230769230769,4,1,0,85,0,0
91435,-71.4285714285714,4,1,0,85,0,0
91578,-66.6666666666667,4,1,0,85,0,0
91650,-70.0000210000063,4,1,0,85,0,0
91721,-73.6842027700839,4,1,0,85,0,0
91792,-77.7777950617322,4,1,0,85,0,0
91864,-82.3529217993125,4,1,0,85,0,0
91935,-87.5000109375014,4,1,0,85,0,0
92007,-93.3332960000149,4,1,0,85,0,0
92078,-100,4,1,0,85,0,0
92132,-66.6666666666667,4,1,0,85,0,0
92204,-70.0000210000063,4,1,0,85,0,0
92275,-73.6842027700839,4,1,0,85,0,0
92346,-77.7777950617322,4,1,0,85,0,0
92418,-82.3529217993125,4,1,0,85,0,0
92489,-87.5000109375014,4,1,0,85,0,0
92561,-93.3332960000149,4,1,0,85,0,0
92632,-100,4,1,0,85,0,0
92703,-66.6666666666667,4,1,0,85,0,0
92775,-70.0000210000063,4,1,0,85,0,0
92846,-73.6842027700839,4,1,0,85,0,0
92917,-77.7777950617322,4,1,0,85,0,0
92989,-82.3529217993125,4,1,0,85,0,0
93060,-87.5000109375014,4,1,0,85,0,0
93132,-93.3332960000149,4,1,0,85,0,0
93203,-100,4,1,0,85,0,0
93275,-66.6666666666667,4,1,0,85,0,0
93347,-70.0000210000063,4,1,0,85,0,0
93418,-73.6842027700839,4,1,0,85,0,0
93489,-77.7777950617322,4,1,0,85,0,0
93561,-82.3529217993125,4,1,0,85,0,0
93632,-87.5000109375014,4,1,0,85,0,0
93704,-93.3332960000149,4,1,0,85,0,0
93775,-100,4,1,0,85,0,0
93846,-66.6666666666667,4,1,0,85,0,0
93918,-70.0000210000063,4,1,0,85,0,0
93989,-73.6842027700839,4,1,0,85,0,0
94060,-77.7777950617322,4,1,0,85,0,0
94132,-82.3529217993125,4,1,0,85,0,0
94203,-87.5000109375014,4,1,0,85,0,0
94275,-93.3332960000149,4,1,0,85,0,0
94346,-100,4,1,0,85,0,0
94417,-66.6666666666667,4,1,0,85,0,0
94489,-70.0000210000063,4,1,0,85,0,0
94560,-73.6842027700839,4,1,0,85,0,0
94631,-77.7777950617322,4,1,0,85,0,0
94703,-82.3529217993125,4,1,0,85,0,0
94774,-87.5000109375014,4,1,0,85,0,0
94846,-93.3332960000149,4,1,0,85,0,0
94917,-100,4,1,0,85,0,0
94989,-66.6666666666667,4,1,0,85,0,0
95061,-70.0000210000063,4,1,0,85,0,0
95132,-73.6842027700839,4,1,0,85,0,0
95203,-77.7777950617322,4,1,0,85,0,0
95275,-82.3529217993125,4,1,0,85,0,0
95346,-87.5000109375014,4,1,0,85,0,0
95418,-93.3332960000149,4,1,0,85,0,0
95489,-100,4,1,0,85,0,0
95560,-66.6666666666667,4,1,0,85,0,0
95632,-70.0000210000063,4,1,0,85,0,0
95703,-73.6842027700839,4,1,0,85,0,0
95774,-77.7777950617322,4,1,0,85,0,0
95846,-82.3529217993125,4,1,0,85,0,0
95917,-87.5000109375014,4,1,0,85,0,0
95989,-93.3332960000149,4,1,0,85,0,0
96060,-100,4,1,0,85,0,0
96132,-66.6666666666667,4,1,0,85,0,0
96204,-70.0000210000063,4,1,0,85,0,0
96275,-73.6842027700839,4,1,0,85,0,0
96346,-77.7777950617322,4,1,0,85,0,0
96418,-82.3529217993125,4,1,0,85,0,0
96489,-87.5000109375014,4,1,0,85,0,0
96561,-93.3332960000149,4,1,0,85,0,0
96632,-100,4,1,0,85,0,0
96703,-66.6666666666667,4,1,0,85,0,0
96775,-70.0000210000063,4,1,0,85,0,0
96846,-73.6842027700839,4,1,0,85,0,0
96917,-77.7777950617322,4,1,0,85,0,0
96989,-82.3529217993125,4,1,0,85,0,0
97060,-87.5000109375014,4,1,0,85,0,0
97132,-93.3332960000149,4,1,0,85,0,0
97203,-100,4,1,0,85,0,0
97275,-66.6666666666667,4,1,0,85,0,0
97347,-70.0000210000063,4,1,0,85,0,0
97418,-73.6842027700839,4,1,0,85,0,0
97489,-77.7777950617322,4,1,0,85,0,0
97561,-82.3529217993125,4,1,0,85,0,0
97632,-87.5000109375014,4,1,0,85,0,0
97704,-93.3332960000149,4,1,0,85,0,0
97775,-100,4,1,0,85,0,0
97846,-66.6666666666667,4,1,0,85,0,0
97918,-70.0000210000063,4,1,0,85,0,0
97989,-73.6842027700839,4,1,0,85,0,0
98060,-77.7777950617322,4,1,0,85,0,0
98132,-82.3529217993125,4,1,0,85,0,0
98203,-87.5000109375014,4,1,0,85,0,0
98275,-93.3332960000149,4,1,0,85,0,0
98346,-100,4,1,0,85,0,0
98417,-66.6666666666667,4,1,0,85,0,0
98489,-70.0000210000063,4,1,0,85,0,0
98560,-73.6842027700839,4,1,0,85,0,0
98631,-77.7777950617322,4,1,0,85,0,0
98703,-82.3529217993125,4,1,0,85,0,0
98774,-87.5000109375014,4,1,0,85,0,0
98846,-93.3332960000149,4,1,0,85,0,0
98917,-100,4,1,0,85,0,0
98989,-66.6666666666667,4,1,0,85,0,0
99061,-70.0000210000063,4,1,0,85,0,0
99132,-73.6842027700839,4,1,0,85,0,0
99203,-77.7777950617322,4,1,0,85,0,0
99275,-82.3529217993125,4,1,0,85,0,0
99346,-87.5000109375014,4,1,0,85,0,0
99418,-93.3332960000149,4,1,0,85,0,0
99489,-100,4,1,0,85,0,0
99560,-66.6666666666667,4,1,0,85,0,0
99632,-70.0000210000063,4,1,0,85,0,0
99703,-73.6842027700839,4,1,0,85,0,0
99774,-77.7777950617322,4,1,0,85,0,0
99846,-82.3529217993125,4,1,0,85,0,0
99917,-87.5000109375014,4,1,0,85,0,0
99989,-93.3332960000149,4,1,0,85,0,0
100060,-100,4,1,0,85,0,0
100132,-66.6666666666667,4,1,0,85,0,0
100204,-70.0000210000063,4,1,0,85,0,0
100275,-73.6842027700839,4,1,0,85,0,0
100346,-77.7777950617322,4,1,0,85,0,0
100418,-82.3529217993125,4,1,0,85,0,0
100489,-87.5000109375014,4,1,0,85,0,0
100561,-93.3332960000149,4,1,0,85,0,0
100632,-100,4,1,0,85,0,0
100703,-66.6666666666667,4,1,0,85,0,0
100775,-70.0000210000063,4,1,0,85,0,0
100846,-73.6842027700839,4,1,0,85,0,0
100917,-77.7777950617322,4,1,0,85,0,0
100989,-82.3529217993125,4,1,0,85,0,0
101060,-87.5000109375014,4,1,0,85,0,0
101132,-93.3332960000149,4,1,0,85,0,0
101203,-100,4,1,0,85,0,0
101275,-66.6666666666667,4,1,0,85,0,0
101347,-70.0000210000063,4,1,0,85,0,0
101418,-73.6842027700839,4,1,0,85,0,0
101489,-77.7777950617322,4,1,0,85,0,0
101561,-82.3529217993125,4,1,0,85,0,0
101632,-87.5000109375014,4,1,0,85,0,0
101704,-93.3332960000149,4,1,0,85,0,0
101775,-100,4,1,0,85,0,0
101846,-66.6666666666667,4,1,0,85,0,0
101918,-70.0000210000063,4,1,0,85,0,0
101989,-73.6842027700839,4,1,0,85,0,0
102060,-77.7777950617322,4,1,0,85,0,0
102132,-82.3529217993125,4,1,0,85,0,0
102203,-87.5000109375014,4,1,0,85,0,0
102275,-93.3332960000149,4,1,0,85,0,0
102346,-100,4,1,0,85,0,0
102417,-66.6666666666667,4,1,0,85,0,0
102489,-70.0000210000063,4,1,0,85,0,0
102560,-73.6842027700839,4,1,0,85,0,0
102631,-77.7777950617322,4,1,0,85,0,0
102703,-82.3529217993125,4,1,0,85,0,0
102774,-87.5000109375014,4,1,0,85,0,0
102846,-93.3332960000149,4,1,0,85,0,0
102917,-100,4,1,0,85,0,0
102989,-66.6666666666667,4,1,0,85,0,0
103061,-70.0000210000063,4,1,0,85,0,0
103132,-73.6842027700839,4,1,0,85,0,0
103203,-77.7777950617322,4,1,0,85,0,0
103275,-82.3529217993125,4,1,0,85,0,0
103346,-87.5000109375014,4,1,0,85,0,0
103418,-93.3332960000149,4,1,0,85,0,0
103489,-100,4,1,0,85,0,0
103560,-66.6666666666667,4,1,0,85,0,0
103632,-70.0000210000063,4,1,0,85,0,0
103703,-73.6842027700839,4,1,0,85,0,0
103774,-77.7777950617322,4,1,0,85,0,0
103846,-82.3529217993125,4,1,0,85,0,0
103917,-87.5000109375014,4,1,0,85,0,0
103989,-93.3332960000149,4,1,0,85,0,0
104060,-100,4,1,0,85,0,0
104132,-66.6666666666667,4,1,0,85,0,0
104204,-70.0000210000063,4,1,0,85,0,0
104275,-73.6842027700839,4,1,0,85,0,0
104346,-77.7777950617322,4,1,0,85,0,0
104418,-82.3529217993125,4,1,0,85,0,0
104489,-87.5000109375014,4,1,0,85,0,0
104561,-93.3332960000149,4,1,0,85,0,0
104632,-100,4,1,0,85,0,0
104703,-66.6666666666667,4,1,0,85,0,0
104775,-70.0000210000063,4,1,0,85,0,0
104846,-73.6842027700839,4,1,0,85,0,0
104917,-77.7777950617322,4,1,0,85,0,0
104989,-82.3529217993125,4,1,0,85,0,0
105060,-87.5000109375014,4,1,0,85,0,0
105132,-93.3332960000149,4,1,0,85,0,0
105203,-100,4,1,0,85,0,0
105275,-66.6666666666667,4,1,0,85,0,0
105347,-70.0000210000063,4,1,0,85,0,0
105418,-73.6842027700839,4,1,0,85,0,0
105489,-77.7777950617322,4,1,0,85,0,0
105561,-82.3529217993125,4,1,0,85,0,0
105632,-87.5000109375014,4,1,0,85,0,0
105704,-93.3332960000149,4,1,0,85,0,0
105775,-100,4,1,0,85,0,0
105846,-66.6666666666667,4,1,0,85,0,0
105918,-70.0000210000063,4,1,0,85,0,0
105989,-73.6842027700839,4,1,0,85,0,0
106060,-77.7777950617322,4,1,0,85,0,0
106132,-82.3529217993125,4,1,0,85,0,0
106203,-87.5000109375014,4,1,0,85,0,0
106275,-93.3332960000149,4,1,0,85,0,0
106346,-100,4,1,0,85,0,0
106417,-66.6666666666667,4,1,0,85,0,0
106489,-70.0000210000063,4,1,0,85,0,0
106560,-73.6842027700839,4,1,0,85,0,0
106631,-77.7777950617322,4,1,0,85,0,0
106703,-82.3529217993125,4,1,0,85,0,0
106774,-87.5000109375014,4,1,0,85,0,0
106846,-93.3332960000149,4,1,0,85,0,0
106917,-100,4,1,0,85,0,0
106989,-66.6666666666667,4,1,0,85,0,0
107061,-70.0000210000063,4,1,0,85,0,0
107132,-73.6842027700839,4,1,0,85,0,0
107203,-77.7777950617322,4,1,0,85,0,0
107275,-82.3529217993125,4,1,0,85,0,0
107346,-87.5000109375014,4,1,0,85,0,0
107418,-93.3332960000149,4,1,0,85,0,0
107489,-100,4,1,0,85,0,0
107560,-66.6666666666667,4,1,0,85,0,0
107632,-70.0000210000063,4,1,0,85,0,0
107703,-73.6842027700839,4,1,0,85,0,0
107774,-77.7777950617322,4,1,0,85,0,0
107846,-82.3529217993125,4,1,0,85,0,0
107917,-87.5000109375014,4,1,0,85,0,0
107989,-93.3332960000149,4,1,0,85,0,0
108060,-100,4,1,0,85,0,0
108132,-66.6666666666667,4,1,0,85,0,0
108204,-70.0000210000063,4,1,0,85,0,0
108275,-73.6842027700839,4,1,0,85,0,0
108346,-77.7777950617322,4,1,0,85,0,0
108418,-82.3529217993125,4,1,0,85,0,0
108489,-87.5000109375014,4,1,0,85,0,0
108561,-93.3332960000149,4,1,0,85,0,0
108632,-100,4,1,0,85,0,0
108703,-66.6666666666667,4,1,0,85,0,0
108775,-70.0000210000063,4,1,0,85,0,0
108846,-73.6842027700839,4,1,0,85,0,0
108917,-77.7777950617322,4,1,0,85,0,0
108989,-82.3529217993125,4,1,0,85,0,0
109060,-87.5000109375014,4,1,0,85,0,0
109132,-93.3332960000149,4,1,0,85,0,0
109203,-100,4,1,0,85,0,0
109275,-66.6666666666667,4,1,0,85,0,0
109347,-70.0000210000063,4,1,0,85,0,0
109418,-73.6842027700839,4,1,0,85,0,0
109489,-77.7777950617322,4,1,0,85,0,0
109561,-82.3529217993125,4,1,0,85,0,0
109632,-87.5000109375014,4,1,0,85,0,0
109704,-93.3332960000149,4,1,0,85,0,0
109775,-100,4,1,0,85,0,0
109864,-100,4,1,0,85,0,0
110007,-106.060622130397,4,1,0,85,0,0
110150,-112.903262226859,4,1,0,85,0,0
110221,-116.666647222225,4,1,0,85,0,0
110292,-120.68971759813,4,1,0,85,0,0
110364,-125,4,1,0,85,0,0
110417,-66.6666666666667,4,1,0,85,0,0
110435,-66.6666666666667,4,1,0,85,0,1
110489,-70.0000210000063,4,1,0,85,0,1
110560,-73.6842027700839,4,1,0,85,0,1
110631,-77.7777950617322,4,1,0,85,0,1
110703,-82.3529217993125,4,1,0,85,0,1
110774,-87.5000109375014,4,1,0,85,0,1
110846,-93.3332960000149,4,1,0,85,0,1
110917,-100,4,1,0,85,0,1
110989,-66.6666666666667,4,1,0,85,0,1
111061,-70.0000210000063,4,1,0,85,0,1
111132,-73.6842027700839,4,1,0,85,0,1
111203,-77.7777950617322,4,1,0,85,0,1
111275,-82.3529217993125,4,1,0,85,0,1
111346,-87.5000109375014,4,1,0,85,0,1
111418,-93.3332960000149,4,1,0,85,0,1
111489,-100,4,1,0,85,0,1
111560,-66.6666666666667,4,1,0,85,0,1
111632,-70.0000210000063,4,1,0,85,0,1
111703,-73.6842027700839,4,1,0,85,0,1
111774,-77.7777950617322,4,1,0,85,0,1
111846,-82.3529217993125,4,1,0,85,0,1
111917,-87.5000109375014,4,1,0,85,0,1
111989,-93.3332960000149,4,1,0,85,0,1
112060,-100,4,1,0,85,0,1
112132,-66.6666666666667,4,1,0,85,0,1
112204,-70.0000210000063,4,1,0,85,0,1
112275,-73.6842027700839,4,1,0,85,0,1
112346,-77.7777950617322,4,1,0,85,0,1
112418,-82.3529217993125,4,1,0,85,0,1
112489,-87.5000109375014,4,1,0,85,0,1
112561,-93.3332960000149,4,1,0,85,0,1
112632,-100,4,1,0,85,0,1
112703,-66.6666666666667,4,1,0,85,0,1
112775,-70.0000210000063,4,1,0,85,0,1
112846,-73.6842027700839,4,1,0,85,0,1
112917,-77.7777950617322,4,1,0,85,0,1
112989,-82.3529217993125,4,1,0,85,0,1
113060,-87.5000109375014,4,1,0,85,0,1
113132,-93.3332960000149,4,1,0,85,0,1
113203,-100,4,1,0,85,0,1
113275,-66.6666666666667,4,1,0,85,0,1
113347,-70.0000210000063,4,1,0,85,0,1
113418,-73.6842027700839,4,1,0,85,0,1
113489,-77.7777950617322,4,1,0,85,0,1
113561,-82.3529217993125,4,1,0,85,0,1
113632,-87.5000109375014,4,1,0,85,0,1
113704,-93.3332960000149,4,1,0,85,0,1
113775,-100,4,1,0,85,0,1
113846,-66.6666666666667,4,1,0,85,0,1
113918,-70.0000210000063,4,1,0,85,0,1
113989,-73.6842027700839,4,1,0,85,0,1
114060,-77.7777950617322,4,1,0,85,0,1
114132,-82.3529217993125,4,1,0,85,0,1
114203,-87.5000109375014,4,1,0,85,0,1
114275,-93.3332960000149,4,1,0,85,0,1
114346,-100,4,1,0,85,0,1
114417,-66.6666666666667,4,1,0,85,0,1
114489,-70.0000210000063,4,1,0,85,0,1
114560,-73.6842027700839,4,1,0,85,0,1
114631,-77.7777950617322,4,1,0,85,0,1
114703,-82.3529217993125,4,1,0,85,0,1
114774,-87.5000109375014,4,1,0,85,0,1
114846,-93.3332960000149,4,1,0,85,0,1
114917,-100,4,1,0,85,0,1
114989,-66.6666666666667,4,1,0,85,0,1
115061,-70.0000210000063,4,1,0,85,0,1
115132,-73.6842027700839,4,1,0,85,0,1
115203,-77.7777950617322,4,1,0,85,0,1
115275,-82.3529217993125,4,1,0,85,0,1
115346,-87.5000109375014,4,1,0,85,0,1
115418,-93.3332960000149,4,1,0,85,0,1
115489,-100,4,1,0,85,0,1
115560,-66.6666666666667,4,1,0,85,0,1
115632,-70.0000210000063,4,1,0,85,0,1
115703,-73.6842027700839,4,1,0,85,0,1
115774,-77.7777950617322,4,1,0,85,0,1
115846,-82.3529217993125,4,1,0,85,0,1
115917,-87.5000109375014,4,1,0,85,0,1
115989,-93.3332960000149,4,1,0,85,0,1
116060,-100,4,1,0,85,0,1
116132,-66.6666666666667,4,1,0,85,0,1
116204,-70.0000210000063,4,1,0,85,0,1
116275,-73.6842027700839,4,1,0,85,0,1
116346,-77.7777950617322,4,1,0,85,0,1
116418,-82.3529217993125,4,1,0,85,0,1
116489,-87.5000109375014,4,1,0,85,0,1
116561,-93.3332960000149,4,1,0,85,0,1
116632,-100,4,1,0,85,0,1
116703,-66.6666666666667,4,1,0,85,0,1
116775,-70.0000210000063,4,1,0,85,0,1
116846,-73.6842027700839,4,1,0,85,0,1
116917,-77.7777950617322,4,1,0,85,0,1
116989,-82.3529217993125,4,1,0,85,0,1
117060,-87.5000109375014,4,1,0,85,0,1
117132,-93.3332960000149,4,1,0,85,0,1
117203,-100,4,1,0,85,0,1
117275,-66.6666666666667,4,1,0,85,0,1
117347,-70.0000210000063,4,1,0,85,0,1
117418,-73.6842027700839,4,1,0,85,0,1
117489,-77.7777950617322,4,1,0,85,0,1
117561,-82.3529217993125,4,1,0,85,0,1
117632,-87.5000109375014,4,1,0,85,0,1
117704,-93.3332960000149,4,1,0,85,0,1
117775,-100,4,1,0,85,0,1
117846,-66.6666666666667,4,1,0,85,0,1
117918,-70.0000210000063,4,1,0,85,0,1
117989,-73.6842027700839,4,1,0,85,0,1
118060,-77.7777950617322,4,1,0,85,0,1
118132,-82.3529217993125,4,1,0,85,0,1
118203,-87.5000109375014,4,1,0,85,0,1
118275,-93.3332960000149,4,1,0,85,0,1
118346,-100,4,1,0,85,0,1
118417,-66.6666666666667,4,1,0,85,0,1
118489,-70.0000210000063,4,1,0,85,0,1
118560,-73.6842027700839,4,1,0,85,0,1
118631,-77.7777950617322,4,1,0,85,0,1
118703,-82.3529217993125,4,1,0,85,0,1
118774,-87.5000109375014,4,1,0,85,0,1
118846,-93.3332960000149,4,1,0,85,0,1
118917,-100,4,1,0,85,0,1
118989,-66.6666666666667,4,1,0,85,0,1
119061,-70.0000210000063,4,1,0,85,0,1
119132,-73.6842027700839,4,1,0,85,0,1
119203,-77.7777950617322,4,1,0,85,0,1
119275,-82.3529217993125,4,1,0,85,0,1
119346,-87.5000109375014,4,1,0,85,0,1
119418,-93.3332960000149,4,1,0,85,0,1
119489,-100,4,1,0,85,0,1
119560,-66.6666666666667,4,1,0,85,0,1
119632,-70.0000210000063,4,1,0,85,0,1
119703,-73.6842027700839,4,1,0,85,0,1
119774,-77.7777950617322,4,1,0,85,0,1
119846,-82.3529217993125,4,1,0,85,0,1
119917,-87.5000109375014,4,1,0,85,0,1
119989,-93.3332960000149,4,1,0,85,0,1
120060,-100,4,1,0,85,0,1
120132,-66.6666666666667,4,1,0,85,0,1
120204,-70.0000210000063,4,1,0,85,0,1
120275,-73.6842027700839,4,1,0,85,0,1
120346,-77.7777950617322,4,1,0,85,0,1
120418,-82.3529217993125,4,1,0,85,0,1
120489,-87.5000109375014,4,1,0,85,0,1
120561,-93.3332960000149,4,1,0,85,0,1
120632,-100,4,1,0,85,0,1
120703,-66.6666666666667,4,1,0,85,0,1
120775,-70.0000210000063,4,1,0,85,0,1
120846,-73.6842027700839,4,1,0,85,0,1
120917,-77.7777950617322,4,1,0,85,0,1
120989,-82.3529217993125,4,1,0,85,0,1
121060,-87.5000109375014,4,1,0,85,0,1
121132,-93.3332960000149,4,1,0,85,0,1
121203,-100,4,1,0,85,0,1
121275,-66.6666666666667,4,1,0,85,0,1
121347,-70.0000210000063,4,1,0,85,0,1
121418,-73.6842027700839,4,1,0,85,0,1
121489,-77.7777950617322,4,1,0,85,0,1
121561,-82.3529217993125,4,1,0,85,0,1
121632,-87.5000109375014,4,1,0,85,0,1
121704,-93.3332960000149,4,1,0,85,0,1
121775,-100,4,1,0,85,0,1
121846,-66.6666666666667,4,1,0,85,0,1
121918,-70.0000210000063,4,1,0,85,0,1
121989,-73.6842027700839,4,1,0,85,0,1
122060,-77.7777950617322,4,1,0,85,0,1
122132,-82.3529217993125,4,1,0,85,0,1
122203,-87.5000109375014,4,1,0,85,0,1
122275,-93.3332960000149,4,1,0,85,0,1
122346,-100,4,1,0,85,0,1
122417,-66.6666666666667,4,1,0,85,0,1
122489,-70.0000210000063,4,1,0,85,0,1
122560,-73.6842027700839,4,1,0,85,0,1
122631,-77.7777950617322,4,1,0,85,0,1
122703,-82.3529217993125,4,1,0,85,0,1
122774,-87.5000109375014,4,1,0,85,0,1
122846,-93.3332960000149,4,1,0,85,0,1
122917,-100,4,1,0,85,0,1
122989,-66.6666666666667,4,1,0,85,0,1
123061,-70.0000210000063,4,1,0,85,0,1
123132,-73.6842027700839,4,1,0,85,0,1
123203,-77.7777950617322,4,1,0,85,0,1
123275,-82.3529217993125,4,1,0,85,0,1
123346,-87.5000109375014,4,1,0,85,0,1
123418,-93.3332960000149,4,1,0,85,0,1
123489,-100,4,1,0,85,0,1
123578,-100,4,1,0,85,0,0
128221,-100,4,1,0,46,0,0
129292,-125,4,1,0,46,0,0
130435,-166.666666666667,4,1,0,46,0,0
131578,-200,4,1,0,46,0,0
132721,285.714285714286,4,1,0,46,1,8
132721,-250,4,1,0,46,0,0
132791,571.428571428571,4,1,0,46,1,0
132791,-125,4,1,0,46,0,0
149864,-111.111111111111,4,1,0,46,0,0
151007,-100,4,1,0,46,0,0
167007,-90.9090909090909,4,1,0,46,0,0
168078,-83.3333333333333,4,1,0,46,0,0
169292,-71.4285714285714,4,1,0,46,0,0

[HitObjects]
172,54,150,5,4,0:0:0:0:
193,98,2435,1,8,0:0:0:0:
322,169,4721,1,0,0:0:0:0:
322,169,7007,1,8,0:0:0:0:
328,195,8150,1,0,0:0:0:0:
328,195,9292,1,0,0:0:0:0:
294,153,9435,1,0,0:0:0:0:
328,195,9578,1,8,0:0:0:0:
328,195,10007,1,8,0:0:0:0:
294,153,10292,1,8,0:0:0:0:
328,195,10435,1,8,0:0:0:0:
294,153,10578,1,0,0:0:0:0:
328,195,10721,1,8,0:0:0:0:
328,195,11150,1,8,0:0:0:0:
294,153,11435,1,8,0:0:0:0:
294,153,11578,1,0,0:0:0:0:
294,153,11721,1,0,0:0:0:0:
294,153,11864,1,8,0:0:0:0:
294,153,12292,1,8,0:0:0:0:
294,153,12578,1,8,0:0:0:0:
294,153,12721,1,8,0:0:0:0:
294,153,12864,1,0,0:0:0:0:
294,153,13007,1,8,0:0:0:0:
294,153,13435,1,8,0:0:0:0:
246,137,13578,1,0,0:0:0:0:
294,153,13721,1,8,0:0:0:0:
294,153,13864,1,8,0:0:0:0:
294,153,14007,1,0,0:0:0:0:
294,153,14150,1,8,0:0:0:0:
294,153,14578,1,8,0:0:0:0:
294,153,14864,1,8,0:0:0:0:
294,153,15007,1,8,0:0:0:0:
294,153,15150,1,0,0:0:0:0:
294,153,15292,1,8,0:0:0:0:
294,153,15721,1,8,0:0:0:0:
294,153,16007,1,8,0:0:0:0:
294,153,16150,1,0,0:0:0:0:
294,153,16292,1,0,0:0:0:0:
294,153,16435,1,8,0:0:0:0:
294,153,16864,1,8,0:0:0:0:
294,153,17150,1,8,0:0:0:0:
294,153,17292,1,0,0:0:0:0:
294,153,17435,1,0,0:0:0:0:
294,153,17578,1,8,0:0:0:0:
294,153,17721,1,0,0:0:0:0:
294,153,17864,1,8,0:0:0:0:
294,153,18007,1,8,0:0:0:0:
294,153,18150,1,0,0:0:0:0:
294,153,18292,1,8,0:0:0:0:
294,153,18435,1,4,0:0:0:0:
465,284,19007,1,8,0:0:0:0:
394,135,19435,1,8,0:0:0:0:
371,87,19578,1,8,0:0:0:0:
371,87,19864,1,0,0:0:0:0:
363,187,20150,1,8,0:0:0:0:
398,188,20578,1,0,0:0:0:0:
398,188,20721,1,0,0:0:0:0:
398,188,21292,1,8,0:0:0:0:
398,188,21721,1,8,0:0:0:0:
398,188,21864,1,8,0:0:0:0:
398,188,22150,1,0,0:0:0:0:
398,188,22435,1,8,0:0:0:0:
234,207,22864,1,0,0:0:0:0:
288,202,23007,1,0,0:0:0:0:
165,20,23578,1,8,0:0:0:0:
165,20,24007,1,8,0:0:0:0:
165,20,24150,1,8,0:0:0:0:
165,20,24435,1,0,0:0:0:0:
165,20,24721,1,8,0:0:0:0:
276,136,25150,1,0,0:0:0:0:
301,162,25292,1,0,0:0:0:0:
470,337,25864,1,8,0:0:0:0:
355,218,26292,1,8,0:0:0:0:
314,177,26435,1,8,0:0:0:0:
384,269,26721,1,0,0:0:0:0:
319,183,27007,1,8,0:0:0:0:
319,183,27292,1,8,0:0:0:0:
251,192,27435,1,0,0:0:0:0:
319,183,27578,1,4,0:0:0:0:
399,131,27864,1,0,0:0:0:0:
399,131,28150,1,8,0:0:0:0:
399,131,28435,1,0,0:0:0:0:
399,131,28578,1,8,0:0:0:0:
399,131,28721,1,8,0:0:0:0:
286,103,29007,1,0,0:0:0:0:
286,103,29292,1,8,0:0:0:0:
286,103,29578,1,0,0:0:0:0:
286,103,29721,1,8,0:0:0:0:
286,103,29864,1,0,0:0:0:0:
214,177,30150,1,0,0:0:0:0:
214,177,30435,1,8,0:0:0:0:
214,177,30721,1,0,0:0:0:0:
214,177,30864,1,8,0:0:0:0:
214,177,31007,1,8,0:0:0:0:
214,177,31292,1,0,0:0:0:0:
214,177,31578,1,8,0:0:0:0:
130,126,31864,1,0,0:0:0:0:
183,132,32007,1,8,0:0:0:0:
240,139,32150,1,8,0:0:0:0:
288,155,32292,1,0,0:0:0:0:
288,155,32435,1,0,0:0:0:0:
288,155,32578,1,0,0:0:0:0:
288,155,32721,1,8,0:0:0:0:
288,155,32864,1,0,0:0:0:0:
288,155,33007,1,0,0:0:0:0:
288,155,33150,1,8,0:0:0:0:
288,155,33292,1,8,0:0:0:0:
288,155,33435,1,0,0:0:0:0:
288,155,33578,1,8,0:0:0:0:
288,155,33721,1,0,0:0:0:0:
288,155,33864,1,8,0:0:0:0:
288,155,34007,1,0,0:0:0:0:
288,155,34150,1,0,0:0:0:0:
288,155,34292,1,8,0:0:0:0:
288,155,34435,1,8,0:0:0:0:
288,155,34507,1,0,0:0:0:0:
288,155,34578,1,0,0:0:0:0:
288,155,34650,1,0,0:0:0:0:
288,155,34721,1,8,0:0:0:0:
288,155,34792,1,8,0:0:0:0:
288,155,34864,1,0,0:0:0:0:
288,155,34935,1,0,0:0:0:0:
288,155,35007,1,8,0:0:0:0:
288,155,35078,1,8,0:0:0:0:
288,155,35150,1,0,0:0:0:0:
288,155,35221,1,0,0:0:0:0:
288,155,35292,1,8,0:0:0:0:
288,155,35364,1,8,0:0:0:0:
288,155,35435,1,8,0:0:0:0:
288,155,35507,1,8,0:0:0:0:
288,155,35578,1,0,0:0:0:0:
312,167,35650,1,0,0:0:0:0:
268,113,35721,1,0,0:0:0:0:
288,127,35792,1,0,0:0:0:0:
312,143,35864,1,0,0:0:0:0:
340,162,35935,1,0,0:0:0:0:
364,180,36007,1,0,0:0:0:0:
374,185,36078,1,0,0:0:0:0:
332,184,36150,2,0,L|175:222,1,150.500002296448
268,113,36578,1,8,0:0:0:0:
268,113,36650,1,8,0:0:0:0:
268,113,36721,1,4,0:0:0:0:
394,295,37292,1,12,0:0:0:0:
394,295,37864,1,4,0:0:0:0:
394,295,38435,1,12,0:0:0:0:
394,295,39007,1,4,0:0:0:0:
394,295,39578,1,12,0:0:0:0:
394,295,40150,1,4,0:0:0:0:
394,295,40721,1,12,0:0:0:0:
394,295,40864,1,12,0:0:0:0:
394,295,41007,1,12,0:0:0:0:
394,295,41150,1,12,0:0:0:0:
394,295,41292,1,4,0:0:0:0:
224,166,41864,1,12,0:0:0:0:
397,298,42435,1,4,0:0:0:0:
217,161,43007,1,12,0:0:0:0:
257,197,43150,1,12,0:0:0:0:
296,232,43292,1,4,0:0:0:0:
296,232,43435,1,12,0:0:0:0:
296,232,43578,1,4,0:0:0:0:
446,81,44150,1,12,0:0:0:0:
449,131,44292,1,0,0:0:0:0:
450,152,44364,1,0,0:0:0:0:
452,179,44435,1,8,0:0:0:0:
453,198,44507,1,8,0:0:0:0:
454,217,44578,1,0,0:0:0:0:
297,230,44721,1,8,0:0:0:0:
273,211,44792,1,8,0:0:0:0:
256,201,44864,1,0,0:0:0:0:
215,164,45007,1,8,0:0:0:0:
194,147,45078,1,8,0:0:0:0:
194,147,45150,1,0,0:0:0:0:
194,147,45292,1,12,0:0:0:0:
379,247,45864,1,4,0:0:0:0:
286,190,46150,1,12,0:0:0:0:
394,175,46435,1,0,0:0:0:0:
444,169,46578,1,8,0:0:0:0:
421,171,46650,1,0,0:0:0:0:
421,171,46721,1,8,0:0:0:0:
421,171,46864,1,8,0:0:0:0:
421,171,46935,1,8,0:0:0:0:
421,171,47007,1,0,0:0:0:0:
421,171,47078,1,8,0:0:0:0:
421,171,47150,1,0,0:0:0:0:
421,171,47221,1,0,0:0:0:0:
421,171,47292,1,8,0:0:0:0:
421,171,47435,1,8,0:0:0:0:
421,171,47507,1,8,0:0:0:0:
421,171,47578,1,0,0:0:0:0:
421,171,47864,1,8,0:0:0:0:
324,125,48150,1,4,0:0:0:0:
330,234,48435,1,12,0:0:0:0:
337,118,48721,1,0,0:0:0:0:
334,166,48864,1,8,0:0:0:0:
334,166,48935,1,0,0:0:0:0:
334,166,49007,1,8,0:0:0:0:
334,166,49150,1,8,0:0:0:0:
334,166,49221,1,8,0:0:0:0:
334,166,49292,1,0,0:0:0:0:
334,166,49435,1,0,0:0:0:0:
334,166,49507,1,0,0:0:0:0:
334,166,49578,1,8,0:0:0:0:
334,166,49721,1,8,0:0:0:0:
334,166,49792,1,8,0:0:0:0:
334,166,49864,1,0,0:0:0:0:
334,166,50007,1,8,0:0:0:0:
334,166,50150,1,8,0:0:0:0:
334,166,50292,1,0,0:0:0:0:
334,166,50435,1,4,0:0:0:0:
124,237,51007,1,8,0:0:0:0:
184,220,51150,1,8,0:0:0:0:
184,220,51221,1,8,0:0:0:0:
184,220,51292,1,8,0:0:0:0:
184,220,51435,1,8,0:0:0:0:
184,220,51578,1,0,0:0:0:0:
217,182,51721,1,8,0:0:0:0:
233,164,51792,1,8,0:0:0:0:
246,148,51864,1,0,0:0:0:0:
246,148,52007,1,0,0:0:0:0:
246,148,52150,1,8,0:0:0:0:
233,164,52364,1,0,0:0:0:0:
233,164,52435,1,0,0:0:0:0:
233,164,52578,1,8,0:0:0:0:
233,164,52721,1,0,0:0:0:0:
200,125,52864,1,0,0:0:0:0:
230,160,53007,1,0,0:0:0:0:
230,160,53150,1,8,0:0:0:0:
230,160,53292,1,0,0:0:0:0:
230,160,53364,1,0,0:0:0:0:
230,160,53435,1,0,0:0:0:0:
230,160,53507,1,0,0:0:0:0:
230,160,53578,1,8,0:0:0:0:
230,160,53650,1,8,0:0:0:0:
230,160,53721,1,8,0:0:0:0:
230,160,53792,1,8,0:0:0:0:
200,125,53864,1,0,0:0:0:0:
268,209,54150,1,8,0:0:0:0:
232,165,54292,1,0,0:0:0:0:
249,186,54364,1,8,0:0:0:0:
249,186,54435,1,0,0:0:0:0:
249,186,54507,1,8,0:0:0:0:
249,186,54578,1,0,0:0:0:0:
249,186,54650,1,0,0:0:0:0:
249,186,54721,1,8,0:0:0:0:
249,186,54864,1,8,0:0:0:0:
293,178,55007,1,4,0:0:0:0:
387,225,55292,1,8,0:0:0:0:
346,200,55435,1,0,0:0:0:0:
453,259,55864,1,8,0:0:0:0:
408,233,56007,1,0,0:0:0:0:
362,206,56150,1,0,0:0:0:0:
266,151,56435,1,8,0:0:0:0:
124,71,56864,1,0,0:0:0:0:
169,96,57007,1,8,0:0:0:0:
216,123,57150,1,0,0:0:0:0:
170,96,57292,1,0,0:0:0:0:
187,209,57578,1,8,0:0:0:0:
187,209,57721,1,0,0:0:0:0:
187,209,58150,1,8,0:0:0:0:
187,209,58292,1,0,0:0:0:0:
187,209,58435,1,0,0:0:0:0:
128,116,58721,1,8,0:0:0:0:
215,253,59150,1,0,0:0:0:0:
187,209,59292,1,8,0:0:0:0:
158,162,59435,1,0,0:0:0:0:
158,162,59578,1,0,0:0:0:0:
184,262,59864,1,8,0:0:0:0:
158,162,60007,1,0,0:0:0:0:
124,32,60435,1,8,0:0:0:0:
139,91,60578,1,0,0:0:0:0:
151,139,60721,1,0,0:0:0:0:
128,242,61007,1,8,0:0:0:0:
162,87,61435,1,0,0:0:0:0:
150,139,61578,1,8,0:0:0:0:
139,196,61721,1,0,0:0:0:0:
149,144,61864,1,0,0:0:0:0:
131,241,62150,1,8,0:0:0:0:
139,194,62292,1,0,0:0:0:0:
260,80,62721,1,8,0:0:0:0:
220,117,62864,1,0,0:0:0:0:
183,152,63007,1,0,0:0:0:0:
76,163,63292,1,8,0:0:0:0:
39,168,63721,1,0,0:0:0:0:
39,168,63864,1,8,0:0:0:0:
39,168,64007,1,0,0:0:0:0:
39,168,64150,1,0,0:0:0:0:
144,168,64435,1,8,0:0:0:0:
144,168,64578,1,0,0:0:0:0:
254,185,64864,1,0,0:0:0:0:
144,168,65007,1,8,0:0:0:0:
144,168,65150,1,0,0:0:0:0:
144,168,65292,1,8,0:0:0:0:
250,174,65578,1,8,0:0:0:0:
250,174,65721,1,0,0:0:0:0:
250,174,66007,1,0,0:0:0:0:
250,174,66150,1,8,0:0:0:0:
250,174,66292,1,8,0:0:0:0:
250,174,66435,1,8,0:0:0:0:
284,272,66721,1,8,0:0:0:0:
268,225,66864,1,0,0:0:0:0:
268,225,67150,1,0,0:0:0:0:
268,225,67292,1,8,0:0:0:0:
268,225,67435,1,0,0:0:0:0:
268,225,67578,1,8,0:0:0:0:
224,129,67864,1,8,0:0:0:0:
245,175,68007,1,0,0:0:0:0:
245,175,68292,1,0,0:0:0:0:
245,175,68435,1,8,0:0:0:0:
245,175,68578,1,8,0:0:0:0:
245,175,68721,1,8,0:0:0:0:
348,187,69007,1,8,0:0:0:0:
299,181,69150,1,0,0:0:0:0:
299,181,69435,1,0,0:0:0:0:
299,181,69578,1,8,0:0:0:0:
299,181,69721,1,0,0:0:0:0:
299,181,69864,1,8,0:0:0:0:
191,185,70150,1,8,0:0:0:0:
191,185,70292,1,0,0:0:0:0:
191,185,70578,1,0,0:0:0:0:
191,185,70721,1,8,0:0:0:0:
191,185,70864,1,8,0:0:0:0:
191,185,71007,1,8,0:0:0:0:
80,179,71292,1,8,0:0:0:0:
132,182,71435,1,0,0:0:0:0:
132,182,71721,1,0,0:0:0:0:
132,182,71864,1,8,0:0:0:0:
132,182,72007,1,0,0:0:0:0:
132,182,72150,1,8,0:0:0:0:
37,127,72435,1,8,0:0:0:0:
152,194,72578,1,0,0:0:0:0:
189,69,72864,1,0,0:0:0:0:
87,156,73007,1,8,0:0:0:0:
130,181,73150,1,0,0:0:0:0:
83,154,73292,1,12,0:0:0:0:
268,112,73578,1,8,0:0:0:0:
268,112,73721,1,0,0:0:0:0:
268,112,74007,1,8,0:0:0:0:
268,112,74292,1,8,0:0:0:0:
268,112,74435,1,0,0:0:0:0:
229,152,74578,1,0,0:0:0:0:
229,152,74721,1,8,0:0:0:0:
229,152,75007,1,8,0:0:0:0:
178,148,75292,1,8,0:0:0:0:
178,148,75435,1,0,0:0:0:0:
178,148,75578,1,0,0:0:0:0:
226,217,75864,1,8,0:0:0:0:
226,217,76007,1,0,0:0:0:0:
226,217,76292,1,8,0:0:0:0:
226,217,76435,1,0,0:0:0:0:
244,198,76507,1,0,0:0:0:0:
226,217,76578,1,8,0:0:0:0:
226,217,76721,1,0,0:0:0:0:
226,217,76864,1,0,0:0:0:0:
226,217,77007,1,8,0:0:0:0:
248,148,77150,1,0,0:0:0:0:
248,148,77292,1,8,0:0:0:0:
248,148,77435,1,8,0:0:0:0:
248,148,77578,1,0,0:0:0:0:
248,148,77650,1,0,0:0:0:0:
248,148,77721,1,8,0:0:0:0:
248,148,77792,1,8,0:0:0:0:
248,148,77864,1,0,0:0:0:0:
201,174,78150,1,8,0:0:0:0:
201,174,78292,1,0,0:0:0:0:
201,174,78578,1,8,0:0:0:0:
201,174,78864,1,8,0:0:0:0:
201,174,79007,1,0,0:0:0:0:
201,174,79150,1,0,0:0:0:0:
201,174,79292,1,8,0:0:0:0:
235,136,79578,1,0,0:0:0:0:
235,136,79864,1,8,0:0:0:0:
235,136,80007,1,0,0:0:0:0:
235,136,80150,1,0,0:0:0:0:
350,124,80435,1,8,0:0:0:0:
350,124,80578,1,0,0:0:0:0:
350,124,80864,1,8,0:0:0:0:
350,124,81007,1,0,0:0:0:0:
350,124,81078,1,0,0:0:0:0:
350,124,81150,1,8,0:0:0:0:
350,124,81292,1,0,0:0:0:0:
211,137,81435,1,0,0:0:0:0:
211,137,81578,1,8,0:0:0:0:
196,155,81721,1,0,0:0:0:0:
196,155,81864,1,8,0:0:0:0:
193,155,82007,1,8,0:0:0:0:
193,155,82150,1,0,0:0:0:0:
196,155,82221,1,0,0:0:0:0:
193,155,82292,1,8,0:0:0:0:
196,155,82364,1,8,0:0:0:0:
196,155,82435,1,0,0:0:0:0:
365,121,82721,1,0,0:0:0:0:
236,146,82864,1,8,0:0:0:0:
365,121,83007,1,0,0:0:0:0:
236,146,83150,1,8,0:0:0:0:
365,121,83292,1,0,0:0:0:0:
365,121,83435,1,8,0:0:0:0:
365,121,83578,1,0,0:0:0:0:
398,224,83721,1,8,0:0:0:0:
365,121,83864,1,0,0:0:0:0:
365,121,84150,1,8,0:0:0:0:
382,231,84435,1,0,0:0:0:0:
381,231,84578,1,8,0:0:0:0:
381,232,84721,1,8,0:0:0:0:
500,285,85007,1,8,0:0:0:0:
500,285,85150,1,0,0:0:0:0:
500,285,85292,1,8,0:0:0:0:
296,166,85435,1,0,0:0:0:0:
500,285,85578,1,8,0:0:0:0:
296,166,85721,1,0,0:0:0:0:
296,166,85864,1,8,0:0:0:0:
296,166,86007,1,0,0:0:0:0:
296,166,86150,1,8,0:0:0:0:
296,166,86435,1,8,0:0:0:0:
296,166,86578,1,8,0:0:0:0:
296,166,86721,1,8,0:0:0:0:
296,166,86864,1,8,0:0:0:0:
236,135,86935,1,8,0:0:0:0:
296,166,87007,1,0,0:0:0:0:
246,199,87150,1,0,0:0:0:0:
246,199,87292,1,0,0:0:0:0:
246,199,87435,1,0,0:0:0:0:
246,199,87578,1,8,0:0:0:0:
246,199,87721,1,8,0:0:0:0:
246,199,87864,1,8,0:0:0:0:
246,199,88007,1,8,0:0:0:0:
246,199,88150,1,0,0:0:0:0:
246,199,88221,1,0,0:0:0:0:
246,199,88292,1,0,0:0:0:0:
246,199,88364,1,0,0:0:0:0:
246,199,88435,1,0,0:0:0:0:
246,199,88507,1,0,0:0:0:0:
246,199,88578,1,0,0:0:0:0:
246,199,88650,1,0,0:0:0:0:
246,199,88721,1,8,0:0:0:0:
246,199,88792,1,8,0:0:0:0:
246,199,88864,1,8,0:0:0:0:
246,199,88935,1,8,0:0:0:0:
246,199,89007,1,8,0:0:0:0:
241,202,89078,1,8,0:0:0:0:
241,202,89150,1,8,0:0:0:0:
241,202,89221,1,8,0:0:0:0:
240,202,89292,1,0,0:0:0:0:
296,262,91007,5,12,0:0:0:0:
209,51,91292,1,4,0:0:0:0:
228,97,91435,1,4,0:0:0:0:
511,232,91578,5,4,0:0:0:0:
295,251,92150,1,12,0:0:0:0:
276,127,92292,1,0,0:0:0:0:
276,127,92364,1,0,0:0:0:0:
201,208,92435,1,8,0:0:0:0:
276,127,92578,1,8,0:0:0:0:
343,247,92721,1,4,0:0:0:0:
343,247,93292,1,12,0:0:0:0:
197,80,93435,1,0,0:0:0:0:
253,196,93578,1,0,0:0:0:0:
197,80,93721,1,0,0:0:0:0:
343,247,93864,1,4,0:0:0:0:
343,247,94435,1,12,0:0:0:0:
197,80,94578,1,0,0:0:0:0:
197,80,94650,1,0,0:0:0:0:
240,217,94721,1,0,0:0:0:0:
197,80,94864,1,8,0:0:0:0:
343,247,95007,1,4,0:0:0:0:
343,247,95578,1,12,0:0:0:0:
343,247,95721,1,12,0:0:0:0:
343,247,95864,1,4,0:0:0:0:
343,247,96007,1,12,0:0:0:0:
343,247,96150,1,4,0:0:0:0:
343,247,96721,1,12,0:0:0:0:
282,214,96864,1,8,0:0:0:0:
215,172,96935,1,8,0:0:0:0:
259,201,97007,1,0,0:0:0:0:
215,172,97078,1,0,0:0:0:0:
306,210,97150,1,8,0:0:0:0:
343,247,97292,1,4,0:0:0:0:
343,247,97864,1,12,0:0:0:0:
312,210,98007,1,0,0:0:0:0:
285,179,98150,1,0,0:0:0:0:
331,194,98292,1,0,0:0:0:0:
343,247,98435,1,4,0:0:0:0:
343,247,99007,1,12,0:0:0:0:
368,209,99150,1,8,0:0:0:0:
235,135,99221,1,8,0:0:0:0:
397,167,99292,1,0,0:0:0:0:
346,164,99435,1,8,0:0:0:0:
343,247,99578,1,4,0:0:0:0:
343,247,100150,1,12,0:0:0:0:
343,247,100292,1,0,0:0:0:0:
343,247,100435,1,8,0:0:0:0:
370,246,100507,1,0,0:0:0:0:
343,247,100578,1,0,0:0:0:0:
369,246,100650,1,8,0:0:0:0:
343,247,100721,1,4,0:0:0:0:
498,289,101292,1,12,0:0:0:0:
200,191,101435,1,8,0:0:0:0:
200,191,101507,1,8,0:0:0:0:
396,253,101578,1,0,0:0:0:0:
200,191,101721,1,8,0:0:0:0:
498,289,101864,1,4,0:0:0:0:
498,289,102435,1,12,0:0:0:0:
452,284,102578,1,8,0:0:0:0:
325,173,102650,1,0,0:0:0:0:
395,265,102721,1,8,0:0:0:0:
325,173,102792,1,8,0:0:0:0:
325,173,102864,1,0,0:0:0:0:
498,289,103007,1,4,0:0:0:0:
230,159,103150,1,0,0:0:0:0:
230,159,103221,1,0,0:0:0:0:
392,268,103292,1,8,0:0:0:0:
230,159,103364,1,0,0:0:0:0:
230,159,103435,1,8,0:0:0:0:
498,289,103578,1,12,0:0:0:0:
449,272,103721,1,8,0:0:0:0:
279,210,103792,1,8,0:0:0:0:
416,260,103864,1,0,0:0:0:0:
279,210,103935,1,0,0:0:0:0:
279,210,104007,1,8,0:0:0:0:
498,289,104150,1,4,0:0:0:0:
231,164,104292,1,0,0:0:0:0:
231,164,104364,1,0,0:0:0:0:
391,256,104435,1,8,0:0:0:0:
333,238,104578,1,8,0:0:0:0:
498,289,104721,1,12,0:0:0:0:
498,289,104864,1,12,0:0:0:0:
498,289,105007,1,4,0:0:0:0:
498,289,105150,1,12,0:0:0:0:
498,289,105292,1,4,0:0:0:0:
362,122,105864,1,12,0:0:0:0:
304,129,106007,1,0,0:0:0:0:
249,136,106150,1,8,0:0:0:0:
249,136,106221,1,8,0:0:0:0:
249,136,106292,1,8,0:0:0:0:
500,293,106435,1,4,0:0:0:0:
358,123,107007,1,12,0:0:0:0:
380,175,107150,1,8,0:0:0:0:
403,228,107292,1,0,0:0:0:0:
414,254,107364,1,0,0:0:0:0:
426,279,107435,1,0,0:0:0:0:
499,287,107578,1,4,0:0:0:0:
120,157,107721,1,0,0:0:0:0:
398,244,107864,1,8,0:0:0:0:
141,61,107935,1,8,0:0:0:0:
347,221,108007,1,0,0:0:0:0:
352,123,108150,1,12,0:0:0:0:
276,149,108292,1,8,0:0:0:0:
250,172,108435,1,0,0:0:0:0:
250,172,108578,1,8,0:0:0:0:
498,288,108721,1,4,0:0:0:0:
230,153,108864,1,0,0:0:0:0:
230,153,108935,1,0,0:0:0:0:
250,172,109007,1,0,0:0:0:0:
250,172,109150,1,8,0:0:0:0:
352,123,109292,1,12,0:0:0:0:
383,167,109435,1,4,0:0:0:0:
415,213,109578,1,12,0:0:0:0:
451,264,109721,1,12,0:0:0:0:
484,311,109864,1,8,0:0:0:0:
438,281,110007,1,8,0:0:0:0:
391,250,110150,1,0,0:0:0:0:
398,230,110221,1,0,0:0:0:0:
406,209,110292,1,0,0:0:0:0:
414,189,110364,1,0,0:0:0:0:
420,171,110435,1,12,0:0:0:0:
317,159,110721,1,8,0:0:0:0:
294,156,110792,1,8,0:0:0:0:
272,154,110864,1,0,0:0:0:0:
218,151,111007,1,4,0:0:0:0:
275,154,111150,1,8,0:0:0:0:
242,152,111221,1,8,0:0:0:0:
218,151,111292,1,0,0:0:0:0:
242,152,111578,1,12,0:0:0:0:
183,168,111721,1,0,0:0:0:0:
193,115,112007,1,8,0:0:0:0:
193,115,112150,1,4,0:0:0:0:
209,170,112292,1,0,0:0:0:0:
209,170,112435,1,8,0:0:0:0:
169,156,112721,1,12,0:0:0:0:
224,155,113007,1,8,0:0:0:0:
224,155,113078,1,8,0:0:0:0:
224,155,113150,1,0,0:0:0:0:
224,155,113292,1,4,0:0:0:0:
281,142,113435,1,8,0:0:0:0:
281,142,113507,1,8,0:0:0:0:
281,142,113578,1,0,0:0:0:0:
224,155,113721,1,0,0:0:0:0:
224,155,113864,1,12,0:0:0:0:
275,171,114007,1,0,0:0:0:0:
275,171,114150,1,8,0:0:0:0:
275,171,114435,1,4,0:0:0:0:
225,75,115007,1,12,0:0:0:0:
319,193,115150,1,0,0:0:0:0:
319,193,115221,1,0,0:0:0:0:
292,147,115292,1,8,0:0:0:0:
292,147,115364,1,8,0:0:0:0:
292,147,115435,1,8,0:0:0:0:
292,147,115578,1,4,0:0:0:0:
292,147,115721,1,8,0:0:0:0:
292,147,115792,1,8,0:0:0:0:
292,147,115864,1,0,0:0:0:0:
319,115,116150,1,12,0:0:0:0:
156,70,116292,1,0,0:0:0:0:
218,43,116435,1,0,0:0:0:0:
295,195,116578,1,0,0:0:0:0:
295,195,116721,1,4,0:0:0:0:
139,117,117007,1,0,0:0:0:0:
343,177,117078,1,0,0:0:0:0:
139,117,117150,1,0,0:0:0:0:
139,117,117292,1,12,0:0:0:0:
237,35,117435,1,0,0:0:0:0:
237,35,117507,1,0,0:0:0:0:
341,172,117578,1,8,0:0:0:0:
341,172,117650,1,8,0:0:0:0:
341,172,117721,1,0,0:0:0:0:
341,172,117864,1,4,0:0:0:0:
341,172,118007,1,8,0:0:0:0:
341,172,118078,1,8,0:0:0:0:
341,172,118150,1,0,0:0:0:0:
296,176,118292,1,8,0:0:0:0:
341,172,118435,1,12,0:0:0:0:
291,170,118578,1,0,0:0:0:0:
291,170,118721,1,8,0:0:0:0:
291,170,118792,1,0,0:0:0:0:
291,170,118864,1,0,0:0:0:0:
291,170,118935,1,8,0:0:0:0:
291,170,119007,1,4,0:0:0:0:
345,268,119578,1,12,0:0:0:0:
253,178,119721,1,0,0:0:0:0:
253,178,119864,1,8,0:0:0:0:
253,178,119935,1,8,0:0:0:0:
253,178,120007,1,0,0:0:0:0:
278,124,120150,1,4,0:0:0:0:
209,90,120292,1,8,0:0:0:0:
207,74,120364,1,8,0:0:0:0:
209,90,120435,1,0,0:0:0:0:
299,182,120721,1,12,0:0:0:0:
238,177,120864,1,8,0:0:0:0:
238,177,121007,1,0,0:0:0:0:
151,79,121078,1,0,0:0:0:0:
238,177,121150,1,0,0:0:0:0:
238,177,121292,1,4,0:0:0:0:
355,164,121578,1,8,0:0:0:0:
355,164,121650,1,8,0:0:0:0:
355,164,121721,1,0,0:0:0:0:
207,148,121864,1,12,0:0:0:0:
283,114,122007,1,0,0:0:0:0:
196,147,122150,1,8,0:0:0:0:
196,147,122221,1,8,0:0:0:0:
196,147,122292,1,0,0:0:0:0:
283,114,122435,1,4,0:0:0:0:
326,170,122578,1,8,0:0:0:0:
326,170,122650,1,8,0:0:0:0:
326,170,122721,1,0,0:0:0:0:
326,170,122864,1,0,0:0:0:0:
326,170,123007,1,8,0:0:0:0:
222,142,123078,1,8,0:0:0:0:
222,142,123150,1,8,0:0:0:0:
222,142,123292,1,8,0:0:0:0:
222,142,123435,1,8,0:0:0:0:
222,142,123578,1,4,0:0:0:0:
296,127,124435,1,8,0:0:0:0:
185,152,124507,1,8,0:0:0:0:
296,127,124578,1,0,0:0:0:0:
296,127,124864,1,8,0:0:0:0:
185,152,124935,1,8,0:0:0:0:
296,127,125007,1,0,0:0:0:0:
296,127,125292,1,8,0:0:0:0:
124,16,125364,1,8,0:0:0:0:
296,127,125435,1,0,0:0:0:0:
296,127,125578,1,8,0:0:0:0:
296,127,125721,1,0,0:0:0:0:
296,127,125864,1,8,0:0:0:0:
296,127,126007,1,0,0:0:0:0:
405,269,126150,1,8,0:0:0:0:
405,269,126292,1,8,0:0:0:0:
405,269,126435,1,8,0:0:0:0:
405,269,126578,1,0,0:0:0:0:
405,269,126721,1,8,0:0:0:0:
405,269,126864,1,8,0:0:0:0:
405,269,127007,1,8,0:0:0:0:
405,269,127150,1,0,0:0:0:0:
405,269,127292,1,8,0:0:0:0:
405,269,127435,1,8,0:0:0:0:
339,228,127578,2,0,L|146:147,1,210
267,130,128150,1,12,0:0:0:0:
87,140,132791,5,0,0:0:0:0:
465,305,135076,5,8,0:0:0:0:
465,305,136220,1,0,0:0:0:0:
315,148,137362,1,8,0:0:0:0:
462,181,139648,1,8,0:0:0:0:
463,178,140791,1,8,0:0:0:0:
463,178,141933,1,0,0:0:0:0:
463,178,144219,1,0,0:0:0:0:
463,178,145362,1,8,0:0:0:0:
463,178,146505,1,8,0:0:0:0:
463,178,148791,1,8,0:0:0:0:
462,177,149933,1,8,0:0:0:0:
462,177,151076,1,4,0:0:0:0:
462,177,153362,1,8,0:0:0:0:
462,177,154505,1,0,0:0:0:0:
462,177,155648,1,8,0:0:0:0:
462,177,157933,1,8,0:0:0:0:
462,177,159076,1,0,0:0:0:0:
462,177,160219,1,0,0:0:0:0:
348,190,162505,5,0,0:0:0:0:
348,190,163648,1,8,0:0:0:0:
348,190,164791,1,0,0:0:0:0:
348,190,167076,5,0,0:0:0:0:
348,190,168219,1,8,0:0:0:0:
348,190,169362,1,12,0:0:0:0:
