osu file format v14

[General]
AudioFilename: audio.mp3
AudioLeadIn: 0
PreviewTime: 91435
Countdown: 0
SampleSet: Normal
StackLeniency: 0.7
Mode: 1
LetterboxInBreaks: 0
WidescreenStoryboard: 1

[Editor]
Bookmarks: 18435,36721,55007,73292,91578,109864,128150
DistanceSpacing: 1.2
BeatDivisor: 4
GridSize: 4
TimelineZoom: 1.2

[Metadata]
Title:Regret
TitleUnicode:Regret
Artist:ARForest
ArtistUnicode:ARForest
Creator:Nepuri
Version:Futsuu
Source:
Tags:electronic instrumental Frost Era Nara_NB
BeatmapID:2520199
BeatmapSetID:1184228

[Difficulty]
HPDrainRate:7
CircleSize:5
OverallDifficulty:4
ApproachRate:5
SliderMultiplier:1.4
SliderTickRate:1

[Events]
//Background and Video events
0,0,"2020-07-23_Regret-NepuriBG.png",0,0
//Break Periods
//Storyboard Layer 0 (Background)
//Storyboard Layer 1 (Fail)
//Storyboard Layer 2 (Pass)
//Storyboard Layer 3 (Foreground)
//Storyboard Layer 4 (Overlay)
//Storyboard Sound Samples

[TimingPoints]
150,285.714285714286,4,1,0,85,1,0
150,-125,4,1,0,85,0,0
435,-111.111111111111,4,1,0,40,0,0
9221,-100,4,1,0,55,0,0
18364,-100,4,1,0,75,0,0
27507,-100,4,1,0,85,0,0
32150,-100,4,1,0,85,0,0
32292,-100,4,1,0,85,0,0
32435,-100,4,1,0,85,0,0
32578,-100,4,1,0,85,0,0
32721,-100,4,1,0,85,0,0
32864,-100,4,1,0,85,0,0
33007,-100,4,1,0,85,0,0
33150,-100,4,1,0,85,0,0
33292,-100,4,1,0,85,0,0
33435,-100,4,1,0,85,0,0
33578,-100,4,1,0,85,0,0
33721,-100,4,1,0,85,0,0
33864,-100,4,1,0,85,0,0
34007,-100,4,1,0,85,0,0
34150,-100,4,1,0,85,0,0
34292,-100,4,1,0,85,0,0
34435,-100,4,1,0,85,0,0
34507,-100,4,1,0,85,0,0
34578,-100,4,1,0,85,0,0
34650,-100,4,1,0,85,0,0
34721,-100,4,1,0,85,0,0
34792,-100,4,1,0,85,0,0
34864,-100,4,1,0,85,0,0
34935,-100,4,1,0,85,0,0
35007,-100,4,1,0,85,0,0
35078,-100,4,1,0,85,0,0
35150,-100,4,1,0,85,0,0
35221,-100,4,1,0,85,0,0
35292,-100,4,1,0,85,0,0
35364,-100,4,1,0,85,0,0
35435,-100,4,1,0,85,0,0
35507,-100,4,1,0,85,0,0
35578,-100,4,1,0,85,0,0
35650,-100,4,1,0,85,0,0
35721,-100,4,1,0,85,0,0
35792,-100,4,1,0,85,0,0
35864,-100,4,1,0,85,0,0
35935,-100,4,1,0,85,0,0
36007,-100,4,1,0,85,0,0
36078,-100,4,1,0,85,0,0
36150,-100,4,1,0,85,0,0
36578,-100,4,1,0,85,0,0
36650,-100,4,1,0,85,0,0
36721,-100,4,1,0,85,0,0
37292,-100,4,1,0,85,0,0
37864,-100,4,1,0,85,0,0
38364,-100,4,1,0,85,0,0
38936,-100,4,1,0,85,0,0
39507,-100,4,1,0,85,0,0
40079,-100,4,1,0,85,0,0
40650,-100,4,1,0,85,0,0
41864,-100,4,1,0,85,0,0
42435,-100,4,1,0,85,0,0
43007,-100,4,1,0,85,0,0
44078,-100,4,1,0,85,0,0
44221,-100,4,1,0,85,0,0
45864,-100,4,1,0,85,0,0
46150,-100,4,1,0,85,0,0
46435,-100,4,1,0,85,0,0
48150,-100,4,1,0,85,0,0
48435,-100,4,1,0,85,0,0
48721,-100,4,1,0,85,0,0
51007,-100,4,1,0,85,0,0
54150,-100,4,1,0,85,0,0
55007,-100,4,1,0,85,0,0
55292,-105.263157894737,4,1,0,85,0,0
55864,-111.111111111111,4,1,0,85,0,0
73007,-105.263157894737,4,1,0,85,0,0
73292,-100,4,1,0,85,0,0
82435,-100,4,1,0,85,0,0
82721,-100,4,1,0,85,0,0
82864,-100,4,1,0,85,0,0
83007,-100,4,1,0,85,0,0
83150,-100,4,1,0,85,0,0
83292,-100,4,1,0,85,0,0
83435,-100,4,1,0,85,0,0
83578,-100,4,1,0,85,0,0
83721,-100,4,1,0,85,0,0
83864,-100,4,1,0,85,0,0
84150,-100,4,1,0,85,0,0
84435,-100,4,1,0,85,0,0
84578,-100,4,1,0,85,0,0
84721,-100,4,1,0,85,0,0
85007,-100,4,1,0,85,0,0
85150,-100,4,1,0,85,0,0
85292,-100,4,1,0,85,0,0
85435,-100,4,1,0,85,0,0
85578,-100,4,1,0,85,0,0
85721,-100,4,1,0,85,0,0
85864,-100,4,1,0,85,0,0
86007,-100,4,1,0,85,0,0
86150,-100,4,1,0,85,0,0
86435,-100,4,1,0,85,0,0
86578,-100,4,1,0,85,0,0
86721,-100,4,1,0,85,0,0
86864,-100,4,1,0,85,0,0
86935,-100,4,1,0,85,0,0
87007,-100,4,1,0,85,0,0
87150,-100,4,1,0,85,0,0
87292,-100,4,1,0,85,0,0
87435,-100,4,1,0,85,0,0
87578,-100,4,1,0,85,0,0
87721,-100,4,1,0,85,0,0
87864,-100,4,1,0,85,0,0
88007,-100,4,1,0,85,0,0
88150,-100,4,1,0,85,0,0
88221,-100,4,1,0,85,0,0
88292,-100,4,1,0,85,0,0
88364,-100,4,1,0,85,0,0
88435,-100,4,1,0,85,0,0
88507,-100,4,1,0,85,0,0
88578,-100,4,1,0,85,0,0
88650,-100,4,1,0,85,0,0
88721,-100,4,1,0,85,0,0
88792,-100,4,1,0,85,0,0
88864,-100,4,1,0,85,0,0
88935,-100,4,1,0,85,0,0
89007,-100,4,1,0,85,0,0
89078,-100,4,1,0,85,0,0
89150,-100,4,1,0,85,0,0
89221,-100,4,1,0,85,0,0
89292,-100,4,1,0,85,0,0
89364,-100,4,1,0,5,0,0
90435,-100,4,1,0,5,0,0
90935,-100,4,1,0,85,0,0
91007,-100,4,1,0,85,0,0
91292,-95.2380952380952,4,1,0,85,0,0
91435,-90.9090909090909,4,1,0,85,0,0
91578,-86.9565217391304,4,1,0,85,0,0
110435,-86.9565217391304,4,1,0,85,0,1
123578,-86.9565217391304,4,1,0,85,0,0
123650,-100,4,1,0,85,0,0
128221,-105.263157894737,4,1,0,46,0,0
129292,-111.111111111111,4,1,0,46,0,0
130435,-117.647058823529,4,1,0,46,0,0
131578,-125,4,1,0,46,0,0
132721,285.714285714286,4,1,0,46,1,8
132721,-125,4,1,0,46,0,8
132791,571.428571428571,4,1,0,46,1,0
132791,-62.5,4,1,0,46,0,0
149864,-62.5,4,1,0,46,0,0
151007,-58.8235294117647,4,1,0,46,0,0
167007,-55.5555555555556,4,1,0,46,0,0
168078,-52.6315789473684,4,1,0,46,0,0
169292,-50,4,1,0,46,0,0

[HitObjects]
172,54,150,5,4,0:0:0:0:
193,98,2435,1,8,0:0:0:0:
322,169,4721,1,0,0:0:0:0:
322,169,7007,1,8,0:0:0:0:
328,195,8150,1,0,0:0:0:0:
328,195,9292,1,0,0:0:0:0:
447,84,9578,1,8,0:0:0:0:
328,195,10007,1,0,0:0:0:0:
294,153,10292,1,8,0:0:0:0:
328,195,10721,1,0,0:0:0:0:
328,195,11150,1,8,0:0:0:0:
294,153,11864,1,0,0:0:0:0:
294,153,12292,1,0,0:0:0:0:
294,153,12578,1,8,0:0:0:0:
294,153,13007,1,0,0:0:0:0:
118,10,13435,1,8,0:0:0:0:
294,153,14150,1,0,0:0:0:0:
294,153,14578,1,0,0:0:0:0:
294,153,14864,1,8,0:0:0:0:
294,153,15292,1,8,0:0:0:0:
294,153,15721,1,8,0:0:0:0:
294,153,16435,1,0,0:0:0:0:
294,153,16864,1,8,0:0:0:0:
294,153,17150,1,8,0:0:0:0:
112,124,17292,1,0,0:0:0:0:
240,176,17578,1,0,0:0:0:0:
294,153,17864,1,8,0:0:0:0:
222,106,18007,1,8,0:0:0:0:
294,153,18150,1,0,0:0:0:0:
294,153,18435,1,4,0:0:0:0:
465,284,19007,1,8,0:0:0:0:
371,87,19578,1,8,0:0:0:0:
371,87,19864,1,0,0:0:0:0:
363,187,20150,1,8,0:0:0:0:
398,188,20721,1,0,0:0:0:0:
398,188,21292,1,8,0:0:0:0:
398,188,21864,1,8,0:0:0:0:
398,188,22150,1,0,0:0:0:0:
398,188,22435,1,8,0:0:0:0:
262,107,22721,1,0,0:0:0:0:
288,202,23007,1,0,0:0:0:0:
165,20,23578,1,8,0:0:0:0:
165,20,24150,1,8,0:0:0:0:
165,20,24435,1,0,0:0:0:0:
165,20,24721,1,8,0:0:0:0:
301,162,25292,1,0,0:0:0:0:
470,337,25864,1,8,0:0:0:0:
314,177,26435,1,8,0:0:0:0:
384,269,26721,1,0,0:0:0:0:
319,183,27007,1,8,0:0:0:0:
319,183,27292,1,8,0:0:0:0:
251,192,27435,1,0,0:0:0:0:
319,183,27578,1,4,0:0:0:0:
399,131,27864,1,0,0:0:0:0:
399,131,28150,1,8,0:0:0:0:
399,131,28721,1,8,0:0:0:0:
286,103,29007,1,0,0:0:0:0:
286,103,29292,1,8,0:0:0:0:
286,103,29578,1,0,0:0:0:0:
286,103,29721,1,0,0:0:0:0:
286,103,29864,1,0,0:0:0:0:
214,177,30150,1,0,0:0:0:0:
214,177,30435,1,8,0:0:0:0:
214,177,31007,1,8,0:0:0:0:
214,177,31292,1,0,0:0:0:0:
214,177,31578,1,8,0:0:0:0:
130,126,31864,1,0,0:0:0:0:
240,139,32150,1,8,0:0:0:0:
288,155,32435,1,0,0:0:0:0:
245,78,32578,1,0,0:0:0:0:
288,155,32721,1,8,0:0:0:0:
288,155,33007,1,0,0:0:0:0:
288,155,33292,1,8,0:0:0:0:
288,155,33578,1,0,0:0:0:0:
246,79,33721,1,0,0:0:0:0:
288,155,33864,1,8,0:0:0:0:
229,84,34150,1,0,0:0:0:0:
288,155,34435,1,0,0:0:0:0:
224,96,34578,1,0,0:0:0:0:
288,155,34721,1,0,0:0:0:0:
288,155,35007,1,8,0:0:0:0:
288,155,35150,1,8,0:0:0:0:
288,155,35292,1,8,0:0:0:0:
288,155,35435,1,8,0:0:0:0:
288,155,35578,1,0,0:0:0:0:
304,148,36150,1,8,0:0:0:0:
268,113,36721,1,4,0:0:0:0:
394,295,37292,1,12,0:0:0:0:
394,295,37864,1,4,0:0:0:0:
394,295,38435,1,12,0:0:0:0:
394,295,39007,1,4,0:0:0:0:
394,295,39578,1,12,0:0:0:0:
394,295,40150,1,4,0:0:0:0:
394,295,40721,1,12,0:0:0:0:
394,295,40864,1,12,0:0:0:0:
394,295,41007,1,12,0:0:0:0:
394,295,41150,1,12,0:0:0:0:
394,295,41292,1,4,0:0:0:0:
224,166,41864,1,12,0:0:0:0:
397,298,42435,1,4,0:0:0:0:
217,161,43007,1,12,0:0:0:0:
257,197,43150,1,12,0:0:0:0:
296,232,43292,1,4,0:0:0:0:
296,232,43435,1,12,0:0:0:0:
296,232,43578,1,4,0:0:0:0:
446,81,44150,1,12,0:0:0:0:
297,230,44721,1,0,0:0:0:0:
215,164,45007,1,0,0:0:0:0:
194,147,45292,1,12,0:0:0:0:
379,247,45864,1,4,0:0:0:0:
286,190,46150,1,12,0:0:0:0:
394,175,46435,1,0,0:0:0:0:
306,151,46578,1,0,0:0:0:0:
421,171,46721,1,8,0:0:0:0:
223,83,47007,1,0,0:0:0:0:
175,144,47150,1,0,0:0:0:0:
421,171,47292,1,8,0:0:0:0:
421,171,47578,1,0,0:0:0:0:
421,171,47864,1,8,0:0:0:0:
324,125,48150,1,4,0:0:0:0:
330,234,48435,1,12,0:0:0:0:
337,118,48721,1,0,0:0:0:0:
334,166,48864,1,8,0:0:0:0:
334,166,49007,1,8,0:0:0:0:
334,166,49292,1,0,0:0:0:0:
334,166,49435,1,8,0:0:0:0:
334,166,49578,1,8,0:0:0:0:
334,166,49864,1,0,0:0:0:0:
334,166,50150,1,8,0:0:0:0:
334,166,50435,1,4,0:0:0:0:
124,237,51007,1,0,0:0:0:0:
184,220,51150,1,8,0:0:0:0:
184,220,51292,1,8,0:0:0:0:
184,220,51578,1,0,0:0:0:0:
246,148,51864,1,0,0:0:0:0:
246,148,52007,1,0,0:0:0:0:
246,148,52150,1,8,0:0:0:0:
233,164,52578,1,8,0:0:0:0:
233,164,52721,1,0,0:0:0:0:
230,160,53007,1,0,0:0:0:0:
230,160,53150,1,8,0:0:0:0:
230,160,53435,1,0,0:0:0:0:
230,160,53578,1,8,0:0:0:0:
301,183,53721,1,8,0:0:0:0:
200,125,53864,1,0,0:0:0:0:
293,178,55007,1,4,0:0:0:0:
387,225,55292,1,8,0:0:0:0:
453,259,55864,1,8,0:0:0:0:
362,206,56150,1,0,0:0:0:0:
266,151,56435,1,8,0:0:0:0:
216,123,57007,1,0,0:0:0:0:
170,96,57292,1,0,0:0:0:0:
187,209,57578,1,8,0:0:0:0:
187,209,58150,1,8,0:0:0:0:
187,209,58435,1,0,0:0:0:0:
128,116,58721,1,8,0:0:0:0:
187,209,59292,1,0,0:0:0:0:
158,162,59578,1,0,0:0:0:0:
184,262,59864,1,8,0:0:0:0:
237,137,60435,1,0,0:0:0:0:
151,139,60721,1,8,0:0:0:0:
128,242,61007,1,8,0:0:0:0:
150,139,61578,1,8,0:0:0:0:
149,144,61864,1,0,0:0:0:0:
131,241,62150,1,8,0:0:0:0:
260,80,62721,1,0,0:0:0:0:
183,152,63007,1,0,0:0:0:0:
76,163,63292,1,8,0:0:0:0:
39,168,63864,1,8,0:0:0:0:
39,168,64150,1,0,0:0:0:0:
144,168,64435,1,8,0:0:0:0:
144,168,65007,1,8,0:0:0:0:
144,168,65292,1,8,0:0:0:0:
250,174,65578,1,0,0:0:0:0:
250,174,66150,1,0,0:0:0:0:
250,174,66435,1,8,0:0:0:0:
284,272,66721,1,0,0:0:0:0:
268,225,67292,1,8,0:0:0:0:
268,225,67578,1,0,0:0:0:0:
245,175,67864,1,0,0:0:0:0:
245,175,68435,1,8,0:0:0:0:
245,175,68721,1,8,0:0:0:0:
348,187,69007,1,0,0:0:0:0:
435,237,69578,1,0,0:0:0:0:
299,181,69864,1,8,0:0:0:0:
191,185,70150,1,8,0:0:0:0:
191,185,70721,1,8,0:0:0:0:
191,185,71007,1,8,0:0:0:0:
80,179,71292,1,0,0:0:0:0:
132,182,71864,1,0,0:0:0:0:
132,182,72150,1,8,0:0:0:0:
37,127,72435,1,0,0:0:0:0:
87,156,73007,1,8,0:0:0:0:
83,154,73292,1,4,0:0:0:0:
268,112,73578,1,8,0:0:0:0:
114,99,73721,1,0,0:0:0:0:
268,112,74007,1,8,0:0:0:0:
268,112,74292,1,8,0:0:0:0:
229,152,74578,1,0,0:0:0:0:
229,152,74721,1,8,0:0:0:0:
178,148,75292,1,8,0:0:0:0:
178,148,75435,1,0,0:0:0:0:
178,148,75578,1,0,0:0:0:0:
226,217,75864,1,8,0:0:0:0:
226,217,76007,1,0,0:0:0:0:
226,217,76292,1,8,0:0:0:0:
226,217,76435,1,0,0:0:0:0:
226,217,76721,1,0,0:0:0:0:
226,217,77007,1,8,0:0:0:0:
248,148,77292,1,8,0:0:0:0:
248,148,77435,1,8,0:0:0:0:
248,148,77578,1,0,0:0:0:0:
248,148,77864,1,0,0:0:0:0:
201,174,78150,1,8,0:0:0:0:
245,100,78292,1,0,0:0:0:0:
201,174,78578,1,8,0:0:0:0:
201,174,78864,1,8,0:0:0:0:
201,174,79150,1,0,0:0:0:0:
201,174,79292,1,8,0:0:0:0:
235,136,79864,1,8,0:0:0:0:
235,136,80007,1,0,0:0:0:0:
235,136,80150,1,0,0:0:0:0:
350,124,80435,1,8,0:0:0:0:
350,124,80578,1,0,0:0:0:0:
350,124,80864,1,8,0:0:0:0:
350,124,81007,1,0,0:0:0:0:
350,124,81292,1,0,0:0:0:0:
276,60,81435,1,0,0:0:0:0:
211,137,81578,1,8,0:0:0:0:
196,155,81864,1,8,0:0:0:0:
193,155,82007,1,8,0:0:0:0:
193,155,82150,1,0,0:0:0:0:
196,155,82435,1,0,0:0:0:0:
181,99,82721,1,8,0:0:0:0:
365,121,83007,1,0,0:0:0:0:
199,84,83292,5,8,0:0:0:0:
365,121,83578,1,0,0:0:0:0:
209,86,83864,1,8,0:0:0:0:
365,121,84150,1,0,0:0:0:0:
136,156,84435,1,0,0:0:0:0:
381,231,84578,1,8,0:0:0:0:
381,232,84721,1,8,0:0:0:0:
500,285,85007,1,0,0:0:0:0:
500,285,85292,1,8,0:0:0:0:
500,285,85578,1,0,0:0:0:0:
296,166,85864,1,8,0:0:0:0:
296,166,86150,1,0,0:0:0:0:
296,166,86435,1,8,0:0:0:0:
296,166,86578,1,8,0:0:0:0:
296,166,86721,1,8,0:0:0:0:
253,93,86864,1,8,0:0:0:0:
296,166,87007,1,0,0:0:0:0:
246,199,87292,1,8,0:0:0:0:
230,140,87578,1,8,0:0:0:0:
246,199,87864,1,8,0:0:0:0:
246,199,88150,1,0,0:0:0:0:
246,199,88292,1,0,0:0:0:0:
246,199,88435,1,8,0:0:0:0:
246,199,88721,1,8,0:0:0:0:
246,199,88864,1,8,0:0:0:0:
246,199,89007,1,8,0:0:0:0:
241,202,89150,1,8,0:0:0:0:
240,202,89292,1,0,0:0:0:0:
296,262,91007,5,12,0:0:0:0:
209,51,91292,1,4,0:0:0:0:
228,97,91435,1,4,0:0:0:0:
511,232,91578,5,4,0:0:0:0:
295,251,92150,1,12,0:0:0:0:
343,247,92721,1,4,0:0:0:0:
343,247,93292,1,12,0:0:0:0:
343,247,93864,1,4,0:0:0:0:
343,247,94435,1,12,0:0:0:0:
343,247,95007,1,4,0:0:0:0:
343,247,95578,1,12,0:0:0:0:
343,247,95721,1,8,0:0:0:0:
343,247,95864,1,0,0:0:0:0:
343,247,96007,1,8,0:0:0:0:
343,247,96150,1,4,0:0:0:0:
343,247,96721,1,12,0:0:0:0:
343,247,97292,1,4,0:0:0:0:
343,247,97864,1,12,0:0:0:0:
343,247,98435,1,4,0:0:0:0:
343,247,99007,1,12,0:0:0:0:
343,247,99578,1,4,0:0:0:0:
343,247,100150,1,12,0:0:0:0:
260,80,100292,1,0,0:0:0:0:
343,247,100435,1,8,0:0:0:0:
343,247,100578,1,8,0:0:0:0:
343,247,100721,1,4,0:0:0:0:
498,289,101292,1,12,0:0:0:0:
498,289,101864,1,4,0:0:0:0:
498,289,102435,1,12,0:0:0:0:
498,289,103007,1,4,0:0:0:0:
498,289,103578,1,12,0:0:0:0:
498,289,104150,1,4,0:0:0:0:
338,263,104435,1,8,0:0:0:0:
498,289,104721,1,12,0:0:0:0:
423,250,104864,1,8,0:0:0:0:
498,289,105007,1,0,0:0:0:0:
498,289,105150,1,8,0:0:0:0:
498,289,105292,1,4,0:0:0:0:
249,136,105864,1,12,0:0:0:0:
249,136,106150,1,8,0:0:0:0:
500,293,106435,1,4,0:0:0:0:
358,123,107007,1,12,0:0:0:0:
196,149,107292,1,0,0:0:0:0:
499,287,107578,1,4,0:0:0:0:
353,210,107864,1,8,0:0:0:0:
352,123,108150,1,12,0:0:0:0:
498,288,108721,1,4,0:0:0:0:
352,123,109292,1,12,0:0:0:0:
383,167,109435,1,0,0:0:0:0:
415,213,109578,1,8,0:0:0:0:
344,167,109721,1,8,0:0:0:0:
391,250,110150,1,0,0:0:0:0:
406,209,110292,1,0,0:0:0:0:
420,171,110435,1,12,0:0:0:0:
317,159,110721,1,8,0:0:0:0:
226,79,111007,1,0,0:0:0:0:
275,154,111150,1,8,0:0:0:0:
242,152,111578,1,12,0:0:0:0:
193,115,112150,1,4,0:0:0:0:
169,156,112721,1,12,0:0:0:0:
224,155,113007,1,8,0:0:0:0:
224,155,113292,1,4,0:0:0:0:
281,142,113435,1,8,0:0:0:0:
395,261,113578,1,0,0:0:0:0:
224,155,113864,1,12,0:0:0:0:
275,171,114007,1,0,0:0:0:0:
275,171,114150,1,8,0:0:0:0:
275,171,114435,1,4,0:0:0:0:
225,75,115007,1,12,0:0:0:0:
292,147,115292,1,8,0:0:0:0:
292,147,115578,1,4,0:0:0:0:
292,147,115721,1,8,0:0:0:0:
319,115,116150,1,12,0:0:0:0:
295,195,116721,1,4,0:0:0:0:
139,117,117292,1,12,0:0:0:0:
341,172,117578,1,8,0:0:0:0:
341,172,117864,1,4,0:0:0:0:
341,172,118007,1,8,0:0:0:0:
341,172,118435,1,12,0:0:0:0:
291,170,118578,1,0,0:0:0:0:
291,170,118721,1,8,0:0:0:0:
338,219,118864,1,8,0:0:0:0:
291,170,119007,1,4,0:0:0:0:
345,268,119578,1,12,0:0:0:0:
253,178,119864,1,8,0:0:0:0:
278,124,120150,1,4,0:0:0:0:
209,90,120292,1,8,0:0:0:0:
299,182,120721,1,12,0:0:0:0:
238,177,121292,1,4,0:0:0:0:
207,148,121864,1,12,0:0:0:0:
196,147,122150,1,8,0:0:0:0:
283,114,122435,1,4,0:0:0:0:
326,170,122578,1,8,0:0:0:0:
282,145,122721,1,0,0:0:0:0:
326,170,123007,1,8,0:0:0:0:
222,142,123150,1,8,0:0:0:0:
222,142,123292,1,8,0:0:0:0:
222,142,123435,1,8,0:0:0:0:
222,142,123578,1,4,0:0:0:0:
296,127,124435,1,8,0:0:0:0:
296,127,124864,1,8,0:0:0:0:
296,127,125292,1,8,0:0:0:0:
296,127,125435,1,0,0:0:0:0:
296,127,125578,1,8,0:0:0:0:
296,127,125864,1,8,0:0:0:0:
405,269,126150,1,0,0:0:0:0:
405,269,126435,1,8,0:0:0:0:
405,269,126721,1,0,0:0:0:0:
405,269,127007,1,8,0:0:0:0:
405,269,127292,1,8,0:0:0:0:
339,232,127578,1,0,0:0:0:0:
267,130,128150,1,12,0:0:0:0:
142,132,132791,5,0,0:0:0:0:
465,305,135077,5,8,0:0:0:0:
465,305,136220,1,0,0:0:0:0:
315,148,137362,1,8,0:0:0:0:
462,181,139648,1,8,0:0:0:0:
463,178,140791,1,8,0:0:0:0:
463,178,141934,1,0,0:0:0:0:
463,178,144220,1,0,0:0:0:0:
463,178,145362,1,8,0:0:0:0:
463,178,146505,1,8,0:0:0:0:
463,178,148791,1,8,0:0:0:0:
462,177,149934,1,8,0:0:0:0:
462,177,151077,1,4,0:0:0:0:
462,177,153362,1,8,0:0:0:0:
462,177,154505,1,0,0:0:0:0:
462,177,155648,1,8,0:0:0:0:
462,177,157934,1,8,0:0:0:0:
462,177,159077,1,0,0:0:0:0:
462,177,160220,1,0,0:0:0:0:
348,190,162505,1,0,0:0:0:0:
348,190,163648,1,8,0:0:0:0:
348,190,164791,1,0,0:0:0:0:
348,190,167077,1,0,0:0:0:0:
348,190,168220,1,8,0:0:0:0:
348,190,169362,1,12,0:0:0:0:
