osu file format v14

[General]
AudioFilename: audio.mp3
AudioLeadIn: 0
PreviewTime: 132712
Countdown: 0
SampleSet: Soft
StackLeniency: 0.2
Mode: 0
LetterboxInBreaks: 0
WidescreenStoryboard: 0

[Editor]
Bookmarks: 18477,27620,35620,36763,45906,55049,73334,82477,91620,109906,128192
DistanceSpacing: 0.4
BeatDivisor: 4
GridSize: 4
TimelineZoom: 1.7

[Metadata]
Title:Regret
TitleUnicode:Regret
Artist:ARForest
ArtistUnicode:ARForest
Creator:Fall
Version:Daycore's Insane
Source:osu!
Tags:frost era fa featured artist mg mappers' guild _tranquility electronic instrumental artcore gordon123 daycore cris- altai
BeatmapID:2752563
BeatmapSetID:1241523

[Difficulty]
HPDrainRate:5
CircleSize:3.8
OverallDifficulty:8.2
ApproachRate:9
SliderMultiplier:1.4
SliderTickRate:1

[Events]
//Background and Video events
0,0,"ba15558c-f9f9-4c40-a969-16478ddc79f8.jpg",0,0
//Break Periods
//Storyboard Layer 0 (Background)
//Storyboard Layer 1 (Fail)
//Storyboard Layer 2 (Pass)
//Storyboard Layer 3 (Foreground)
//Storyboard Layer 4 (Overlay)
//Storyboard Sound Samples

[TimingPoints]
142,285.714285714286,4,2,0,100,1,0
9309,285.714285714286,4,2,0,100,1,0
18427,285.714285714286,4,2,1,70,1,0
18427,-100,4,2,1,70,0,0
18712,-100,4,2,1,5,0,0
18999,-100,4,2,1,70,0,0
19284,-100,4,2,1,5,0,0
19427,-100,4,2,1,70,0,0
19712,-100,4,2,1,5,0,0
19856,-100,4,2,1,70,0,0
19998,-100,4,2,1,5,0,0
20142,-100,4,2,1,70,0,0
20998,-100,4,2,1,5,0,0
21284,-100,4,2,1,70,0,0
21569,-100,4,2,1,5,0,0
21713,-100,4,2,1,70,0,0
21998,-100,4,2,1,5,0,0
22142,-100,4,2,1,70,0,0
22284,-100,4,2,1,5,0,0
22427,-100,4,2,1,70,0,0
23284,-100,4,2,1,5,0,0
23570,-100,4,2,1,70,0,0
23855,-100,4,2,1,5,0,0
23999,-100,4,2,1,70,0,0
25569,-100,4,2,1,5,0,0
25856,-100,4,2,1,70,0,0
26141,-100,4,2,1,5,0,0
26284,-100,4,2,1,70,0,0
26569,-100,4,2,1,5,0,0
26713,-100,4,2,1,70,0,0
27570,-100,4,2,2,50,0,0
28713,-100,4,2,2,58,0,0
28927,-100,4,2,2,5,0,0
28999,-100,4,2,2,58,0,0
29141,-100,4,2,2,5,0,0
29284,-100,4,2,2,58,0,0
29856,-100,4,2,2,66,0,0
30999,-100,4,2,2,72,0,0
31141,-100,4,2,2,5,0,0
31284,-100,4,2,2,72,0,0
32142,-100,4,2,2,80,0,0
36713,-125,4,2,3,85,0,0
37142,-125,4,2,3,5,0,0
37284,-125,4,2,3,85,0,0
37713,-125,4,2,3,5,0,0
37856,-83.3333333333333,4,2,3,85,0,0
38284,-83.3333333333333,4,2,3,5,0,0
38427,-83.3333333333333,4,2,3,85,0,0
38856,-83.3333333333333,4,2,3,5,0,0
38999,-90.9090909090909,4,2,3,85,0,0
39427,-90.9090909090909,4,2,3,5,0,0
39570,-90.9090909090909,4,2,3,85,0,0
39999,-90.9090909090909,4,2,3,5,0,0
40142,-90.9090909090909,4,2,3,85,0,0
40570,-90.9090909090909,4,2,3,5,0,0
40713,-66.6666666666667,4,2,3,85,0,0
40784,-66.6666666666667,4,2,3,5,0,0
40856,-66.6666666666667,4,2,3,85,0,0
40927,-66.6666666666667,4,2,3,5,0,0
40999,-66.6666666666667,4,2,3,85,0,0
41070,-66.6666666666667,4,2,3,5,0,0
41142,-66.6666666666667,4,2,3,85,0,0
41213,-66.6666666666667,4,2,3,5,0,0
41284,-66.6666666666667,4,2,3,85,0,0
41713,-66.6666666666667,4,2,3,5,0,0
41856,-100,4,2,3,85,0,0
42284,-100,4,2,3,5,0,0
42427,-66.6666666666667,4,2,3,85,0,0
42856,-66.6666666666667,4,2,3,5,0,0
42999,-133.333333333333,4,2,3,85,0,0
43070,-133.333333333333,4,2,3,5,0,0
43142,-133.333333333333,4,2,3,85,0,0
43213,-133.333333333333,4,2,3,5,0,0
43284,-133.333333333333,4,2,3,85,0,0
43356,-133.333333333333,4,2,3,5,0,0
43427,-133.333333333333,4,2,3,85,0,0
43499,-133.333333333333,4,2,3,5,0,0
43570,-66.6666666666667,4,2,3,85,0,0
43999,-66.6666666666667,4,2,3,5,0,0
44142,-71.4285714285714,4,2,3,85,0,0
44570,-71.4285714285714,4,2,3,5,0,0
44713,-62.5,4,2,3,85,0,0
44927,-62.5,4,2,3,85,0,0
44999,-62.5,4,2,3,85,0,0
45213,-62.5,4,2,3,5,0,0
45284,-66.6666666666667,4,2,3,85,0,0
45713,-66.6666666666667,4,2,3,5,0,0
45856,-66.6666666666667,4,2,3,85,0,0
47570,-58.8235294117647,4,2,3,85,0,0
47784,-58.8235294117647,4,2,3,5,0,0
47856,-71.4285714285714,4,2,3,85,0,0
48070,-71.4285714285714,4,2,3,5,0,0
48142,-100,4,2,3,85,0,0
48356,-100,4,2,3,5,0,0
48427,-76.9230769230769,4,2,3,85,0,0
48642,-76.9230769230769,4,2,3,5,0,0
48713,-71.4285714285714,4,2,3,85,0,0
49856,-66.6666666666667,4,2,3,85,0,0
50070,-66.6666666666667,4,2,3,5,0,0
50142,-66.6666666666667,4,2,3,85,0,0
50427,-133.333333333333,4,2,3,85,0,0
50855,-133.333333333333,4,2,3,5,0,0
50999,-133.333333333333,4,2,3,85,0,0
52142,-55.5555555555556,4,2,3,85,0,0
52499,-55.5555555555556,4,2,3,5,0,0
52570,-55.5555555555556,4,2,3,85,0,0
53570,-55.5555555555556,4,2,0,85,0,0
53856,-55.5555555555556,4,2,2,85,0,0
54141,-100,4,2,2,85,0,0
55070,-100,4,2,2,55,0,0
64142,-125,4,2,4,55,0,0
73284,-90.9090909090909,4,2,1,84,0,0
73356,-90.9090909090909,4,2,5,70,0,0
82427,-90.9090909090909,4,2,2,55,0,0
83570,-90.9090909090909,4,2,2,64,0,0
84713,-90.9090909090909,4,2,2,70,0,0
85856,-90.9090909090909,4,2,2,77,0,0
85998,-90.9090909090909,4,2,2,5,0,0
86142,-90.9090909090909,4,2,2,77,0,0
86284,-90.9090909090909,4,2,2,5,0,0
86427,-90.9090909090909,4,2,2,77,0,0
86999,-90.9090909090909,4,2,2,85,0,0
91284,-50,4,2,2,85,0,0
91355,-50,4,2,2,5,0,0
91427,-33.3333333333333,4,2,2,85,0,0
91498,-33.3333333333333,4,2,2,5,0,0
91570,-62.5,4,2,3,90,0,0
91856,-62.5,4,2,3,90,0,0
92142,-125,4,2,3,90,0,0
92570,-83.3333333333333,4,2,3,5,0,0
92713,-62.5,4,2,3,90,0,0
92999,-62.5,4,2,3,5,0,0
93284,-111.111111111111,4,2,3,90,0,0
93713,-76.9230769230769,4,2,3,5,0,0
93856,-62.5,4,2,3,90,0,0
94142,-62.5,4,2,3,90,0,0
94427,-71.4285714285714,4,2,3,90,0,0
94856,-71.4285714285714,4,2,3,5,0,0
94999,-62.5,4,2,3,90,0,0
95284,-62.5,4,2,3,90,0,0
95570,-62.5,4,2,3,90,0,0
95783,-62.5,4,2,3,5,0,0
95855,-62.5,4,2,3,90,0,0
95999,-62.5,4,2,3,90,0,0
96142,-62.5,4,2,3,90,0,0
96427,-62.5,4,2,3,90,0,0
96713,-62.5,4,2,3,90,0,0
97142,-62.5,4,2,3,5,0,0
97284,-62.5,4,2,3,90,0,0
97570,-62.5,4,2,3,90,0,0
97856,-133.333333333333,4,2,3,90,0,0
97927,-133.333333333333,4,2,3,5,0,0
97999,-133.333333333333,4,2,3,90,0,0
98070,-133.333333333333,4,2,3,5,0,0
98142,-133.333333333333,4,2,3,90,0,0
98213,-133.333333333333,4,2,3,5,0,0
98284,-133.333333333333,4,2,3,90,0,0
98356,-133.333333333333,4,2,3,5,0,0
98422,-62.5,4,2,3,90,0,0
98713,-62.5,4,2,3,90,0,0
98999,-55.5555555555556,4,2,3,90,0,0
99427,-55.5555555555556,4,2,3,5,0,0
99570,-62.5,4,2,3,90,0,0
99856,-62.5,4,2,3,5,0,0
100142,-62.5,4,2,3,90,0,0
100713,-62.5,4,2,3,90,0,0
100999,-62.5,4,2,3,90,0,0
101284,-62.5,4,2,3,90,0,0
101713,-62.5,4,2,3,5,0,0
101856,-62.5,4,2,3,90,0,0
102142,-62.5,4,2,3,5,0,0
102427,-95.2380952380951,4,2,3,90,0,0
102856,-95.2380952380951,4,2,3,5,0,0
102999,-100,4,2,3,90,0,0
103284,-100,4,2,3,90,0,0
103570,-71.4285714285714,4,2,3,90,0,0
103999,-71.4285714285714,4,2,3,5,0,0
104142,-62.5,4,2,3,90,0,0
104356,-62.5,4,2,3,5,0,0
104427,-62.5,4,2,3,90,0,0
104499,-62.5,4,2,3,5,0,0
104570,-62.5,4,2,3,90,0,0
104642,-62.5,4,2,3,90,0,0
104713,-133.333333333333,4,2,3,90,0,0
104784,-133.333333333333,4,2,3,5,0,0
104856,-133.333333333333,4,2,3,90,0,0
104927,-133.333333333333,4,2,3,5,0,0
104999,-133.333333333333,4,2,3,90,0,0
105070,-133.333333333333,4,2,3,5,0,0
105142,-133.333333333333,4,2,3,90,0,0
105213,-133.333333333333,4,2,3,5,0,0
105284,-66.6666666666667,4,2,3,90,0,0
105570,-66.6666666666667,4,2,3,90,0,0
105856,-66.6666666666667,4,2,3,90,0,0
106284,-66.6666666666667,4,2,3,90,0,0
106427,-66.6666666666667,4,2,3,90,0,0
106713,-66.6666666666667,4,2,3,5,0,0
106999,-100,4,2,3,90,0,0
107284,-100,4,2,3,90,0,0
107356,-100,4,2,3,90,0,0
107570,-58.8235294117647,4,2,3,90,0,0
107784,-58.8235294117647,4,2,3,5,0,0
107856,-58.8235294117647,4,2,3,90,0,0
108070,-58.8235294117647,4,2,3,90,0,0
108142,-58.8235294117647,4,2,3,90,0,0
108213,-58.8235294117647,4,2,3,5,0,0
108427,-58.8235294117647,4,2,3,90,0,0
108713,-83.3333333333333,4,2,3,90,0,0
108999,-83.3333333333333,4,2,3,90,0,0
109284,-83.3333333333333,4,2,3,90,0,0
109570,-71.4285714285714,4,2,3,90,0,0
109712,-66.6666666666667,4,2,3,90,0,0
109856,-66.6666666666667,4,2,3,90,0,0
110427,-66.6666666666667,4,2,3,90,0,1
110642,-66.6666666666667,4,2,3,5,0,1
110713,-66.6666666666667,4,2,3,90,0,1
116356,-66.6666666666667,4,2,3,5,0,1
116427,-66.6666666666667,4,2,3,90,0,1
116499,-66.6666666666667,4,2,3,5,0,1
116570,-66.6666666666667,4,2,3,90,0,1
116642,-66.6666666666667,4,2,3,5,0,1
116713,-66.6666666666667,4,2,3,90,0,1
116927,-66.6666666666667,4,2,3,5,0,1
116999,-66.6666666666667,4,2,3,90,0,1
122784,-66.6666666666667,4,2,3,5,0,1
122856,-66.6666666666667,4,2,3,90,0,1
122927,-66.6666666666667,4,2,3,5,0,1
122999,-66.6666666666667,4,2,3,90,0,1
123570,-142.857142857143,4,2,0,65,0,1
125856,-90.9090909090909,4,2,0,65,0,1
128141,-66.6666666666667,4,2,2,65,0,0

[Colours]
Combo1 : 183,116,237
Combo2 : 44,197,192
Combo3 : 85,162,255
Combo4 : 89,210,96

[HitObjects]
502,151,18427,6,0,B|450:146|450:146|427:123|427:123|371:118,1,140,0|0,3:0|2:0,0:0:0:0:
259,172,18999,2,0,P|289:110|271:44,1,140,8|0,0:0|2:0,0:0:0:0:
194,100,19427,6,0,B|101:125|101:125|126:126|152:145,1,140,0|0,0:0|2:0,0:0:0:0:
88,228,19856,2,0,L|183:238,1,70,0|0,3:0|2:0,0:0:0:0:
232,290,20142,1,8,0:0:0:0:
232,290,20713,6,0,B|211:188|211:188|228:209|256:215,1,140,0|0,3:0|2:0,0:0:0:0:
364,328,21284,2,0,P|377:254|438:205,1,140,8|0,0:0|2:0,0:0:0:0:
483,328,21713,2,0,P|445:312|487:324,1,140,0|0,3:0|2:0,0:0:0:0:
503,194,22142,2,0,L|513:119,1,70,0|0,3:0|2:0,0:0:0:0:
503,194,22427,1,8,0:0:0:0:
323,60,22999,6,0,B|289:46|253:62|253:62|244:21|187:1,1,140,0|0,3:0|2:0,0:0:0:0:
434,3,23570,2,0,P|408:56|385:151,1,140,8|0,0:0|2:0,0:0:0:0:
300,141,23999,1,0,0:0:0:0:
73,86,24427,6,0,B|101:59|101:59|83:164,2,140,0|8|0,3:0|0:0|0:0,0:0:0:0:
73,86,25142,1,0,0:0:0:0:
188,51,25284,6,0,P|171:96|169:206,1,140,0|0,3:0|2:0,0:0:0:0:
64,368,25856,2,0,P|63:298|41:231,1,140,8|0,0:0|2:0,0:0:0:0:
100,285,26284,2,0,P|137:306|230:282,1,140,0|0,3:0|2:0,0:0:0:0:
267,214,26713,1,0,3:0:0:0:
405,347,26999,2,0,B|371:309|378:256|378:256|390:279|409:293,1,140,8|0,0:0|3:0,0:0:0:0:
460,144,27570,6,0,B|440:138|425:123|425:123|449:218,1,140,4|0,1:0|3:2,0:0:0:0:
405,347,28142,2,0,B|350:342|350:342|324:353|324:353|259:348,1,140,0|0,3:2|3:2,0:0:0:0:
229,141,28713,2,0,P|189:174|184:225,1,105,0|0,3:2|2:0,0:0:0:0:
188,237,28999,2,0,P|134:233|101:236,1,70,2|0,3:2|2:0,0:0:0:0:
37,348,29284,2,0,P|99:365|145:305,1,140,2|2,3:2|3:2,0:0:0:0:
58,194,29713,1,0,3:2:0:0:
256,209,29856,6,0,P|239:255|238:365,1,140,2|2,3:2|3:2,0:0:0:0:
434,260,30428,2,0,P|433:190|412:123,1,140,10|10,3:2|3:2,0:0:0:0:
337,175,30856,1,0,3:2:0:0:
232,65,30999,6,0,P|169:58|142:77,1,70,10|0,3:2|2:0,0:0:0:0:
91,12,31284,2,0,P|115:55|135:159,1,140,10|10,3:2|3:2,0:0:0:0:
149,276,31713,1,0,0:0:0:0:
250,189,31856,1,10,3:2:0:0:
291,285,31999,1,0,3:2:0:0:
350,236,32142,6,0,P|402:225|437:238,1,70,8|8,0:2|0:2,0:0:0:0:
333,352,32427,2,0,P|281:363|246:350,1,70,8|8,0:2|0:2,0:0:0:0:
416,378,32713,2,0,L|428:301,1,70,8|8,0:2|0:2,0:0:0:0:
489,171,32999,2,0,L|499:240,1,70,8|8,0:2|0:2,0:0:0:0:
426,308,33284,5,8,0:2:0:0:
333,352,33427,1,8,0:2:0:0:
350,236,33570,1,8,0:2:0:0:
229,257,33713,1,8,0:2:0:0:
155,354,33856,6,0,P|115:345|87:295,1,70,8|8,0:2|0:2,0:0:0:0:
223,188,34142,2,0,P|223:238|234:271,1,70,8|8,0:2|0:2,0:0:0:0:
350,236,34427,5,8,0:2:0:0:
349,225,34499,1,8,0:2:0:0:
348,214,34570,1,8,0:2:0:0:
347,203,34642,1,8,0:2:0:0:
346,192,34713,2,0,P|350:162|365:142,3,35,8|8|8|8,0:2|0:2|0:2|0:2,0:0:0:0:
431,131,34999,5,8,0:2:0:0:
432,120,35069,1,8,0:2:0:0:
433,109,35142,1,8,0:2:0:0:
434,98,35212,1,8,0:2:0:0:
435,87,35285,2,0,P|431:57|416:37,3,35,8|8|8|8,0:2|0:2|0:2|0:2,0:0:0:0:
344,38,35570,6,0,L|296:40,7,35,2|2|2|2|2|2|2|2,0:3|0:3|0:3|0:3|0:3|0:3|0:3|0:3,0:0:0:0:
237,89,36142,6,0,L|214:87,8,17.5,2|0|0|0|2|0|0|0|2,0:0|0:0|0:0|0:0|0:0|0:0|0:0|0:0|0:0,0:0:0:0:
245,177,36570,1,2,0:3:0:0:
245,177,36642,1,2,0:3:0:0:
245,177,36713,6,0,P|247:232|152:209,1,168,0|0,3:0|2:0,0:0:0:0:
83,161,37284,2,0,P|106:216|106:336,1,168,8|0,0:0|2:0,0:0:0:0:
223,366,37856,6,0,B|318:359|318:359|367:306|367:306|458:299,1,251.999992309571,0|0,3:0|2:0,0:0:0:0:
499,378,38427,2,0,B|494:340|494:340|493:343|493:343|491:307|491:307|492:310|492:310|487:276|487:276|486:278|486:278|481:242|481:242|482:245|482:245|479:207|479:207|478:209|478:209|471:153,1,251.999992309571,8|0,0:0|2:0,0:0:0:0:
375,128,38999,6,0,B|453:139|453:139|482:63|482:63|399:50,1,231.000007049561,0|0,3:0|2:0,0:0:0:0:
245,60,39570,2,0,B|289:111|289:111|296:112|296:112|218:101|218:101|214:103|214:103|211:101|211:101|134:90,1,231.000007049561,8|0,0:0|2:0,0:0:0:0:
133,224,40142,6,0,P|169:210|368:191,1,231.000007049561,0|0,3:0|2:0,0:0:0:0:
342,312,40713,6,0,P|347:287|372:258,1,52.5000020027161,10|0,0:0|0:0,0:0:0:0:
438,332,40856,2,0,P|444:307|433:270,1,52.5000020027161,2|0,0:0|0:0,0:0:0:0:
312,209,40999,6,0,P|334:193|359:189,1,52.5000020027161,2|0,0:0|0:0,0:0:0:0:
509,244,41142,2,0,P|494:221|473:206,1,52.5000020027161,2|0,0:0|0:0,0:0:0:0:
427,140,41284,6,0,B|430:121|430:121|430:117|430:117|432:113|432:113|438:84|438:84|440:81|440:81|440:77|440:77|446:48|446:48|446:43|446:43|448:38|448:38|455:4|455:4|458:1|458:1|401:0|407:60|445:91|503:77|522:31,1,315.000012016297,0|0,3:0|2:0,0:0:0:0:
345,30,41856,2,0,B|318:28|296:44|296:44|248:20|248:20|224:64|224:64|200:56|168:68,1,210,8|0,0:0|2:0,0:0:0:0:
53,115,42427,6,0,B|29:80|29:80|24:79|24:79|84:85|84:85|85:81|85:81|75:175|75:175|72:176|72:176|131:169|131:169|132:173|132:173|109:119,1,315.000012016297,0|0,3:0|2:0,0:0:0:0:
155,247,42999,6,0,L|169:287,1,26.2500010013581,8|0,0:0|0:0,0:0:0:0:
155,377,43142,2,0,L|169:337,1,26.2500010013581,2|0,0:0|0:0,0:0:0:0:
246,247,43285,6,0,L|260:287,1,26.2500010013581,2|0,0:3|0:0,0:0:0:0:
246,377,43428,2,0,L|260:337,1,26.2500010013581,2|0,0:0|0:0,0:0:0:0:
331,306,43570,6,0,B|327:332|327:332|328:328|328:328|329:343|329:343|335:356|335:356|333:353|333:353|345:366|345:366|361:375|361:375|356:373|356:373|382:375|382:375|393:370|393:370|391:374|391:374|405:364|405:364|413:351|413:351|412:352|412:352|417:345|417:345|416:334|416:334|417:314|417:314|418:317|418:317|418:272|418:272|419:276|419:276|419:214,1,315.000012016297,0|0,3:0|2:0,0:0:0:0:
361,99,44142,6,0,B|372:70|372:70|368:41|368:41|363:-18|420:-41|456:-12|465:5|463:41|463:41|459:70|459:70|484:130,1,293.999991027832,8|0,0:0|2:0,0:0:0:0:
419,235,44713,6,0,B|456:253|456:253|493:232|493:232|457:213|457:213|419:235,1,168,2|2,3:2|0:0,0:0:0:0:
331,306,44999,2,0,B|293:287|293:287|256:308|256:308|292:327|292:327|331:306,1,168,2|0,0:0|2:0,0:0:0:0:
230,213,45284,6,0,B|166:239|98:186|98:99|147:69|214:74|234:124|200:180|162:175|141:165,1,315.000012016297,10|0,0:0|2:0,0:0:0:0:
77,52,45856,6,0,P|185:70|296:78,1,210.000008010865,0|8,3:0|0:0,0:0:0:0:
479,38,46427,1,0,3:0:0:0:
414,98,46570,1,2,0:0:0:0:
414,98,46642,1,2,0:0:0:0:
414,98,46713,2,0,P|432:151|443:214,1,105.000004005432,8|2,0:0|0:0,0:0:0:0:
415,284,46999,6,0,L|428:339,3,52.5000020027161,0|2|2|2,3:0|0:0|0:0|0:0,0:0:0:0:
442,361,47284,2,0,P|382:363|327:381,1,105.000004005432,8|2,0:0|0:0,0:0:0:0:
225,372,47570,6,0,B|167:397|107:369|107:369|142:374|169:358,1,178.500003404617,0|0,3:0|2:0,0:0:0:0:
126,288,47856,2,0,B|129:187|129:187|113:219|85:234,1,146.999995513916,8|0,0:0|2:0,0:0:0:0:
81,105,48142,6,0,L|196:111,1,105,0|0,3:0|2:0,0:0:0:0:
129,24,48427,6,0,L|301:15,1,136.499993751526,8|0,0:0|2:0,0:0:0:0:
370,40,48713,6,0,P|349:93|276:95,1,97.9999970092774,0|2,3:0|0:0,0:0:0:0:
306,202,48927,1,2,0:0:0:0:
306,202,48999,2,0,P|258:202|197:212,1,97.9999970092774,8|2,0:0|0:0,0:0:0:0:
223,297,49213,1,0,0:0:0:0:
223,297,49285,5,0,3:0:0:0:
101,223,49427,2,0,P|117:220|105:226,1,48.9999985046387,2|2,0:0|0:0,0:0:0:0:
208,209,49570,1,8,0:0:0:0:
120,317,49712,2,0,P|74:313|58:304,1,48.9999985046387,2|0,0:0|0:0,0:0:0:0:
33,165,49856,6,0,B|84:185|138:148|138:148|104:159|61:141,1,157.500006008148,0|0,3:0|2:0,0:0:0:0:
81,36,50142,2,0,B|101:49|110:77|110:77|111:51|155:-1,1,105.000004005432,8|2,0:0|0:3,0:0:0:0:
339,32,50427,6,0,P|271:29|233:102,1,157.500006008148,0|0,3:0|2:0,0:0:0:0:
367,107,50999,2,0,P|400:103|435:105,1,52.5000020027161,8|2,0:0|0:0,0:0:0:0:
488,151,51284,2,0,P|492:184|489:219,1,52.5000020027161,2|2,0:0|0:0,0:0:0:0:
432,264,51570,2,0,P|399:268|364:266,1,52.5000020027161,0|2,3:0|0:0,0:0:0:0:
265,211,51856,5,0,3:0:0:0:
296,333,51999,1,0,3:0:0:0:
177,215,52142,1,8,0:0:0:0:
61,384,52356,5,0,3:0:0:0:
61,384,52427,2,0,P|44:333|28:304,1,62.9999980773926,0|0,3:0|0:0,0:0:0:0:
10,248,52570,1,8,0:0:0:0:
177,215,52713,5,4,0:0:0:0:
130,139,52856,1,0,3:0:0:0:
205,93,52999,1,0,3:0:0:0:
83,63,53142,5,8,0:0:0:0:
248,163,53284,2,0,P|310:160|326:164,3,62.9999980773926,0|0|0|0,3:0|3:0|3:0|3:0,0:0:0:0:
388,195,53570,1,8,0:1:0:0:
394,193,53642,1,8,0:1:0:0:
400,191,53713,1,8,0:1:0:0:
406,189,53784,1,8,0:1:0:0:
412,187,53855,6,0,L|479:169,3,62.9999980773926,2|2|2|2,0:3|0:3|0:3|0:3,0:0:0:0:
416,273,54141,2,0,L|470:258,3,35,8|2|2|2,0:0|0:3|0:3|0:3,0:0:0:0:
335,310,54427,1,2,0:3:0:0:
322,303,54498,1,2,0:3:0:0:
311,311,54569,1,2,0:3:0:0:
298,304,54641,1,2,0:3:0:0:
284,308,54712,5,2,0:2:0:0:
133,282,54855,1,2,0:2:0:0:
183,364,54998,5,4,0:0:0:0:
256,192,55142,12,2,59570,0:0:0:0:
200,40,64142,6,0,P|160:82|161:147,1,112,2|2,0:0|0:0,0:0:0:0:
251,168,64569,2,0,P|291:126|290:61,1,112,2|2,0:0|0:0,0:0:0:0:
200,40,64999,2,0,B|153:32|153:32|137:35|137:35|80:26,1,112,0|2,0:0|0:0,0:0:0:0:
46,146,65427,2,0,B|93:138|93:138|108:141|108:141|166:132,1,112,0|2,0:0|0:0,0:0:0:0:
251,168,65856,2,0,P|257:210|259:242,1,56,0|2,0:0|0:0,0:0:0:0:
187,259,66142,2,0,P|181:301|179:333,1,56,2|2,0:0|0:0,0:0:0:0:
290,347,66427,6,0,P|342:352|382:308,1,112,2|2,0:0|0:0,0:0:0:0:
437,244,66856,2,0,P|449:193|490:126,1,112,2|2,0:0|0:0,0:0:0:0:
422,0,67427,1,2,0:0:0:0:
485,52,67570,6,0,P|450:75|375:65,1,112,2|2,0:0|0:0,0:0:0:0:
303,70,67999,2,0,P|340:88|369:158,1,112,2|2,0:0|0:0,0:0:0:0:
285,149,68427,2,0,L|204:146,1,56,2|2,0:0|0:0,0:0:0:0:
128,95,68713,6,0,P|171:86|214:33,1,112,2|2,0:0|0:0,0:0:0:0:
303,70,69142,2,0,P|347:72|415:85,2,112,2|2|2,0:0|0:0|0:0,0:0:0:0:
285,149,69856,5,2,0:0:0:0:
485,52,70427,2,0,P|461:104|447:177,1,112,0|2,0:0|0:0,0:0:0:0:
472,238,70856,1,2,0:0:0:0:
393,326,70999,6,0,P|365:322|294:245,1,112,2|2,0:0|0:0,0:0:0:0:
209,269,71427,2,0,P|172:310|119:326,1,112,2|2,0:0|0:0,0:0:0:0:
84,172,71999,1,2,0:0:0:0:
69,249,72142,2,0,B|126:246|126:246|159:193,1,112,2|2,0:0|0:0,0:0:0:0:
190,129,72570,2,0,B|219:82|219:82|276:79,1,112,2|2,0:0|0:0,0:0:0:0:
338,128,72999,1,2,0:0:0:0:
338,32,73142,1,2,0:0:0:0:
425,157,73284,6,0,P|395:201|285:205,1,154.000004699707,0|8,3:0|0:0,0:0:0:0:
146,234,73713,2,0,P|199:237|257:331,2,154.000004699707,8|8|8,0:0|0:0|0:0,0:0:0:0:
165,324,74427,5,0,0:0:0:0:
83,290,74570,1,8,0:0:0:0:
83,290,74713,6,0,P|63:216|113:156,1,154.000004699707,8|8,0:0|0:0,0:0:0:0:
41,40,75284,1,2,0:0:0:0:
118,74,75427,1,8,0:0:0:0:
106,158,75570,6,0,L|277:140,1,154.000004699707,8|8,0:0|0:0,0:0:0:0:
319,81,75999,2,0,P|344:133|333:180,1,77.0000023498536,8|2,0:0|0:0,0:0:0:0:
275,295,76284,2,0,L|257:124,1,154.000004699707,8|8,0:0|0:0,0:0:0:0:
319,81,76713,6,0,P|351:33|397:19,1,77.0000023498536,0|8,0:0|0:0,0:0:0:0:
404,163,76999,2,0,P|432:81|494:43,1,154.000004699707,8|8,0:0|0:0,0:0:0:0:
404,163,77427,1,8,0:0:0:0:
470,237,77570,2,0,L|474:292,1,38.5000011749268,8|0,0:0|0:0,0:0:0:0:
419,334,77713,1,8,0:0:0:0:
419,334,77784,1,8,0:0:0:0:
419,334,77856,6,0,P|384:350|294:284,1,154.000004699707,8|8,0:0|0:0,0:0:0:0:
233,235,78284,2,0,B|174:226|174:226|164:232|164:232|81:221,2,154.000004699707,8|8|8,0:0|0:0|0:0,0:0:0:0:
295,293,78999,5,0,0:0:0:0:
282,167,79142,1,8,0:0:0:0:
346,221,79284,2,0,P|365:172|315:90,1,154.000004699707,8|8,0:0|0:0,0:0:0:0:
316,90,79856,1,2,0:0:0:0:
282,167,79999,1,8,0:0:0:0:
263,19,80142,6,0,B|302:43|352:23|352:23|382:41|422:25,1,154.000004699707,8|8,0:0|0:0,0:0:0:0:
500,131,80570,2,0,P|474:175|465:211,1,77.0000023498536,8|2,0:0|0:0,0:0:0:0:
394,141,80856,2,0,P|440:220|457:285,1,154.000004699707,8|8,0:0|0:0,0:0:0:0:
370,331,81284,6,0,P|323:323|287:347,1,77.0000023498536,0|8,0:0|0:0,0:0:0:0:
265,250,81570,2,0,B|229:262|211:300|211:300|178:277|137:279,1,154.000004699707,8|8,0:0|0:0,0:0:0:0:
265,250,81999,1,8,0:0:0:0:
189,202,82142,2,0,L|177:152,1,38.5000011749268,8|0,0:0|0:0,0:0:0:0:
241,101,82284,1,8,0:0:0:0:
241,101,82356,1,8,0:0:0:0:
241,101,82427,6,0,P|171:76|99:124,1,154.000004699707,2|2,3:0|3:0,0:0:0:0:
0,276,82856,1,0,0:0:0:0:
0,276,82999,2,0,P|22:213|10:115,1,154.000004699707,2|2,3:0|3:0,0:0:0:0:
292,19,83570,6,0,P|283:94|306:167,1,154.000004699707,2|2,3:0|3:0,0:0:0:0:
479,184,83999,1,0,0:0:0:0:
479,184,84142,2,0,P|438:174|388:193,2,77.0000023498536,2|0|2,3:0|0:0|3:0,0:0:0:0:
441,267,84570,1,2,3:0:0:0:
342,299,84713,6,0,P|274:264|227:205,1,154.000004699707,2|2,3:0|3:0,0:0:0:0:
187,24,85142,1,0,0:0:0:0:
187,24,85284,2,0,P|139:83|71:118,1,154.000004699707,2|2,3:0|3:0,0:0:0:0:
352,62,85856,6,0,P|396:39|449:42,1,77.0000023498536,2|0,3:0|2:0,0:0:0:0:
492,103,86142,2,0,P|489:152|460:197,1,77.0000023498536,2|0,3:0|2:0,0:0:0:0:
336,156,86427,2,0,P|359:186|393:204,1,77.0000023498536,2|2,3:0|3:0,0:0:0:0:
460,257,86713,1,2,3:0:0:0:
333,303,86856,1,2,3:0:0:0:
333,303,86927,1,0,0:0:0:0:
333,303,86999,6,0,L|233:296,1,77.0000023498536,2|2,3:0|3:0,0:0:0:0:
210,155,87284,2,0,L|203:255,1,77.0000023498536,2|2,3:0|3:0,0:0:0:0:
52,236,87570,2,0,L|152:243,1,77.0000023498536,2|2,3:0|3:0,0:0:0:0:
175,384,87856,2,0,L|182:284,1,77.0000023498536,2|2,3:0|3:0,0:0:0:0:
114,164,88142,6,0,L|64:158,3,38.5000011749268,2|2|2|2,3:0|3:0|3:0|3:0,0:0:0:0:
83,82,88427,2,0,L|133:88,3,38.5000011749268,2|2|2|2,3:0|3:0|3:0|3:0,0:0:0:0:
133,10,88713,2,0,L|83:4,3,38.5000011749268,2|2|2|2,3:0|3:0|3:0|3:0,0:0:0:0:
205,73,88999,1,10,3:0:0:0:
224,72,89070,1,10,3:0:0:0:
243,71,89142,1,10,3:0:0:0:
262,70,89213,1,10,3:0:0:0:
281,69,89284,5,4,0:0:0:0:
256,192,89427,12,8,90999,0:0:0:0:
445,116,91284,6,0,P|465:103|450:119,1,70,2|0,0:0|0:0,0:0:0:0:
450,126,91427,6,0,P|460:90|439:120,1,105.000004005432,2|0,0:0|0:0,0:0:0:0:
454,108,91570,6,0,B|355:98|355:98|332:103|332:103|205:88,1,224,0|2,3:0|0:0,0:0:0:0:
236,84,92142,2,0,B|285:89|285:89|286:86|286:86|273:133|273:133|275:137|275:137|255:214,1,167.999994873047,12|0,0:0|2:0,0:0:0:0:
259,197,92713,6,0,B|206:214|140:185|125:133|125:133|159:162|192:168,1,224,0|0,3:0|2:0,0:0:0:0:
182,157,93284,2,0,B|174:198|174:198|171:197|171:197|174:198|174:198|170:223|170:223|174:224|174:224|170:223|170:223|165:246|165:246|161:245|161:245|165:246|165:246|159:271|159:271|164:272|164:272|159:271|159:271|151:316,1,188.999994232178,8|0,0:0|2:0,0:0:0:0:
276,368,93856,6,0,B|255:332|255:332|243:330|243:330|323:336|323:336|331:332|331:332|338:337|338:337|423:344,1,224,0|2,3:0|0:0,0:0:0:0:
418,335,94427,2,0,B|408:276|408:276|405:278|405:278|394:214|394:214|391:210|391:210|414:230|474:206|468:153|428:107|356:136,1,293.999991027832,8|0,0:0|2:0,0:0:0:0:
396,128,94999,6,0,B|358:125|294:160|314:236|314:236|293:205|261:196,1,224,0|0,3:0|0:0,0:0:0:0:
255,203,95569,6,0,B|253:202|197:186|197:186|157:202|157:202|86:183,1,168,8|0,0:0|2:0,0:0:0:0:
94,185,95855,2,0,L|111:249,1,56,2|0,0:0|0:0,0:0:0:0:
145,90,95998,1,2,0:3:0:0:
145,90,96142,6,0,P|217:91|334:184,1,224,0|2,3:0|0:0,0:0:0:0:
332,181,96712,2,0,B|311:123|391:89|409:108|469:171|516:90|516:19|458:7|439:-25|382:59|436:91|456:42,1,336
452,48,97284,6,0,B|413:79|424:151|424:151|436:230|372:263,1,224,0|0,3:0|0:0,0:0:0:0:
381,251,97856,2,0,L|336:248,1,26.2500010013581,8|0,0:0|0:0,0:0:0:0:
276,235,97999,2,0,L|231:232,1,26.2500010013581,0|0,1:0|0:0,0:0:0:0:
110,174,98142,2,0,L|155:171,1,26.2500010013581,0|0,1:0|0:0,0:0:0:0:
215,158,98285,2,0,L|260:155,1,26.2500010013581,0|0,1:0|0:0,0:0:0:0:
71,256,98427,6,0,P|22:196|114:83,1,224,0|2,3:0|0:0,0:0:0:0:
98,92,98999,2,0,B|157:74|213:104|226:164|196:214|196:214|195:158|165:143|165:143|222:112|249:126,1,377.999988464356,12|0,0:0|2:0,0:0:0:0:
248,125,99570,6,0,B|276:124|276:124|300:71|260:-4|260:-4|292:17|347:11,1,224,0|0,3:0|2:0,0:0:0:0:
331,20,100142,2,0,P|373:11|400:17,3,56,8|0|2|0,0:0|0:0|0:0|0:0,0:0:0:0:
425,82,100427,1,2,0:0:0:0:
456,90,100498,1,2,0:0:0:0:
487,77,100569,1,2,0:0:0:0:
503,49,100641,1,2,0:0:0:0:
495,11,100713,6,0,B|486:159|486:159|429:169|391:143,1,224,0|2,3:0|0:0,0:0:0:0:
407,175,101284,2,0,B|426:173|426:173|448:187|448:187|459:215|459:215|450:248|450:248|414:266|414:266|389:261|389:261|367:267|367:267|347:286|347:286|344:316|344:316|361:344|361:344|391:353|391:353|405:347,1,336,12|0,0:0|2:0,0:0:0:0:
406,348,101856,6,0,B|390:354|390:354|348:341|348:341|285:362|285:362|257:312|257:312|274:251,1,224,0|0,3:0|2:0,0:0:0:0:
270,263,102427,2,0,B|212:237|192:188|192:188|212:237|168:319,1,220.499993270874,8|0,0:0|2:0,0:0:0:0:
105,344,102999,6,0,P|35:312|49:264,1,140,0|2,3:0|0:0,0:0:0:0:
53,258,103570,2,0,B|119:211|111:97|52:63|-24:92|-41:168|27:203,1,293.999991027832,8|0,0:0|2:0,0:0:0:0:
0,179,104142,6,0,B|68:173|68:173|90:162|90:162|164:158,1,168,0|0,3:0|2:0,0:0:0:0:
172,164,104427,2,0,P|171:204|166:231,1,56,4|0,0:0|0:0,0:0:0:0:
250,169,104570,2,0,P|249:209|244:236,1,56,6|2,0:0|0:0,0:0:0:0:
321,294,104713,6,0,L|325:257,1,26.2500010013581,8|0,0:0|0:0,0:0:0:0:
395,318,104856,2,0,L|399:281,1,26.2500010013581,2|0,0:3|0:0,0:0:0:0:
411,189,104999,6,0,L|407:226,1,26.2500010013581,2|0,0:0|0:0,0:0:0:0:
337,165,105142,2,0,L|333:202,1,26.2500010013581,2|0,0:3|0:0,0:0:0:0:
395,318,105284,6,0,P|364:361|243:300,1,210.000008010865,0|2,3:0|0:0,0:0:0:0:
248,298,105855,2,0,B|177:288|162:319|175:376|119:387|27:375|24:293|45:230|156:267|136:331,1,315.000012016297
130,295,106427,6,0,B|165:277|200:226|206:163|112:132|75:208|109:239,1,210.000008010865,0|0,3:0|2:0,0:0:0:0:
97,222,106999,2,0,P|181:207|242:252,1,140,8|0,0:0|3:2,0:0:0:0:
266,303,107356,1,0,3:2:0:0:
266,303,107427,2,0,L|253:349,1,35,0|0,3:2|3:2,0:0:0:0:
225,232,107570,6,0,B|267:204|313:208|313:208|293:163|323:103,1,178.500003404617,0|0,3:0|2:0,0:0:0:0:
313,124,107856,2,0,B|343:94|381:79|424:107|422:159|379:167|360:130|357:93|385:62|408:44,1,178.500003404617,2|2,0:0|0:0,0:0:0:0:
454,71,108142,2,0,L|525:84,1,59.5000011348725,8|0,0:0|0:0,0:0:0:0:
487,204,108427,1,2,0:2:0:0:
487,204,108570,1,2,0:2:0:0:
494,284,108713,6,0,P|439:269|415:167,1,167.999994873047,0|2,3:0|0:0,0:0:0:0:
413,12,109141,1,2,0:0:0:0:
220,51,109284,2,0,P|289:60|309:50,1,83.9999974365235,8|2,0:0|0:0,0:0:0:0:
413,12,109570,2,0,P|397:36|390:73,1,48.9999985046387,2|0,0:0|0:0,0:0:0:0:
386,130,109713,2,0,P|398:155|426:180,1,52.5000020027161,2|0,0:0|0:0,0:0:0:0:
487,204,109856,5,0,3:0:0:0:
487,204,110142,1,8,0:0:0:0:
485,219,110213,1,8,0:0:0:0:
483,234,110284,1,8,0:0:0:0:
482,249,110356,1,8,0:0:0:0:
482,265,110427,6,0,B|361:255|361:255|386:261|404:280,1,157.500006008148,8|0,0:0|2:0,0:0:0:0:
346,331,110713,1,2,0:0:0:0:
288,205,110856,2,0,P|237:245|116:177,1,210.000008010865,2|2,0:0|0:0,0:0:0:0:
161,0,111284,2,0,B|175:-9|207:-7|216:30|216:30|209:86|209:86|214:93|214:93|204:178,1,210.000008010865,2|8,0:0|0:0,0:0:0:0:
112,82,111713,2,0,L|334:58,1,210.000008010865,2|2,0:0|0:0,0:0:0:0:
494,100,112142,5,0,3:0:0:0:
327,52,112284,2,0,B|264:59|264:59|275:139|275:139|360:132,1,210.000008010865,2|2,0:3|0:3,0:0:0:0:
452,30,112713,2,0,P|499:55|483:111,1,105.000004005432,8|2,0:0|0:0,0:0:0:0:
492,181,112999,1,2,0:0:0:0:
492,181,113142,2,0,P|415:120|452:30,1,210.000008010865,2|2,0:0|0:0,0:0:0:0:
494,100,113570,1,2,0:0:0:0:
402,234,113713,1,2,0:0:0:0:
511,304,113856,6,0,B|431:293|370:358|370:358|345:268|252:232,1,315.000012016297,8|2,0:0|3:0,0:0:0:0:
222,303,114356,1,0,0:0:0:0:
222,303,114427,6,0,B|266:257|257:182|202:159|202:159|149:168|113:211|120:273,1,315.000012016297,0|2,3:0|0:3,0:0:0:0:
122,349,114999,2,0,B|97:282|28:238|28:238|50:272|53:307,1,210.000008010865,8|2,0:0|0:0,0:0:0:0:
0,358,115427,2,0,P|34:191|37:132,1,210.000008010865,2|2,0:0|0:0,0:0:0:0:
96,92,115856,2,0,B|144:119|184:97|184:97|197:95|197:95|184:92|184:92|147:66|90:86,1,210.000008010865,2|8,0:0|0:0,0:0:0:0:
238,35,116284,2,0,P|267:65|268:102,1,52.5000020027161,2|0,0:3|0:0,0:0:0:0:
197,146,116427,2,0,P|203:120|197:95,1,52.5000020027161,2|0,0:3|0:0,0:0:0:0:
244,31,116570,2,0,P|273:61|274:98,1,52.5000020027161,2|0,0:3|0:0,0:0:0:0:
286,187,116713,6,0,B|410:161|410:161|391:175|371:211,1,157.500006008148,0|0,3:0|2:0,0:0:0:0:
457,228,116999,2,0,P|459:255|478:292,3,52.5000020027161,2|0|2|0,0:0|0:0|0:3|0:0,0:0:0:0:
504,158,117284,6,0,P|416:237|382:326,1,210.000008010865,8|2,0:0|0:0,0:0:0:0:
292,349,117713,2,0,B|280:299|312:266|312:266|278:276|231:265|207:213,1,210.000008010865,2|2,0:0|0:0,0:0:0:0:
108,287,118142,2,0,B|188:216|188:216|221:182|200:120|128:126,1,210.000008010865,2|8,0:0|0:0,0:0:0:0:
64,89,118570,1,2,0:0:0:0:
166,18,118713,1,2,0:0:0:0:
198,51,118784,1,2,0:3:0:0:
227,28,118856,1,2,0:3:0:0:
245,46,118927,1,2,0:0:0:0:
258,38,118999,6,0,B|332:18|398:70|398:70|364:58|316:69,1,210.000008010865,0|2,3:0|0:0,0:0:0:0:
338,65,119570,2,0,P|360:119|347:201,1,105.000004005432,8|2,0:0|0:0,0:0:0:0:
290,201,119856,1,2,0:0:0:0:
427,198,119999,2,0,L|208:162,1,210.000008010865,2|2,0:0|0:0,0:0:0:0:
105,157,120427,2,0,B|97:117|129:81|218:96|196:187|144:249,1,210.000008010865,2|8,0:0|0:0,0:0:0:0:
235,261,120856,2,0,B|153:268|153:268|110:286|110:286|16:297,1,210.000008010865,2|2,0:0|0:0,0:0:0:0:
4,214,121284,6,0,B|22:372|22:372|97:364,1,210.000008010865,0|2,3:0|0:0,0:0:0:0:
269,341,121713,1,2,0:3:0:0:
269,341,121856,2,0,B|251:183|251:183|176:191,1,210.000008010865,8|2,0:0|0:0,0:0:0:0:
311,251,122284,2,0,B|388:242|388:242|425:203|425:203|508:196,1,210.000008010865,2|2,0:0|0:0,0:0:0:0:
494,115,122713,2,0,L|430:120,1,52.5000020027161,2|0,0:0|0:0,0:0:0:0:
503,196,122856,2,0,L|439:201,1,52.5000020027161,2|0,0:0|0:0,0:0:0:0:
509,281,122998,2,0,L|477:283,4,26.2500010013581,8|0|8|0|8,3:1|0:0|3:1|0:0|3:1,0:0:0:0:
410,321,123284,2,0,L|299:333,1,105.000004005432,8|8,0:1|0:1,0:0:0:0:
200,355,123570,6,0,B|218:263|191:183|191:183|196:222|180:261|180:261|211:227|270:230|270:230|258:184|290:124|335:149|335:149|283:165|249:128|249:128|204:88|140:118,1,685.999979064942,4|2,0:1|0:0,0:0:0:0:
75,144,125713,1,2,0:3:0:0:
75,144,125856,6,0,P|72:98|92:60,1,77.0000023498536,2|2,0:0|0:3,0:0:0:0:
148,114,126142,2,0,P|161:78|156:40,2,77.0000023498536,2|2|2,0:3|0:3|0:0,0:0:0:0:
75,144,126570,1,2,0:3:0:0:
75,144,126713,2,0,P|61:179|66:217,1,77.0000023498536,2|2,0:3|0:3,0:0:0:0:
129,262,126999,2,0,P|133:299|120:335,1,77.0000023498536,2|2,0:0|0:3,0:0:0:0:
29,355,127284,5,2,0:3:0:0:
256,192,127427,12,4,128142,0:0:0:0:
