osu file format v14

[General]
AudioFilename: audio.mp3
AudioLeadIn: 0
PreviewTime: 132712
Countdown: 0
SampleSet: Soft
StackLeniency: 0.3
Mode: 0
LetterboxInBreaks: 0
WidescreenStoryboard: 1

[Editor]
DistanceSpacing: 0.5
BeatDivisor: 4
GridSize: 4
TimelineZoom: 3.599998

[Metadata]
Title:Regret
TitleUnicode:Regret
Artist:ARForest
ArtistUnicode:ARForest
Creator:Fall
Version:Cris' Expert
Source:osu!
Tags:frost era fa featured artist mg mappers' guild _tranquility electronic instrumental artcore gordon123 daycore cris- altai
BeatmapID:2775198
BeatmapSetID:1241523

[Difficulty]
HPDrainRate:5
CircleSize:4.2
OverallDifficulty:8.3
ApproachRate:9.3
SliderMultiplier:1.60000000596046
SliderTickRate:1

[Events]
//Background and Video events
0,0,"ba15558c-f9f9-4c40-a969-16478ddc79f8.jpg",0,0
//Break Periods
//Storyboard Layer 0 (Background)
//Storyboard Layer 1 (Fail)
//Storyboard Layer 2 (Pass)
//Storyboard Layer 3 (Foreground)
//Storyboard Layer 4 (Overlay)
//Storyboard Sound Samples

[TimingPoints]
142,285.714285714286,4,2,0,100,1,0
142,-250,4,2,0,100,0,0
427,-250,4,2,0,100,0,0
9189,-250,4,2,0,5,0,0
9309,285.714285714286,4,2,0,100,1,0
9309,-133.333333333333,4,2,0,54,0,0
18427,285.714285714286,4,2,1,70,1,0
18427,-111.111111111111,4,2,1,70,0,0
23998,-111.111111111111,4,2,1,5,0,0
24142,-111.111111111111,4,2,1,70,0,0
27570,-100,4,2,2,50,0,0
28713,-100,4,2,2,58,0,0
29712,-100,4,2,2,58,0,0
29856,-100,4,2,2,66,0,0
30999,-100,4,2,2,72,0,0
31998,-100,4,2,2,72,0,0
32142,-100,4,2,2,80,0,0
34427,-83.3333333333333,4,2,2,80,0,0
35570,-133.333333333333,4,2,2,80,0,0
36713,-100,4,2,3,85,0,0
37213,-100,4,2,3,5,0,0
37284,-100,4,2,3,85,0,0
38356,-100,4,2,3,5,0,0
38427,-100,4,2,3,85,0,0
39499,-100,4,2,3,5,0,0
39570,-100,4,2,3,85,0,0
40642,-100,4,2,3,5,0,0
40713,-100,4,2,3,85,0,0
41784,-100,4,2,3,5,0,0
41856,-100,4,2,3,85,0,0
42927,-100,4,2,3,5,0,0
42999,-100,4,2,3,85,0,0
44070,-100,4,2,3,5,0,0
44142,-100,4,2,3,85,0,0
44713,-50,4,2,3,85,0,0
45284,-100,4,2,3,85,0,0
45784,-100,4,2,3,5,0,0
45855,-83.3333333333333,4,2,3,85,0,0
46069,-83.3333333333333,4,2,3,5,0,0
46141,-83.3333333333333,4,2,3,85,0,0
46355,-83.3333333333333,4,2,3,5,0,0
46427,-83.3333333333333,4,2,3,85,0,0
47783,-83.3333333333333,4,2,3,5,0,0
47855,-83.3333333333333,4,2,3,85,0,0
48069,-83.3333333333333,4,2,3,5,0,0
48141,-83.3333333333333,4,2,3,85,0,0
48355,-83.3333333333333,4,2,3,5,0,0
48427,-83.3333333333333,4,2,3,85,0,0
48641,-83.3333333333333,4,2,3,5,0,0
48712,-83.3333333333333,4,2,3,85,0,0
50069,-83.3333333333333,4,2,3,5,0,0
50141,-83.3333333333333,4,2,3,85,0,0
50427,-133.333333333333,4,2,3,85,0,0
50927,-133.333333333333,4,2,3,5,0,0
50998,-90.9090909090909,4,2,3,85,0,0
51712,-83.3333333333333,4,2,3,85,0,0
52427,-76.9230769230769,4,2,3,85,0,0
53570,-76.9230769230769,4,2,0,85,0,0
53855,-66.6666666666667,4,2,2,85,0,0
54427,-83.3333333333333,4,2,2,85,0,0
54998,-100,4,2,2,85,0,0
55070,-100,4,2,2,55,0,0
55140,-100,4,2,2,5,0,0
55284,-100,4,2,2,55,0,0
56283,-100,4,2,2,5,0,0
56427,-100,4,2,2,55,0,0
57426,-100,4,2,2,5,0,0
57569,-100,4,2,2,55,0,0
58569,-100,4,2,2,5,0,0
58712,-100,4,2,2,55,0,0
59711,-100,4,2,2,5,0,0
59855,-100,4,2,2,55,0,0
60854,-100,4,2,2,5,0,0
60998,-100,4,2,2,55,0,0
61997,-100,4,2,2,5,0,0
62141,-100,4,2,2,55,0,0
63140,-100,4,2,2,5,0,0
63284,-100,4,2,2,55,0,0
64142,-100,4,2,4,55,0,0
73284,-83.3333333333333,4,2,1,84,0,0
73356,-83.3333333333333,4,2,5,70,0,0
82427,-125,4,2,2,55,0,0
83140,-125,4,2,2,5,0,0
83284,-125,4,2,2,55,0,0
83569,-111.111111111111,4,2,2,64,0,0
84712,-100,4,2,2,70,0,0
85426,-100,4,2,2,5,0,0
85569,-100,4,2,2,70,0,0
85855,-90.9090909090909,4,2,2,77,0,0
85997,-90.9090909090909,4,2,2,5,0,0
86141,-90.9090909090909,4,2,2,77,0,0
86998,-83.3333333333333,4,2,2,85,0,0
88141,-76.9230769230769,4,2,2,85,0,0
89284,-133.333333333333,4,2,2,85,0,0
90927,-133.333333333333,4,2,2,5,0,0
90998,-111.111111111111,4,2,2,85,0,0
91569,-90.9090909090909,4,2,3,90,0,0
92141,-76.9230769230769,4,2,3,90,0,0
92426,-76.9230769230769,4,2,3,5,0,0
92712,-90.9090909090909,4,2,3,90,0,0
92997,-90.9090909090909,4,2,3,5,0,0
93284,-76.9230769230769,4,2,3,90,0,0
93569,-76.9230769230769,4,2,3,5,0,0
93855,-90.9090909090909,4,2,3,90,0,0
94427,-76.9230769230769,4,2,3,90,0,0
94712,-76.9230769230769,4,2,3,5,0,0
94998,-90.9090909090909,4,2,3,90,0,0
95569,-76.9230769230769,4,2,3,90,0,0
96141,-90.9090909090909,4,2,3,90,0,0
96712,-76.9230769230769,4,2,3,90,0,0
97284,-90.9090909090909,4,2,3,90,0,0
97855,-76.9230769230769,4,2,3,90,0,0
98426,-90.9090909090909,4,2,3,90,0,0
98998,-76.9230769230769,4,2,3,90,0,0
99569,-90.9090909090909,4,2,3,90,0,0
99854,-90.9090909090909,4,2,3,5,0,0
100140,-76.9230769230769,4,2,3,90,0,0
100712,-90.9090909090909,4,2,3,90,0,0
101283,-76.9230769230769,4,2,3,90,0,0
101854,-90.9090909090909,4,2,3,90,0,0
102140,-90.9090909090909,4,2,3,5,0,0
102426,-76.9230769230769,4,2,3,90,0,0
102997,-90.9090909090909,4,2,3,90,0,0
103140,-90.9090909090909,4,2,3,5,0,0
103212,-90.9090909090909,4,2,3,90,0,0
103569,-76.9230769230769,4,2,3,90,0,0
104140,-90.9090909090909,4,2,3,90,0,0
104355,-90.9090909090909,4,2,3,5,0,0
104427,-90.9090909090909,4,2,3,90,0,0
104711,-76.9230769230769,4,2,3,90,0,0
105284,-90.9090909090909,4,2,3,90,0,0
105855,-76.9230769230769,4,2,3,90,0,0
106426,-90.9090909090909,4,2,3,90,0,0
106712,-90.9090909090909,4,2,3,5,0,0
106998,-76.9230769230769,4,2,3,90,0,0
107212,-76.9230769230769,4,2,3,5,0,0
107284,-76.9230769230769,4,2,3,90,0,0
107569,-90.9090909090909,4,2,3,90,0,0
107783,-90.9090909090909,4,2,3,5,0,0
107855,-90.9090909090909,4,2,3,90,0,0
108141,-76.9230769230769,4,2,3,90,0,0
108426,-76.9230769230769,4,2,3,90,0,0
108569,-76.9230769230769,4,2,3,90,0,0
108712,-90.9090909090909,4,2,3,90,0,0
109283,-76.9230769230769,4,2,3,90,0,0
109855,-71.4285714285714,4,2,3,90,0,1
113855,-62.5,4,2,3,90,0,1
114427,-71.4285714285714,4,2,3,90,0,1
118427,-62.5,4,2,3,90,0,1
118998,-71.4285714285714,4,2,3,90,0,1
121498,-71.4285714285714,4,2,3,5,0,1
121569,-71.4285714285714,4,2,3,90,0,1
121783,-71.4285714285714,4,2,3,5,0,1
121855,-71.4285714285714,4,2,3,90,0,1
122069,-71.4285714285714,4,2,3,5,0,1
122141,-71.4285714285714,4,2,3,90,0,1
122998,-62.5,4,2,3,90,0,1
123569,-100,4,2,0,65,0,0
128141,-100,4,2,2,65,0,0

[Colours]
Combo1 : 183,116,237
Combo2 : 44,197,192
Combo3 : 85,162,255
Combo4 : 89,210,96

[HitObjects]
8,312,142,5,8,0:0:0:0:
8,312,356,6,0,B|33:129|33:129|39:81|80:75|118:92|111:140|111:140|94:255|94:255|89:302|126:320|168:313|175:265|175:265|191:151|191:151|198:104|239:97|276:115|269:162|269:162|254:277|254:277|247:325|285:342|327:336|334:288|334:288|350:173|350:173|356:126|398:120|436:137|428:184|428:184|412:299|412:299|406:346|444:365|485:358|492:311|492:311|508:196|508:196|514:149|510:95|463:60|406:28|335:65,1,1978.66667403777,4|0,0:0|2:0,0:0:0:0:
334,65,9309,5,2,0:0:0:0:
169,42,9451,1,2,0:0:0:0:
261,7,9594,1,2,0:0:0:0:
261,7,10023,1,2,0:0:0:0:
231,203,10309,5,2,0:0:0:0:
231,203,10594,1,2,0:0:0:0:
261,7,10737,1,2,0:0:0:0:
261,7,11166,1,2,0:0:0:0:
154,141,11451,5,2,0:0:0:0:
154,141,11737,1,2,0:0:0:0:
324,167,11881,1,2,0:0:0:0:
324,167,12309,1,2,0:0:0:0:
154,141,12595,5,2,0:0:0:0:
154,141,12881,1,2,0:0:0:0:
261,7,13024,1,2,0:0:0:0:
261,7,13452,1,2,0:0:0:0:
231,203,13738,5,2,0:0:0:0:
231,203,14024,1,2,0:0:0:0:
169,42,14167,1,2,0:0:0:0:
169,42,14595,1,2,0:0:0:0:
338,69,14881,5,2,0:0:0:0:
338,69,15167,1,2,0:0:0:0:
231,203,15309,1,2,0:0:0:0:
231,203,15738,1,2,0:0:0:0:
261,7,16023,5,2,0:0:0:0:
261,7,16309,1,2,0:0:0:0:
231,203,16452,1,2,0:0:0:0:
231,203,16881,1,2,0:0:0:0:
261,7,17167,1,2,0:0:0:0:
261,7,17309,5,2,0:0:0:0:
338,69,17452,1,2,0:0:0:0:
169,42,17595,1,2,0:0:0:0:
169,42,17881,5,2,0:0:0:0:
154,141,18024,1,2,0:0:0:0:
322,166,18167,1,2,0:0:0:0:
338,69,18309,1,2,0:0:0:0:
231,203,18427,6,0,B|206:233|213:276|232:261|245:304|216:337,2,143.99999614191,0|0|8,3:0|0:0|0:0,0:0:0:0:
485,319,19284,1,0,0:0:0:0:
504,238,19427,1,0,0:0:0:0:
295,243,19570,2,0,B|335:222|335:222|425:260,1,143.99999614191,0|0,0:0|3:0,0:0:0:0:
426,261,20142,1,8,0:0:0:0:
216,337,20427,2,0,P|206:302|196:267,1,71.9999980709551
333,381,20713,6,0,P|314:312|295:243,2,143.99999614191,0|0|8,3:0|0:0|0:0,0:0:0:0:
138,208,21570,1,0,0:0:0:0:
196,268,21713,1,0,3:0:0:0:
334,153,21856,2,0,P|266:138|215:184,1,143.99999614191,0|0,0:0|3:0,0:0:0:0:
215,184,22427,1,8,0:0:0:0:
426,261,22713,2,0,B|433:242|433:242|425:210|425:210|432:192,1,71.9999980709551
366,371,22999,6,0,B|373:348|373:348|332:260|332:260|343:241,2,143.99999614191,0|0|8,3:0|0:0|0:0,0:0:0:0:
163,323,23713,2,0,P|230:308|282:355,1,143.99999614191,0|0,0:0|2:0,0:0:0:0:
432,192,24142,2,0,P|363:173|293:154,1,143.99999614191,0|0,0:0|3:0,0:0:0:0:
293,154,24712,1,8,0:0:0:0:
89,276,24999,1,0,0:0:0:0:
60,194,25142,1,0,0:0:0:0:
233,309,25284,6,0,B|252:316|265:299|252:276|231:270|210:272|178:285|164:323,2,143.99999614191,0|0|8,3:0|0:0|0:0,0:0:0:0:
6,260,26142,2,0,P|-10:291|-1:325,1,71.9999980709551,0|0,0:0|3:0,0:0:0:0:
173,178,26427,2,0,B|163:199|163:199|116:184|116:184|110:186|110:186|71:173|71:173|60:193,1,143.99999614191,0|0,0:0|3:0,0:0:0:0:
256,96,26999,1,8,0:0:0:0:
288,183,27142,1,0,0:0:0:0:
256,96,27284,2,0,P|244:62|231:28,1,71.9999980709551,0|0,3:0|0:0,0:0:0:0:
381,157,27570,6,0,P|355:232|327:307,1,160.000000596046,4|0,1:0|3:2,0:0:0:0:
388,138,28142,1,0,3:2:0:0:
321,325,28427,1,0,3:2:0:0:
248,266,28570,1,0,3:2:0:0:
394,384,28713,6,0,P|455:355|406:306,1,160.000000596046,0|2,3:2|3:2,0:0:0:0:
156,370,29284,1,2,3:2:0:0:
156,370,29570,2,0,P|194:360|233:349,1,80.000000298023,2|0,3:2|3:2,0:0:0:0:
99,207,29856,6,0,B|75:232|75:232|98:317|98:317|76:346,1,160.000000596046,2|2,3:2|3:2,0:0:0:0:
116,194,30427,1,10,3:2:0:0:
63,363,30713,1,10,3:2:0:0:
0,296,30856,1,0,3:2:0:0:
156,370,30999,6,0,B|198:389|235:355|213:339|251:304|293:321,1,160.000000596046,10|10,3:2|3:2,0:0:0:0:
50,143,31570,1,10,3:2:0:0:
50,143,31856,2,0,P|63:106|77:68,1,80.000000298023,10|0,3:2|3:2,0:0:0:0:
19,228,32142,5,8,0:2:0:0:
189,138,32284,1,8,0:2:0:0:
13,213,32427,5,8,0:2:0:0:
220,206,32570,1,8,0:2:0:0:
23,210,32713,5,8,0:2:0:0:
207,280,32856,1,8,0:2:0:0:
27,222,32999,5,8,0:2:0:0:
167,344,33142,1,8,0:2:0:0:
19,228,33284,5,8,0:2:0:0:
189,138,33427,1,8,0:2:0:0:
273,271,33570,5,8,0:2:0:0:
103,182,33713,1,8,0:2:0:0:
0,315,33856,5,8,0:2:0:0:
195,212,33999,1,8,0:2:0:0:
291,365,34142,5,8,0:2:0:0:
96,262,34285,1,8,0:2:0:0:
273,160,34427,5,8,0:2:0:0:
279,157,34498,1,8,0:2:0:0:
285,155,34570,2,0,P|309:163|329:169,1,47.9999987139701,8|8,0:2|0:2,0:0:0:0:
419,262,34713,5,8,0:2:0:0:
413,259,34784,1,8,0:2:0:0:
407,257,34856,2,0,P|382:265|362:271,1,47.9999987139701,8|8,0:2|0:2,0:0:0:0:
507,134,34999,5,8,0:2:0:0:
492,158,35070,1,8,0:2:0:0:
477,183,35142,2,0,P|485:207|491:227,1,47.9999987139701,8|8,0:2|0:2,0:0:0:0:
376,367,35284,5,8,0:2:0:0:
361,343,35355,1,8,0:2:0:0:
347,317,35427,2,0,P|355:292|361:272,1,47.9999987139701,8|8,0:2|0:2,0:0:0:0:
495,356,35570,6,0,P|489:371|485:383,7,30.0000012561679,2|2|2|2|2|2|2|2,0:3|0:3|0:3|0:3|0:3|0:3|0:3|0:3,0:0:0:0:
432,285,36142,6,0,P|434:277|436:271,10,15.0000006280839,2|0|0|0|2|0|0|0|2|0|0,0:0|0:0|0:0|0:0|0:0|0:0|0:0|0:0|0:0|0:0|0:0,0:0:0:0:
347,317,36570,6,0,P|343:326|340:335,2,20.0000008374452,2|0|0,0:3|0:0|0:0,0:0:0:0:
339,293,36713,6,0,B|304:261|304:261|272:271|272:271|265:278|265:278|228:287|228:287|224:294|224:294|181:303|181:303|177:310|177:310|135:322|135:322|103:288,1,280.00000104308,0|0,3:0|2:0,0:0:0:0:
92,203,37284,5,8,0:0:0:0:
92,203,37427,2,0,B|88:200|88:200|91:198|91:198|89:195|89:195|85:195|85:195|84:192,10,20.0000000745057,0|0|0|0|0|0|0|0|0|0|0,3:0|0:0|0:0|0:0|0:0|0:0|0:0|0:0|0:0|0:0|0:0,0:0:0:0:
170,174,37856,6,0,B|183:156|183:156|186:159|186:159|215:152|215:152|215:156|215:156|247:165|247:165|247:170|247:170|270:187|270:187|279:218|279:218|297:241|297:241|301:239|301:239|327:253|327:253|330:249|330:249|354:257|354:257|357:253|357:253|378:247,1,280.00000104308,0|0,3:0|2:0,0:0:0:0:
354,168,38427,5,8,0:0:0:0:
354,168,38570,2,0,B|357:164|357:164|354:162|354:162|355:159|355:159|359:158|359:158|359:155,10,20.0000000745057,0|0|0|0|0|0|0|0|0|0|0,3:0|0:0|0:0|0:0|0:0|0:0|0:0|0:0|0:0|0:0|0:0,0:0:0:0:
443,138,38999,6,0,B|446:161|446:161|450:161|450:161|450:181|450:181|455:179|455:179|456:199|456:199|460:198|460:198|466:217|466:217|479:211|479:211|477:206|477:206|495:195|495:195|492:190|492:190|509:175|509:175|505:171|505:171|516:156|516:156|499:155|499:155|503:151|503:151|484:151|484:151|488:147|488:147|469:148|469:148|471:142|471:142|455:140,1,280.00000104308,0|0,3:0|2:0,0:0:0:0:
392,73,39570,5,8,0:0:0:0:
392,73,39713,2,0,B|395:69|395:69|392:67|392:67|393:64|393:64|397:63|397:63|397:60,10,20.0000000745057,0|0|0|0|0|0|0|0|0|0|0,3:0|0:0|0:0|0:0|0:0|0:0|0:0|0:0|0:0|0:0|0:0,0:0:0:0:
359,154,40142,6,0,B|298:135|298:135|300:142|300:142|239:123|239:123|240:130|240:130|184:112|184:112|205:139|205:139|210:134|210:134|235:161,1,280.00000104308,0|0,3:0|2:0,0:0:0:0:
272,236,40713,6,0,B|281:232|281:232|284:234|284:234|294:229|294:229|298:231|298:231|308:227,1,40.0000001490115,10|0,0:0|0:0,0:0:0:0:
229,301,40856,2,0,B|237:308|237:308|241:307|241:307|249:314|249:314|253:313|253:313|262:320,1,40.0000001490115,2|0,0:0|0:0,0:0:0:0:
166,254,40999,2,0,B|172:247|172:247|176:247|176:247|182:237|182:237|187:237|187:237|193:229,1,40.0000001490115,2|0,0:0|0:0,0:0:0:0:
152,334,41142,2,0,B|158:342|158:342|162:342|162:342|168:352|168:352|173:352|173:352|179:360,1,40.0000001490115,2|0,0:0|0:0,0:0:0:0:
90,279,41284,6,0,B|74:284|74:284|71:288|71:288|48:283|48:283|45:287|45:287|27:272|27:272|23:276|23:276|17:258|17:258|11:260|11:260|13:239|13:239|8:237|8:237|15:218|15:218|12:215|12:215|28:201|28:201|25:197|25:197|48:190|48:190|47:186|47:186|69:190|69:190|72:186|72:186|87:196|87:196|93:192|93:192|103:205,1,280.00000104308,0|0,3:0|2:0,0:0:0:0:
165,154,41856,5,8,0:0:0:0:
165,154,41999,2,0,B|168:150|168:150|165:148|165:148|166:145|166:145|170:144|170:144|170:139,10,20.0000000745057,0|0|0|0|0|0|0|0|0|0|0,3:0|0:0|0:0|0:0|0:0|0:0|0:0|0:0|0:0|0:0|0:0,0:0:0:0:
97,101,42427,6,0,B|94:81|94:81|103:79|103:79|115:59|115:59|124:65|124:65|150:45|150:45|156:52|156:52|182:48|182:48|191:56|191:56|208:54|208:54|225:72|225:72|234:71|234:71|243:97|243:97|253:98|253:98|256:121|256:121|260:129|260:129|252:141,1,280.00000104308,0|0,3:0|2:0,0:0:0:0:
224,220,42999,6,0,B|228:228|228:228|231:229|231:229|236:239|236:239|240:240|240:240|245:250,1,40.0000001490115,8|0,0:0|0:0,0:0:0:0:
146,238,43142,2,0,B|142:247|142:247|145:250|145:250|140:260|140:260|143:264|143:264|140:274,1,40.0000001490115,2|0,0:0|0:0,0:0:0:0:
85,184,43284,2,0,B|76:188|76:188|75:191|75:191|65:196|65:196|64:200|64:200|54:205,1,40.0000001490115,2|0,0:3|0:0,0:0:0:0:
165,154,43427,1,2,0:0:0:0:
123,354,43570,6,0,B|158:363|158:363|164:359|164:359|221:376|221:376|225:372|225:372|268:383|268:383|260:363|260:363|264:358|264:358|257:344|257:344|259:339|259:339|251:326|251:326|239:336|239:336|236:332|236:332|225:349|225:349|221:344|221:344|211:355,1,280.00000104308,0|0,3:0|2:0,0:0:0:0:
140,273,44142,5,8,0:0:0:0:
140,273,44284,2,0,B|142:268|142:268|138:267|138:267|139:263|139:263|143:262|143:262|142:257,10,20.0000000745057,0|0|0|0|0|0|0|0|0|0|0,3:0|0:0|0:0|0:0|0:0|0:0|0:0|0:0|0:0|0:0|0:0,0:0:0:0:
77,202,44713,6,0,B|72:198|72:198|67:201|67:201|65:193|65:193|69:192|69:192|75:187|75:187|77:192|77:192|80:194,4,40.0000001490115,2|0|2|0|2,3:2|0:0|0:0|0:0|0:0,0:0:0:0:
252,142,44999,2,0,B|256:138|256:138|261:140|261:140|262:133|262:133|258:131|258:131|252:127|252:127|250:132|250:132|247:134,4,40.0000001490115,2|0|2|0|2,0:0|0:0|0:0|0:0|0:0,0:0:0:0:
20,20,45284,6,0,B|27:61|63:70|63:70|61:78|61:78|69:73|69:73|80:91|101:99|101:99|104:107|104:107|110:101|110:101|130:101|150:89|150:89|155:96|155:96|156:87|156:87|194:92|218:58,1,280.00000104308,10|0,0:0|2:0,0:0:0:0:
306,2,45855,6,0,B|272:10|272:10|291:20|291:20|295:17|295:17|341:40|341:40|345:38|345:38|369:50,1,143.99999614191,0|0,3:0|2:0,0:0:0:0:
477,133,46141,2,0,B|493:103|493:103|473:109|473:109|473:114|473:114|424:131|424:131|423:136|423:136|397:144,1,143.99999614191,8|0,0:0|2:0,0:0:0:0:
398,144,46427,1,0,3:0:0:0:
235,202,46569,5,2,0:0:0:0:
242,173,46641,1,2,0:0:0:0:
262,193,46712,1,8,0:0:0:0:
440,278,46855,5,2,0:0:0:0:
433,249,46927,1,0,0:0:0:0:
413,269,46998,2,0,B|401:263|401:263|398:265|398:265|387:258|387:258|385:260|385:260|371:254,1,47.9999987139701,0|2,3:0|0:0,0:0:0:0:
195,325,47141,2,0,B|207:331|207:331|210:329|210:329|221:336|221:336|223:334|223:334|237:340,1,47.9999987139701,2|2,0:0|0:0,0:0:0:0:
236,339,47284,1,8,0:0:0:0:
489,384,47427,5,2,0:0:0:0:
482,355,47499,1,0,0:0:0:0:
462,375,47569,2,0,B|426:367|426:367|426:371|426:371|397:361|397:361|398:366|398:366|359:354|359:354|383:342,1,143.99999614191,0|0,3:0|2:0,0:0:0:0:
298,305,47855,2,0,B|262:313|262:313|262:309|262:309|233:319|233:319|234:314|234:314|195:325|195:325|219:338,1,143.99999614191,8|0,0:0|2:0,0:0:0:0:
371,254,48141,6,0,B|369:235|356:223|356:223|358:220|358:220|354:221|354:221|332:209|332:209|334:206|334:206|331:208|331:208|311:206|311:206|308:202|308:202|306:206|306:206|288:208|273:224,1,143.99999614191,0|0,3:0|2:0,0:0:0:0:
478,307,48427,2,0,B|477:329|463:341|463:341|465:345|465:345|461:344|461:344|439:356|439:356|441:358|441:358|438:356|438:356|416:358|416:358|415:362|415:362|412:359|412:359|396:357|383:342,1,143.99999614191,8|0,0:0|2:0,0:0:0:0:
445,240,48712,5,0,3:0:0:0:
459,221,48784,1,0,0:0:0:0:
473,202,48855,2,0,B|477:201|477:201|492:209|492:209|496:208|496:208|511:216|511:216|516:214,1,47.9999987139701,2|2,0:0|0:0,0:0:0:0:
418,142,48998,1,8,0:0:0:0:
298,305,49141,5,2,0:0:0:0:
284,286,49213,1,0,0:0:0:0:
268,267,49284,2,0,B|264:266|264:266|249:274|249:274|245:273|245:273|230:281|230:281|225:279,1,47.9999987139701,0|2,3:0|0:0,0:0:0:0:
317,196,49427,2,0,B|321:195|321:195|336:203|336:203|340:202|340:202|355:210|355:210|360:208,1,47.9999987139701,2|2,0:0|0:0,0:0:0:0:
238,161,49569,1,8,0:0:0:0:
377,10,49712,5,2,0:0:0:0:
385,32,49784,1,0,0:0:0:0:
393,54,49855,2,0,B|396:63|396:63|389:61|389:61|381:92|351:82|351:82|344:84|344:84|345:77|345:77|331:53|358:38|358:38|359:31|359:31|366:33,1,143.99999614191,0|0,3:0|2:0,0:0:0:0:
463,105,50141,5,8,0:0:0:0:
449,125,50213,1,0,0:0:0:0:
455,147,50284,1,2,0:3:0:0:
441,167,50356,1,2,0:3:0:0:
447,187,50427,6,0,B|403:160|354:181|337:224|337:224|322:215|317:196|317:196|309:214|289:225,1,210.000008793175,0|0,3:0|2:0,0:0:0:0:
210,190,50998,6,0,B|203:206|203:206|204:212|204:212|197:230,1,44.0000015066861,8|2,0:0|0:0,0:0:0:0:
199,176,51141,2,0,B|182:183|182:183|179:188|179:188|161:195,1,44.0000015066861,2|2,0:0|0:0,0:0:0:0:
193,160,51284,2,0,B|176:153|176:153|170:154|170:154|152:147,1,44.0000015066861,2|0,0:0|0:0,0:0:0:0:
190,142,51427,2,0,B|182:125|182:125|177:122|177:122|170:104,1,44.0000015066861,2|0,0:0|0:0,0:0:0:0:
265,140,51569,1,0,3:0:0:0:
134,280,51712,5,2,0:0:0:0:
142,302,51784,1,2,0:0:0:0:
150,324,51855,2,0,B|150:328|150:328|142:342|142:342|143:346|143:346|134:361|134:361|136:366,1,47.9999987139701,0|0,3:0|0:0,0:0:0:0:
242,284,51998,2,0,B|241:288|241:288|249:302|249:302|248:306|248:306|257:321|257:321|255:326,1,47.9999987139701,0|0,3:0|0:0,0:0:0:0:
161,195,52141,6,0,B|135:203|135:203|135:200|135:200|103:214|103:214|103:211|103:211|76:221,1,95.9999974279402,8|0,0:0|0:0,0:0:0:0:
26,163,52355,1,0,3:0:0:0:
32,144,52427,2,0,B|30:138|30:138|39:122|39:122|38:118|38:118|47:102|47:102|46:98,1,51.999997813344,0|0,3:0|0:0,0:0:0:0:
0,237,52569,1,8,0:0:0:0:
166,86,52712,6,0,P|160:59|144:42,1,51.999997813344,4|0,0:0|0:0,0:0:0:0:
228,132,52855,2,0,P|242:108|243:85,1,51.999997813344,0|0,3:0|0:0,0:0:0:0:
241,208,52998,2,0,P|268:202|284:186,1,51.999997813344,0|0,3:0|0:0,0:0:0:0:
195,269,53141,2,0,P|218:283|241:284,1,51.999997813344,8|0,0:0|0:0,0:0:0:0:
161,195,53284,5,0,3:0:0:0:
124,197,53355,1,0,3:0:0:0:
96,221,53427,1,0,3:0:0:0:
84,255,53498,1,0,3:0:0:0:
92,300,53569,5,8,0:1:0:0:
47,284,53641,1,8,0:1:0:0:
16,249,53712,1,8,0:1:0:0:
20,202,53784,1,8,0:1:0:0:
55,141,53855,6,0,B|51:130|51:130|48:129|48:129|49:125|49:125|45:115,7,30.0000012561679,2|0|2|0|2|0|2|0,0:3|0:0|0:3|0:0|0:3|0:0|0:3|0:0,0:0:0:0:
117,77,54141,6,0,B|122:66|122:66|125:66|125:66|125:62|125:62|131:53,7,30.0000012561679,8|0|2|0|2|0|2|0,0:0|0:0|0:3|0:0|0:3|0:0|0:3|0:0,0:0:0:0:
46,37,54427,6,0,B|34:22|34:22|29:22|29:22|28:16|28:16|17:3,2,47.9999987139701,2|2|2,0:3|0:3|0:3,0:0:0:0:
161,195,54712,5,2,0:2:0:0:
228,132,54855,1,2,0:2:0:0:
94,258,54998,6,0,P|64:231|35:205,1,80.000000298023,4|0,0:0|2:0,0:0:0:0:
180,286,55284,2,0,B|219:307|263:275|236:254|284:223|318:241,1,160.000000596046,2|2,0:0|0:0,0:0:0:0:
318,241,55712,1,0,0:0:0:0:
161,195,55855,2,0,P|134:165|107:135,1,80.000000298023,2|2,0:0|0:0,0:0:0:0:
180,286,56141,6,0,P|153:315|126:345,1,80.000000298023,2|0,0:0|2:0,0:0:0:0:
245,222,56427,2,0,P|295:165|368:184,1,160.000000596046,2|2,0:0|0:0,0:0:0:0:
368,184,56855,1,0,0:0:0:0:
336,313,56998,2,0,P|313:279|318:242,1,80.000000298023,2|2,0:0|0:0,0:0:0:0:
449,313,57284,6,0,P|453:351|431:384,1,80.000000298023,2|0,0:0|2:0,0:0:0:0:
392,262,57569,2,0,B|427:211|489:229|489:229|493:253|513:270,1,160.000000596046,2|2,0:0|0:0,0:0:0:0:
512,270,57998,1,0,0:0:0:0:
368,184,58141,2,0,P|363:145|386:113,1,80.000000298023,2|2,0:0|0:0,0:0:0:0:
245,222,58427,6,0,P|242:182|214:155,1,80.000000298023,2|0,0:0|2:0,0:0:0:0:
318,242,58712,2,0,B|279:355|279:355|275:335|261:320,1,160.000000596046,2|2,0:0|0:0,0:0:0:0:
260,319,59141,1,0,0:0:0:0:
392,262,59284,2,0,P|405:299|418:337,1,80.000000298023,2|2,0:0|0:0,0:0:0:0:
245,222,59569,6,0,P|258:184|271:146,1,80.000000298023,2|0,0:0|2:0,0:0:0:0:
180,286,59855,2,0,B|146:270|146:270|119:191|119:191|84:176,1,160.000000596046,2|2,0:0|0:0,0:0:0:0:
261,320,60284,2,0,P|299:307|337:294,1,80.000000298023,0|2,0:0|0:0,0:0:0:0:
191,373,60569,1,2,0:0:0:0:
245,222,60712,6,0,P|258:184|271:146,1,80.000000298023,2|0,0:0|2:0,0:0:0:0:
337,294,60998,2,0,P|403:304|385:239,1,160.000000596046,2|2,0:0|0:0,0:0:0:0:
261,320,61427,1,0,0:0:0:0:
362,166,61569,2,0,P|400:158|433:179,1,80.000000298023,2|2,0:0|0:0,0:0:0:0:
297,75,61855,6,0,P|258:67|225:88,1,80.000000298023,2|0,0:0|2:0,0:0:0:0:
455,0,62141,2,0,B|494:113|494:113|498:93|512:78,1,160.000000596046,2|2,0:0|0:0,0:0:0:0:
380,30,62569,1,0,0:0:0:0:
433,179,62712,2,0,P|420:141|407:103,1,80.000000298023,2|2,0:0|0:0,0:0:0:0:
245,222,62998,6,0,P|258:184|271:146,1,80.000000298023,2|0,0:0|2:0,0:0:0:0:
409,293,63284,2,0,B|380:238|316:248|316:248|309:271|287:286,1,160.000000596046,2|2,0:0|0:0,0:0:0:0:
433,179,63712,1,0,0:0:0:0:
340,347,63855,2,0,P|334:378|356:356,1,80.000000298023,2|2,0:0|0:0,0:0:0:0:
212,291,64141,6,0,B|173:270|129:302|156:323|108:354|74:336,1,160.000000596046,2|2,0:0|0:0,0:0:0:0:
234,212,64569,1,2,0:0:0:0:
56,173,64713,2,0,P|69:211|82:249,1,80.000000298023,0|2,0:0|0:0,0:0:0:0:
193,133,64998,1,0,0:0:0:0:
101,75,65141,1,2,0:0:0:0:
344,16,65284,6,0,P|361:80|296:68,1,160.000000596046,2|2,0:0|0:0,0:0:0:0:
405,145,65712,1,2,0:0:0:0:
234,212,65855,2,0,P|272:225|310:238,1,80.000000298023,0|2,0:0|0:0,0:0:0:0:
443,331,66141,1,2,0:0:0:0:
354,361,66284,1,2,0:0:0:0:
405,145,66427,6,0,B|518:184|518:184|498:188|483:202,1,160.000000596046,2|2,0:0|0:0,0:0:0:0:
362,80,66855,1,2,0:0:0:0:
511,30,66998,2,0,P|473:43|435:56,1,80.000000298023,0|2,0:0|0:0,0:0:0:0:
219,128,67284,1,0,0:0:0:0:
308,158,67427,1,2,0:0:0:0:
96,93,67569,6,0,B|130:109|130:109|157:188|157:188|192:203,1,160.000000596046,2|2,0:0|0:0,0:0:0:0:
288,56,67998,1,2,0:0:0:0:
325,236,68141,2,0,P|316:196|308:158,1,80.000000298023,0|2,0:0|0:0,0:0:0:0:
124,265,68427,1,2,0:0:0:0:
213,295,68570,1,2,0:0:0:0:
96,93,68712,6,0,B|64:149|112:194|112:194|118:169|138:156,1,160.000000596046,2|2,0:0|0:0,0:0:0:0:
183,16,69141,1,2,0:0:0:0:
264,191,69284,2,0,P|225:183|192:204,1,80.000000298023,0|2,0:0|0:0,0:0:0:0:
288,56,69569,1,0,0:0:0:0:
96,93,69712,1,2,0:0:0:0:
288,56,69855,6,0,B|308:73|312:97|312:97|353:44|409:66,1,160.000000596046,2|2,0:0|0:0,0:0:0:0:
264,191,70284,1,2,0:0:0:0:
399,226,70427,2,0,P|390:187|382:148,1,80.000000298023,0|2,0:0|0:0,0:0:0:0:
309,294,70712,1,2,0:0:0:0:
382,148,70855,1,2,0:0:0:0:
309,294,70998,6,0,B|422:333|422:333|402:337|387:351,1,160.000000596046,2|2,0:0|0:0,0:0:0:0:
264,191,71427,1,2,0:0:0:0:
303,370,71569,2,0,P|265:356|227:343,1,80.000000298023,0|2,0:0|0:0,0:0:0:0:
89,296,71855,1,0,0:0:0:0:
264,191,71998,1,2,0:0:0:0:
89,296,72141,6,0,P|102:361|154:319,1,160.000000596046,2|2,0:0|0:0,0:0:0:0:
64,152,72569,1,2,0:0:0:0:
264,191,72712,2,0,P|226:204|188:217,1,80.000000298023,0|2,0:0|0:0,0:0:0:0:
105,49,72998,1,2,0:0:0:0:
304,96,73141,1,2,0:0:0:0:
105,49,73284,6,0,P|151:33|196:17,1,95.9999974279402,0|0,3:0|0:0,0:0:0:0:
195,17,73569,1,8,0:0:0:0:
135,200,73712,1,8,0:0:0:0:
135,200,73855,2,0,P|112:192|90:184,2,47.9999987139701,2|2|8,0:0|0:0|0:0,0:0:0:0:
304,96,74141,1,0,0:0:0:0:
105,49,74284,1,8,0:0:0:0:
304,96,74427,6,0,P|326:55|313:10,1,95.9999974279402,0|8,0:0|0:0,0:0:0:0:
313,10,74712,1,8,0:0:0:0:
199,147,74855,1,0,0:0:0:0:
199,147,74998,2,0,P|175:106|188:62,1,95.9999974279402,8|0,0:0|0:0,0:0:0:0:
247,237,75284,1,2,0:0:0:0:
90,184,75427,1,8,0:0:0:0:
304,96,75569,6,0,P|350:112|395:128,1,95.9999974279402,8|0,0:0|0:0,0:0:0:0:
394,127,75855,1,8,0:0:0:0:
188,62,75998,1,8,0:0:0:0:
366,3,76141,2,0,P|374:25|382:48,2,47.9999987139701,2|2|8,0:0|0:0|0:0,0:0:0:0:
296,183,76427,1,0,0:0:0:0:
188,62,76569,1,8,0:0:0:0:
296,183,76712,6,0,P|318:141|304:96,1,95.9999974279402,0|8,0:0|0:0,0:0:0:0:
304,96,76998,1,8,0:0:0:0:
166,236,77140,1,0,0:0:0:0:
166,236,77284,2,0,P|142:195|155:151,1,95.9999974279402,8|8,0:0|0:0,0:0:0:0:
294,274,77569,2,0,P|288:299|283:320,1,47.9999987139701,8|0,0:0|0:0,0:0:0:0:
208,368,77712,1,8,0:0:0:0:
202,344,77783,1,8,0:0:0:0:
196,321,77855,6,0,P|148:332|102:344,1,95.9999974279402,8|0,0:0|0:0,0:0:0:0:
294,274,78141,1,8,0:0:0:0:
155,151,78284,1,8,0:0:0:0:
155,151,78427,2,0,P|160:174|166:197,2,47.9999987139701,2|2|8,0:0|0:0|0:0,0:0:0:0:
196,321,78712,1,0,0:0:0:0:
262,170,78855,1,8,0:0:0:0:
196,321,78998,6,0,P|151:334|109:312,1,95.9999974279402,0|8,0:0|0:0,0:0:0:0:
294,274,79284,1,8,0:0:0:0:
155,151,79427,1,0,0:0:0:0:
155,151,79569,2,0,P|133:192|147:236,1,95.9999974279402,8|0,0:0|0:0,0:0:0:0:
334,172,79855,1,2,0:0:0:0:
166,73,79998,1,8,0:0:0:0:
293,3,80141,6,0,P|304:49|316:97,1,95.9999974279402,8|0,0:0|0:0,0:0:0:0:
210,198,80427,1,8,0:0:0:0:
395,117,80569,1,8,0:0:0:0:
395,117,80712,2,0,P|389:93|383:70,2,47.9999987139701,2|2|8,0:0|0:0|0:0,0:0:0:0:
166,73,80998,2,0,P|171:49|177:26,2,47.9999987139701,0|0|8,0:0|0:0|0:0,0:0:0:0:
249,268,81284,6,0,P|203:280|162:259,1,95.9999974279402,0|8,0:0|0:0,0:0:0:0:
334,172,81569,1,8,0:0:0:0:
287,361,81712,1,0,0:0:0:0:
287,361,81855,2,0,P|332:348|373:369,1,95.9999974279402,8|8,0:0|0:0,0:0:0:0:
162,259,82141,2,0,P|156:283|151:306,2,47.9999987139701,8|0|8,0:0|0:0|0:0,0:0:0:0:
334,172,82427,6,0,P|286:135|225:149,1,128.000000476837,2|2,3:0|3:0,0:0:0:0:
270,209,82855,1,0,0:0:0:0:
434,102,82998,2,0,P|441:133|449:164,1,64.0000002384184,2|0,3:0|2:0,0:0:0:0:
302,64,83284,2,0,P|305:48|309:33,2,32.0000001192092,2|0|0,3:0|0:0|0:0,0:0:0:0:
484,21,83569,6,0,P|448:12|415:4,1,71.9999980709551,2|0,3:0|0:0,0:0:0:0:
414,3,83855,1,2,3:0:0:0:
270,209,84141,2,0,P|305:200|339:192,1,71.9999980709551,2|0,3:0|0:0,0:0:0:0:
165,115,84427,1,2,3:0:0:0:
216,335,84569,1,2,3:0:0:0:
165,115,84712,6,0,B|139:149|139:149|166:263,1,160.000000596046,2|2,3:0|3:0,0:0:0:0:
129,343,85141,1,0,0:0:0:0:
270,209,85284,2,0,P|278:246|288:286,1,80.000000298023,2|0,3:0|2:0,0:0:0:0:
148,186,85569,1,2,3:0:0:0:
148,186,85712,1,0,0:0:0:0:
300,63,85855,6,0,P|257:52|214:42,1,88.0000030133723,2|0,3:0|2:0,0:0:0:0:
214,42,86141,1,2,3:0:0:0:
288,287,86427,1,2,3:0:0:0:
365,187,86569,1,2,3:0:0:0:
231,349,86712,1,2,3:0:0:0:
162,249,86855,1,2,3:0:0:0:
145,269,86926,1,0,0:0:0:0:
129,290,86997,5,2,3:0:0:0:
231,157,87141,1,2,3:0:0:0:
231,349,87284,5,2,3:0:0:0:
106,191,87428,1,2,3:0:0:0:
333,290,87569,5,2,3:0:0:0:
231,157,87713,1,2,3:0:0:0:
231,349,87856,5,2,3:0:0:0:
372,191,87998,1,2,3:0:0:0:
129,290,88141,5,2,3:0:0:0:
147,265,88212,1,2,3:0:0:0:
172,246,88283,1,2,3:0:0:0:
200,235,88355,1,2,3:0:0:0:
231,230,88426,1,2,3:0:0:0:
261,234,88498,1,2,3:0:0:0:
290,246,88569,1,2,3:0:0:0:
314,265,88640,1,2,3:0:0:0:
333,289,88712,6,0,P|327:313|321:339,1,51.999997813344,2|2,3:0|3:0,0:0:0:0:
129,290,88855,2,0,P|123:265|117:239,1,51.999997813344,2|2,3:0|3:0,0:0:0:0:
269,130,88998,1,10,3:0:0:0:
255,85,89070,1,10,3:0:0:0:
208,84,89141,1,10,3:0:0:0:
193,128,89213,1,10,3:0:0:0:
231,157,89284,5,4,0:0:0:0:
256,192,89355,12,0,90927,2:0:0:0:
206,246,90998,6,0,B|206:240|206:240|200:238|200:238|199:232,6,17.9999995177388,8|0|0|0|0|0|0,0:0|0:0|0:0|0:0|0:0|0:0|0:0,0:0:0:0:
256,312,91284,6,0,B|256:317|256:317|262:319|262:319|263:325,6,17.9999995177388,2|0|0|0|2|0|0,0:0|0:0|0:0|0:0|0:0|0:0|0:0,0:0:0:0:
288,236,91569,6,0,B|406:176|406:176|392:217,1,176.000006026745,0|2,3:0|0:0,0:0:0:0:
177,109,92141,6,0,B|167:116|167:116|165:119|165:119|148:115|148:115|145:118|145:118|132:107|132:107|129:110|129:110|124:97|124:97|120:98|120:98|121:83|121:83|118:81|118:81|123:67|123:67|121:65|121:65|133:54|133:54|130:51|130:51|148:46|148:46|147:43|147:43|163:46|163:46|165:43|165:43|177:50|177:50|181:48|181:48|188:58,1,207.999991253376,12|0,0:0|2:0,0:0:0:0:
92,259,92712,6,0,B|60:268|60:268|46:222|46:222|93:209|93:209|105:253,1,176.000006026745,0|0,3:0|2:0,0:0:0:0:
347,316,93284,6,0,B|374:305|374:305|381:297|381:297|380:306|380:306|382:325|382:325|328:349|328:349|324:358|324:358|319:349|319:349|264:326,1,207.999991253376,8|0,0:0|2:0,0:0:0:0:
424,122,93855,6,0,B|451:237|451:237|471:219|471:219|465:189,1,176.000006026745,0|2,3:0|0:0,0:0:0:0:
256,102,94427,6,0,B|244:90|244:90|242:92|242:92|220:90|220:90|221:93|221:93|198:103|198:103|198:107|198:107|183:121|183:121|180:145|180:145|169:164|169:164|166:163|166:163|148:176|148:176|146:173|146:173|129:182|129:182|126:179|126:179|110:177,1,207.999991253376,8|0,0:0|2:0,0:0:0:0:
331,32,94998,6,0,B|395:8|441:61|441:61|428:35|436:8,1,176.000006026745,0|0,3:0|0:0,0:0:0:0:
253,185,95569,6,0,B|258:196|258:196|255:200|255:200|261:213|261:213|259:218|259:218|264:231,1,51.999997813344,8|0,0:0|0:0,0:0:0:0:
350,278,95712,2,0,B|355:289|355:289|352:293|352:293|358:306|358:306|356:311|356:311|361:324,1,51.999997813344,2|0,0:3|0:0,0:0:0:0:
237,190,95855,6,0,B|242:201|242:201|239:205|239:205|245:218|245:218|243:223|243:223|248:236,1,51.999997813344,2|0,0:0|0:0,0:0:0:0:
334,283,95998,2,0,B|339:294|339:294|336:298|336:298|342:311|342:311|340:316|340:316|345:329,1,51.999997813344,2|0,0:3|0:0,0:0:0:0:
220,195,96141,6,0,P|240:276|262:365,1,176.000006026745,0|2,3:0|0:0,0:0:0:0:
392,191,96712,6,0,B|395:186|395:186|391:184|391:184|393:180|393:180|397:179|397:179|397:174,14,25.999998906672,8|0|0|0|0|0|0|0|0|0|0|0|0|0|0,0:0|0:0|0:0|0:0|0:0|0:0|0:0|0:0|0:0|0:0|0:0|0:0|0:0|0:0|0:0,0:0:0:0:
359,105,97284,6,0,B|381:84|381:84|490:123|490:123|512:103,1,176.000006026745,0|0,3:0|0:0,0:0:0:0:
312,8,97855,6,0,B|301:13|301:13|297:11|297:11|284:18|284:18|279:16|279:16|267:22,1,51.999997813344,8|0,0:0|0:0,0:0:0:0:
167,84,97998,2,0,B|177:89|177:89|181:87|181:87|194:94|194:94|199:92|199:92|213:99,1,51.999997813344,0|0,1:0|0:0,0:0:0:0:
306,165,98141,2,0,B|295:170|295:170|291:168|291:168|278:175|278:175|273:173|273:173|261:179,1,51.999997813344,0|0,1:0|0:0,0:0:0:0:
173,241,98284,2,0,B|183:246|183:246|187:244|187:244|200:251|200:251|205:249|205:249|217:255,1,51.999997813344,0|0,1:0|0:0,0:0:0:0:
369,350,98427,6,0,P|296:315|251:383,1,176.000006026745,0|2,3:0|0:0,0:0:0:0:
444,251,98998,6,0,B|447:256|447:256|443:258|443:258|445:262|445:262|449:263|449:263|449:268,14,25.999998906672,12|0|0|0|0|0|0|0|0|0|0|0|0|0|0,0:0|0:0|0:0|0:0|0:0|0:0|0:0|0:0|0:0|0:0|0:0|0:0|0:0|0:0|0:0,0:0:0:0:
392,191,99569,6,0,B|284:229|284:229|313:250|313:250|325:228,1,176.000006026745,0|0,3:0|2:0,0:0:0:0:
464,46,100141,6,0,B|450:44|450:44|450:41|450:41|434:40|434:40|437:38|437:38|421:35|421:35|423:33|423:33|408:31|408:31|410:28|410:28|397:28|397:28|397:24|397:24|382:21,1,103.999995626688,8|2,0:0|0:0,0:0:0:0:
291,103,100355,1,0,0:0:0:0:
291,103,100427,6,0,B|286:93|286:93|288:89|288:89|281:76|281:76|283:71|283:71|277:59,1,51.999997813344,2|2,0:0|0:0,0:0:0:0:
392,191,100569,2,0,B|397:181|397:181|395:177|395:177|402:164|402:164|400:159|400:159|406:147,1,51.999997813344,2|2,0:0|0:0,0:0:0:0:
256,244,100712,6,0,B|212:258|173:215|203:195|165:151|119:164,1,176.000006026745,0|2,3:0|0:0,0:0:0:0:
363,295,101284,6,0,B|363:302|363:302|359:303|359:303|357:307|357:307|361:309|361:309|358:314,14,25.999998906672,12|0|0|0|0|0|0|0|0|0|0|0|0|0|0,0:0|0:0|0:0|0:0|0:0|0:0|0:0|0:0|0:0|0:0|0:0|0:0|0:0|0:0|0:0,0:0:0:0:
283,352,101855,6,0,B|161:323|161:323|195:361,1,176.000006026745,0|0,3:0|2:0,0:0:0:0:
449,270,102427,6,0,B|446:265|446:265|450:263|450:263|448:259|448:259|444:258|444:258|444:250,14,25.999998906672,8|0|0|0|0|0|0|0|0|0|0|0|0|0|0,0:0|0:0|0:0|0:0|0:0|0:0|0:0|0:0|0:0|0:0|0:0|0:0|0:0|0:0|0:0,0:0:0:0:
392,191,102998,6,0,P|403:150|416:107,1,88.0000030133723,0|0,3:0|2:0,0:0:0:0:
495,86,103212,1,0,0:0:0:0:
495,86,103284,2,0,B|497:81|497:81|494:80|494:80|495:77|495:77|499:76|499:76|499:70,6,22.0000007533431,2|0|2|0|2|0|2,0:0|0:0|0:0|0:0|0:0|0:0|0:0,0:0:0:0:
439,19,103569,6,0,B|441:14|441:14|438:12|438:12|439:8|439:8|443:7|443:7|443:0,14,25.999998906672,8|0|0|0|0|0|0|0|2|0|0|0|0|0|0,0:0|0:0|0:0|0:0|0:0|0:0|0:0|0:0|0:2|0:0|0:0|0:0|0:0|0:0|0:0,0:0:0:0:
361,48,104141,6,0,P|298:29|235:11,1,132.000004520058,0|0,3:0|2:0,0:0:0:0:
159,76,104427,2,0,B|154:67|154:67|156:63|156:63|150:52|150:52|151:47|151:47|146:37,1,44.0000015066861,4|0,0:0|0:0,0:0:0:0:
262,118,104569,2,0,B|257:126|257:126|259:130|259:130|253:141|253:141|254:146|254:146|249:156,1,44.0000015066861,6|2,0:0|0:0,0:0:0:0:
140,82,104712,6,0,B|138:68|138:68|135:68|135:68|134:53|134:53|132:55|132:55|129:40|129:40|127:41|127:41|125:26|125:26|122:28|122:28|122:15|122:15|118:15|118:15|115:1,3,103.999995626688,8|2|2|2,0:0|0:3|0:0|0:3,0:0:0:0:
0,195,105284,6,0,P|73:160|118:227,1,176.000006026745,0|2,3:0|0:0,0:0:0:0:
262,118,105855,6,0,B|266:120|266:120|269:118|269:118|272:119|272:119|273:124|273:124|280:125,14,25.999998906672,8|0|0|0|0|0|0|0|0|0|0|0|0|0|0,0:0|0:0|0:0|0:0|0:0|0:0|0:0|0:0|3:2|0:0|3:2|0:0|3:2|0:0|3:2,0:0:0:0:
193,80,106427,6,0,B|172:102|172:102|211:209|211:209|188:230,1,176.000006026745,0|0,3:0|2:0,0:0:0:0:
42,357,106998,6,0,B|24:351|24:351|19:352|19:352|22:347|22:347|20:335|20:335|17:328|17:328|22:331|22:331|64:344|64:344|70:354|70:354|114:369,1,155.999993440032,8|0,0:0|2:0,0:0:0:0:
208,318,107284,1,0,3:2:0:0:
214,334,107355,1,0,3:2:0:0:
197,341,107426,1,0,3:2:0:0:
191,324,107498,1,0,3:2:0:0:
208,318,107569,6,0,B|225:315|225:315|226:311|226:311|245:311|245:311|242:308|242:308|262:305|262:305|260:302|260:302|279:299|279:299|277:295|277:295|294:295|294:295|294:290|294:290|312:287,1,132.000004520058,0|0,3:0|2:0,0:0:0:0:
427,257,107855,6,0,B|434:248|434:248|432:248|432:248|434:234|434:234|432:234|432:234|426:220|426:220|423:220|423:220|415:211|415:211|399:209|399:209|388:203|388:203|389:199|389:199|380:189|380:189|382:188|382:188|376:178|376:178|379:176|379:176|381:167,1,132.000004520058,2|2,0:0|0:0,0:0:0:0:
384,337,108141,6,0,B|382:352|382:352|388:353|388:353|398:369|398:369|405:364|405:364|424:379|424:379|429:375|429:375|448:377|448:377|455:371|455:371|468:372|468:372|481:359|481:359|487:359|487:359|494:340|494:340|501:339|501:339|504:322|504:322|507:316|507:316|500:307,1,207.999991253376,8|2,0:0|0:2,0:0:0:0:
499,306,108569,1,2,0:2:0:0:
301,206,108712,6,0,B|263:218|263:218|264:213|264:213|225:225|225:225|226:221|226:221|190:232|190:232|204:215|204:215|207:218|207:218|222:202,1,176.000006026745,0|2,3:0|0:0,0:0:0:0:
222,201,109141,1,2,0:0:0:0:
384,337,109284,6,0,B|386:323|386:323|389:322|389:322|389:308|389:308|391:310|391:310|394:294|394:294|396:296|396:296|398:281|398:281|401:283|401:283|401:269|401:269|405:269|405:269|408:255,1,103.999995626688,8|2,0:0|0:0,0:0:0:0:
508,180,109498,1,0,0:0:0:0:
508,180,109569,2,0,B|502:190|502:190|504:195|504:195|498:208|498:208|499:214|499:214|494:228,1,51.999997813344,2|0,0:0|0:0,0:0:0:0:
448,114,109712,2,0,B|453:104|453:104|451:99|451:99|457:86|457:86|456:80|456:80|461:68,1,51.999997813344,2|0,0:0|0:0,0:0:0:0:
365,148,109855,5,0,3:0:0:0:
511,300,110141,1,8,0:0:0:0:
478,308,110212,1,8,0:0:0:0:
447,318,110283,1,8,0:0:0:0:
415,329,110355,1,8,0:0:0:0:
384,337,110427,6,0,P|328:319|278:304,1,111.999996999264,8|2,0:0|0:0,0:0:0:0:
89,373,110712,2,0,P|78:355|97:364,2,55.9999984996318,2|2|2,0:0|0:0|0:0,0:0:0:0:
166,192,110998,6,0,P|208:225|199:277,1,111.999996999264,0|2,3:0|0:0,0:0:0:0:
190,289,111212,1,2,0:0:0:0:
179,294,111284,2,0,P|127:275|73:256,1,111.999996999264,2|2,0:0|0:0,0:0:0:0:
255,86,111569,5,8,0:0:0:0:
265,112,111641,1,2,0:0:0:0:
275,137,111712,2,0,P|301:128|327:119,1,55.9999984996318,2|0,0:0|0:0,0:0:0:0:
294,229,111855,2,0,P|268:220|242:211,3,55.9999984996318,2|0|2|0,0:0|0:0|0:0|0:0,0:0:0:0:
386,302,112141,6,0,B|412:226|412:226|398:197,1,111.999996999264,0|2,3:0|0:3,0:0:0:0:
282,333,112427,2,0,B|267:304|267:304|293:229,1,111.999996999264,2|2,0:0|0:3,0:0:0:0:
489,346,112712,5,8,0:0:0:0:
463,356,112784,1,0,0:0:0:0:
438,366,112855,2,0,P|412:375|386:384,1,55.9999984996318,2|0,0:0|0:0,0:0:0:0:
282,333,112998,2,0,P|256:342|230:351,2,55.9999984996318,2|2|2,0:0|0:0|0:0,0:0:0:0:
499,230,113284,6,0,B|468:239|443:219|457:209|431:190|399:197,1,111.999996999264,0|2,3:0|0:0,0:0:0:0:
384,203,113498,1,2,0:0:0:0:
371,207,113569,2,0,P|363:179|375:156,1,55.9999984996318,2|0,0:0|0:0,0:0:0:0:
512,66,113712,2,0,P|520:92|508:116,1,55.9999984996318,2|0,0:0|0:0,0:0:0:0:
338,7,113855,6,0,B|320:10|320:10|321:12|321:12|309:13|309:13|310:15|310:15|299:16|299:16|300:18|300:18|285:21,3,64.0000002384184,8|0|2|0,0:0|0:0|3:0|0:0,0:0:0:0:
216,86,114141,2,0,B|198:81|198:81|199:79|199:79|187:78|187:78|188:76|188:76|177:75|177:75|178:73|178:73|164:69,3,64.0000002384184,2|0|2|0,3:0|0:0|3:0|0:0,0:0:0:0:
98,143,114427,6,0,P|113:232|174:164,1,223.999993998527,0|2,3:0|0:0,0:0:0:0:
34,318,114998,6,0,L|7:323,6,27.9999992498159,8|0|0|0|2|0|0,0:0|0:0|0:0|0:0|0:0|0:0|0:0,0:0:0:0:
119,348,115284,2,0,L|136:367,2,27.9999992498159,2|0|2,0:0|0:0|0:0,0:0:0:0:
104,258,115427,2,0,L|112:231,2,27.9999992498159,2|0|0,0:0|0:0|0:0,0:0:0:0:
280,203,115569,6,0,P|227:184|174:165,1,111.999996999264,0|2,3:0|0:0,0:0:0:0:
159,160,115784,1,2,0:0:0:0:
147,156,115855,2,0,P|137:103|179:70,1,111.999996999264,2|2,0:0|0:0,0:0:0:0:
256,294,116141,5,8,0:0:0:0:
282,284,116213,1,0,0:0:0:0:
308,275,116284,2,0,B|312:290|312:290|313:289|313:289|314:299|314:299|316:298|316:298|317:308|317:308|319:307|319:307|323:319,1,55.9999984996318,2|0,0:3|0:0,0:0:0:0:
378,249,116427,2,0,B|382:264|382:264|383:263|383:263|384:273|384:273|386:272|386:272|387:282|387:282|389:281|389:281|393:293,1,55.9999984996318,2|0,0:3|0:0,0:0:0:0:
448,223,116569,2,0,B|452:238|452:238|453:237|453:237|454:247|454:247|456:246|456:246|457:256|457:256|459:255|459:255|463:267,1,55.9999984996318,2|0,0:3|0:0,0:0:0:0:
317,194,116712,6,0,P|336:140|355:88,1,111.999996999264,0|2,3:0|0:3,0:0:0:0:
361,77,116927,1,0,0:0:0:0:
367,67,116998,2,0,P|388:74|368:84,1,55.9999984996318,2|0,0:0|0:0,0:0:0:0:
252,25,117141,2,0,P|230:32|251:41,1,55.9999984996318,2|0,0:3|0:0,0:0:0:0:
450,0,117284,6,0,B|453:17|453:17|455:16|455:16|455:30|455:30|457:28|457:28|460:46|460:46|462:43|462:43|464:59|464:59|468:57|468:57|468:72|468:72|471:71|471:71|476:86,1,111.999996999264,8|2,0:0|0:0,0:0:0:0:
242,171,117569,2,0,P|251:145|260:119,2,55.9999984996318,2|2|2,0:0|0:0|0:0,0:0:0:0:
435,315,117855,6,0,B|404:306|379:326|393:336|367:355|335:348,1,111.999996999264,0|2,3:0|0:0,0:0:0:0:
318,340,118069,1,2,0:0:0:0:
303,334,118140,2,0,P|295:362|307:385,1,55.9999984996318,2|0,0:0|0:0,0:0:0:0:
396,242,118283,2,0,P|403:215|391:191,1,55.9999984996318,2|0,0:3|0:0,0:0:0:0:
204,240,118427,6,0,B|236:255|236:255|322:226,1,128.000000476837,8|2,0:0|0:0,0:0:0:0:
112,85,118712,1,2,0:0:0:0:
104,118,118783,1,2,0:3:0:0:
94,149,118854,1,2,0:3:0:0:
83,181,118926,1,2,0:0:0:0:
75,212,118998,6,0,P|93:268|108:318,1,111.999996999264,0|2,3:0|0:3,0:0:0:0:
113,333,119212,1,0,0:0:0:0:
118,345,119284,1,2,0:0:0:0:
324,226,119569,6,0,P|307:279|290:332,1,111.999996999264,8|2,0:0|0:0,0:0:0:0:
192,160,119855,2,0,P|181:178|199:168,2,55.9999984996318,2|2|2,0:0|0:0|0:0,0:0:0:0:
377,44,120141,2,0,B|346:53|321:33|335:23|309:4|277:11,1,111.999996999264,0|2,3:0|0:0,0:0:0:0:
265,16,120355,1,2,0:0:0:0:
258,23,120427,2,0,P|236:71|269:113,1,111.999996999264,2|2,0:0|0:0,0:0:0:0:
474,16,120712,5,8,0:0:0:0:
464,42,120784,1,2,0:0:0:0:
455,68,120855,2,0,L|480:75,2,27.9999992498159,2|0|0,0:0|0:0|0:0,0:0:0:0:
380,123,120998,2,0,L|354:115,6,27.9999992498159,2|0|0|0|2|0|0,0:0|0:0|0:0|0:0|0:0|0:0|0:0,0:0:0:0:
416,208,121284,6,0,B|407:245|407:245|403:241|403:241|394:279|394:279|391:277|391:277|382:312|382:312|375:292|375:292|379:291|379:291|373:271,1,167.999995498895,0|0,3:0|2:0,0:0:0:0:
305,204,121569,2,0,B|279:210|279:210|281:213|281:213|260:213|260:213|263:216|263:216|236:220|236:220|241:223|241:223|217:226|217:226|220:232|220:232|197:232|197:232|199:237|199:237|177:244,1,167.999995498895,2|0,0:0|2:0,0:0:0:0:
0,129,121855,6,0,B|3:117|3:117|8:116|8:116|16:103|16:103|22:107|22:107|37:95|37:95|41:98|41:98|56:97|56:97|62:102|62:102|73:101|73:101|83:111|83:111|88:111|88:111|94:127|94:127|99:128|99:128|102:141|102:141|104:146|104:146|104:156,1,167.999995498895,8|0,0:0|2:0,0:0:0:0:
16,263,122141,2,0,P|25:237|34:211,2,55.9999984996318,2|2|2,0:0|0:0|0:0,0:0:0:0:
96,22,122427,1,0,3:0:0:0:
305,204,122569,5,2,0:0:0:0:
276,212,122641,1,2,0:0:0:0:
249,220,122712,2,0,B|245:204|245:204|244:205|244:205|243:195|243:195|241:196|241:196|240:185|240:185|238:186|238:186|235:174,1,55.9999984996318,2|0,0:0|0:0,0:0:0:0:
177,244,122855,2,0,B|173:228|173:228|172:229|172:229|171:219|171:219|169:220|169:220|168:209|168:209|166:210|166:210|163:198,1,55.9999984996318,2|0,0:0|0:0,0:0:0:0:
104,269,122998,5,8,3:1:0:0:
100,258,123069,1,8,3:1:0:0:
97,248,123141,1,8,3:1:0:0:
135,384,123284,1,8,0:1:0:0:
66,133,123427,1,8,0:1:0:0:
135,384,123569,6,0,P|211:362|289:341,1,160.000000596046,4|2,0:1|0:0,0:0:0:0:
97,248,124141,2,0,P|59:237|20:226,1,80.000000298023,2|2,0:0|0:0,0:0:0:0:
199,278,124427,6,0,P|204:259|209:240,2,40.0000001490115,2|2|2,0:0|0:0|0:0,0:0:0:0:
218,285,124855,2,0,P|223:266|228:247,2,40.0000001490115,2|2|2,0:0|0:0|0:0,0:0:0:0:
237,292,125284,2,0,P|242:273|247:254,2,40.0000001490115,2|2|2,0:0|0:0|0:0,0:0:0:0:
162,174,125569,2,0,P|199:163|238:152,1,80.000000298023,2|2,0:0|0:3,0:0:0:0:
41,203,125855,5,2,0:0:0:0:
3,72,125998,1,2,0:3:0:0:
52,2,126141,1,2,0:3:0:0:
93,132,126284,1,2,0:3:0:0:
201,283,126427,5,2,0:0:0:0:
239,152,126570,1,2,0:3:0:0:
190,82,126713,1,2,0:3:0:0:
149,212,126856,1,2,0:3:0:0:
41,363,126998,5,2,0:0:0:0:
3,232,127141,1,2,0:3:0:0:
52,162,127284,1,2,0:3:0:0:
93,292,127427,1,2,0:3:0:0:
239,152,127569,6,0,P|257:157|276:163,3,40.0000001490115,2|0|0|0,0:0|0:0|0:0|0:0,0:0:0:0:
337,232,127855,1,0,0:0:0:0:
317,237,127926,1,0,0:0:0:0:
298,243,127997,1,0,0:0:0:0:
279,248,128069,1,0,0:0:0:0:
260,254,128140,5,4,0:0:0:0:
