osu file format v14

[General]
AudioFilename: audio.mp3
AudioLeadIn: 0
PreviewTime: 132712
Countdown: 0
SampleSet: Soft
StackLeniency: 0.3
Mode: 0
LetterboxInBreaks: 0
WidescreenStoryboard: 1

[Editor]
Bookmarks: 18430,27572,36715,45857,55000,91572,109857,128143
DistanceSpacing: 1.4
BeatDivisor: 4
GridSize: 32
TimelineZoom: 5.099998

[Metadata]
Title:Regret
TitleUnicode:Regret
Artist:ARForest
ArtistUnicode:ARForest
Creator:Fall
Version:Altai's Extreme
Source:osu!
Tags:frost era fa featured artist mg mappers' guild _tranquility electronic instrumental artcore gordon123 daycore cris- altai
BeatmapID:2636964
BeatmapSetID:1241523

[Difficulty]
HPDrainRate:4
CircleSize:4.4
OverallDifficulty:8.5
ApproachRate:9.3
SliderMultiplier:2.1
SliderTickRate:1

[Events]
//Background and Video events
0,0,"ba15558c-f9f9-4c40-a969-16478ddc79f8.jpg",0,0
//Break Periods
//Storyboard Layer 0 (Background)
//Storyboard Layer 1 (Fail)
//Storyboard Layer 2 (Pass)
//Storyboard Layer 3 (Foreground)
//Storyboard Layer 4 (Overlay)
//Storyboard Sound Samples

[TimingPoints]
142,285.714285714286,4,2,0,100,1,0
9309,285.714285714286,4,2,0,100,1,0
18427,285.714285714286,4,2,1,70,1,0
18427,-166.666666666667,4,2,1,70,0,0
18927,-166.666666666667,4,2,1,5,0,0
18998,-166.666666666667,4,2,1,70,0,0
19426,-166.666666666667,4,2,1,5,0,0
19569,-166.666666666667,4,2,1,70,0,0
21212,-166.666666666667,4,2,1,5,0,0
21284,-166.666666666667,4,2,1,70,0,0
23498,-166.666666666667,4,2,1,5,0,0
23569,-166.666666666667,4,2,1,70,0,0
25784,-166.666666666667,4,2,1,5,0,0
25855,-166.666666666667,4,2,1,70,0,0
27569,-133.333333333333,4,2,2,50,0,0
28355,-133.333333333333,4,2,2,5,0,0
28427,-133.333333333333,4,2,2,50,0,0
28569,-133.333333333333,4,2,2,50,0,0
28712,-133.333333333333,4,2,2,58,0,0
28926,-133.333333333333,4,2,2,5,0,0
28998,-133.333333333333,4,2,2,58,0,0
29498,-133.333333333333,4,2,2,5,0,0
29569,-133.333333333333,4,2,2,58,0,0
29711,-133.333333333333,4,2,2,58,0,0
29855,-133.333333333333,4,2,2,66,0,0
30641,-133.333333333333,4,2,2,5,0,0
30712,-133.333333333333,4,2,2,66,0,0
30854,-133.333333333333,4,2,2,66,0,0
30998,-133.333333333333,4,2,2,72,0,0
31212,-133.333333333333,4,2,2,5,0,0
31284,-133.333333333333,4,2,2,72,0,0
31711,-133.333333333333,4,2,2,5,0,0
31855,-133.333333333333,4,2,2,72,0,0
31997,-133.333333333333,4,2,2,72,0,0
32141,-133.333333333333,4,2,2,80,0,0
35569,-333.333333333333,4,2,2,80,0,0
36712,-400,4,2,3,85,0,0
37212,-400,4,2,3,5,0,0
37284,-50,4,2,3,85,0,1
37784,-50,4,2,3,5,0,1
37855,-400,4,2,3,85,0,0
38355,-400,4,2,3,5,0,0
38427,-50,4,2,3,85,0,1
38927,-50,4,2,3,5,0,1
38998,-400,4,2,3,85,0,0
39498,-400,4,2,3,5,0,0
39569,-50,4,2,3,85,0,1
40069,-50,4,2,3,5,0,1
40141,-333.333333333333,4,2,3,85,0,0
40641,-333.333333333333,4,2,3,5,0,0
40712,-333.333333333333,4,2,3,85,0,1
40855,-100,4,2,3,85,0,1
41284,-66.6666666666667,4,2,3,85,0,0
41855,-50,4,2,3,85,0,1
42355,-50,4,2,3,5,0,1
42427,-400,4,2,3,85,0,0
42927,-400,4,2,3,5,0,0
42998,-76.9230769230769,4,2,3,85,0,1
43569,-400,4,2,3,85,0,0
44069,-400,4,2,3,5,0,0
44141,-50,4,2,3,85,0,1
44641,-50,4,2,3,5,0,1
44712,-133.333333333333,4,2,3,85,0,0
45284,-1000,4,2,3,85,0,0
45784,-1000,4,2,3,5,0,0
45855,-71.4285714285714,4,2,3,85,0,0
46069,-71.4285714285714,4,2,3,5,0,0
46141,-71.4285714285714,4,2,3,85,0,0
46355,-71.4285714285714,4,2,3,5,0,0
46427,-71.4285714285714,4,2,3,85,0,0
47569,-57.1428571428571,4,2,3,85,0,0
47783,-57.1428571428571,4,2,3,5,0,0
47855,-57.1428571428571,4,2,3,85,0,0
48069,-57.1428571428571,4,2,3,5,0,0
48141,-71.4285714285714,4,2,3,85,0,0
48355,-71.4285714285714,4,2,3,5,0,0
48427,-71.4285714285714,4,2,3,85,0,0
48641,-71.4285714285714,4,2,3,5,0,0
48712,-71.4285714285714,4,2,3,85,0,0
49855,-57.1428571428571,4,2,3,85,0,0
50069,-57.1428571428571,4,2,3,5,0,0
50141,-57.1428571428571,4,2,3,85,0,0
50427,-333.333333333333,4,2,3,85,0,0
50927,-333.333333333333,4,2,3,5,0,0
50998,-333.333333333333,4,2,3,85,0,0
51855,-71.4285714285714,4,2,3,85,0,0
52141,-57.1428571428571,4,2,3,85,0,0
52283,-57.1428571428571,4,2,3,5,0,0
52355,-57.1428571428571,4,2,3,85,0,0
52712,-57.1428571428571,4,2,3,85,0,1
53141,-100,4,2,3,85,0,1
53570,-100,4,2,0,85,0,1
53855,-100,4,2,2,85,0,0
54998,-133.333333333333,4,2,2,85,0,0
55070,-133.333333333333,4,2,2,55,0,0
55140,-133.333333333333,4,2,2,5,0,0
55284,-133.333333333333,4,2,2,55,0,0
56283,-133.333333333333,4,2,2,5,0,0
56427,-133.333333333333,4,2,2,55,0,0
57426,-133.333333333333,4,2,2,5,0,0
57569,-133.333333333333,4,2,2,55,0,0
58569,-133.333333333333,4,2,2,5,0,0
58712,-133.333333333333,4,2,2,55,0,0
59711,-133.333333333333,4,2,2,5,0,0
59855,-133.333333333333,4,2,2,55,0,0
60854,-133.333333333333,4,2,2,5,0,0
60998,-133.333333333333,4,2,2,55,0,0
61997,-133.333333333333,4,2,2,5,0,0
62141,-133.333333333333,4,2,2,55,0,0
63140,-133.333333333333,4,2,2,5,0,0
63284,-133.333333333333,4,2,2,55,0,0
64141,-117.647058823529,4,2,4,55,0,0
64283,-117.647058823529,4,2,4,5,0,0
64427,-117.647058823529,4,2,4,55,0,0
65426,-117.647058823529,4,2,4,5,0,0
65569,-117.647058823529,4,2,4,55,0,0
66569,-117.647058823529,4,2,4,5,0,0
66712,-117.647058823529,4,2,4,55,0,0
68854,-117.647058823529,4,2,4,5,0,0
68998,-117.647058823529,4,2,4,55,0,0
69355,-117.647058823529,4,2,4,5,0,0
69427,-117.647058823529,4,2,4,55,0,0
69997,-117.647058823529,4,2,4,5,0,0
70141,-117.647058823529,4,2,4,55,0,0
70498,-117.647058823529,4,2,4,5,0,0
70569,-117.647058823529,4,2,4,55,0,0
71140,-117.647058823529,4,2,4,5,0,0
71284,-117.647058823529,4,2,4,55,0,0
71641,-117.647058823529,4,2,4,5,0,0
71712,-117.647058823529,4,2,4,55,0,0
72283,-117.647058823529,4,2,4,5,0,0
72427,-117.647058823529,4,2,4,55,0,0
72783,-117.647058823529,4,2,4,5,0,0
72855,-117.647058823529,4,2,4,55,0,0
73284,-100,4,2,1,84,0,0
73356,-100,4,2,5,70,0,0
73426,-100,4,2,5,5,0,0
73498,-100,4,2,5,70,0,0
75140,-100,4,2,5,5,0,0
75284,-100,4,2,5,70,0,0
75711,-100,4,2,5,5,0,0
75784,-100,4,2,5,70,0,0
77140,-100,4,2,5,5,0,0
77284,-100,4,2,5,70,0,0
77997,-100,4,2,5,5,0,0
78069,-100,4,2,5,70,0,0
79711,-100,4,2,5,5,0,0
79855,-100,4,2,5,70,0,0
80283,-100,4,2,5,5,0,0
80355,-100,4,2,5,70,0,0
82427,-100,4,2,2,55,0,0
82569,-100,4,2,2,5,0,0
82641,-100,4,2,2,55,0,0
82854,-100,4,2,2,5,0,0
82998,-100,4,2,2,55,0,0
83569,-100,4,2,2,64,0,0
83711,-100,4,2,2,5,0,0
83784,-100,4,2,2,64,0,0
83997,-100,4,2,2,5,0,0
84069,-100,4,2,2,64,0,0
84283,-100,4,2,2,5,0,0
84427,-100,4,2,2,64,0,0
84712,-100,4,2,2,70,0,0
84854,-100,4,2,2,5,0,0
84927,-100,4,2,2,70,0,0
85140,-100,4,2,2,5,0,0
85284,-100,4,2,2,70,0,0
85855,-100,4,2,2,77,0,0
85997,-100,4,2,2,5,0,0
86069,-100,4,2,2,77,0,0
86283,-100,4,2,2,5,0,0
86355,-100,4,2,2,77,0,0
86998,-100,4,2,2,85,0,0
89284,-666.666666666667,4,2,2,85,0,0
91569,-66.6666666666667,4,2,3,90,0,1
91783,-66.6666666666667,4,2,3,5,0,1
91855,-66.6666666666667,4,2,3,90,0,0
92141,-66.6666666666667,4,2,3,90,0,1
92355,-66.6666666666667,4,2,3,5,0,1
92427,-66.6666666666667,4,2,3,90,0,0
92712,-66.6666666666667,4,2,3,90,0,1
92926,-66.6666666666667,4,2,3,5,0,1
92998,-66.6666666666667,4,2,3,90,0,0
93284,-66.6666666666667,4,2,3,90,0,1
93569,-66.6666666666667,4,2,3,90,0,0
93855,-66.6666666666667,4,2,3,90,0,1
94069,-66.6666666666667,4,2,3,5,0,1
94141,-66.6666666666667,4,2,3,90,0,0
94427,-66.6666666666667,4,2,3,90,0,1
94641,-66.6666666666667,4,2,3,5,0,1
94712,-66.6666666666667,4,2,3,90,0,0
94998,-66.6666666666667,4,2,3,90,0,1
95212,-66.6666666666667,4,2,3,5,0,1
95284,-66.6666666666667,4,2,3,90,0,0
95569,-66.6666666666667,4,2,3,90,0,1
96069,-66.6666666666667,4,2,3,90,0,0
96141,-66.6666666666667,4,2,3,90,0,1
96355,-66.6666666666667,4,2,3,5,0,1
96427,-66.6666666666667,4,2,3,90,0,0
96712,-66.6666666666667,4,2,3,90,0,1
96998,-66.6666666666667,4,2,3,90,0,0
97212,-66.6666666666667,4,2,3,5,0,0
97284,-66.6666666666667,4,2,3,90,0,1
97498,-66.6666666666667,4,2,3,5,0,1
97569,-66.6666666666667,4,2,3,90,0,0
97855,-66.6666666666667,4,2,3,90,0,1
98141,-66.6666666666667,4,2,3,90,0,0
98427,-66.6666666666667,4,2,3,90,0,1
98641,-66.6666666666667,4,2,3,5,0,1
98712,-66.6666666666667,4,2,3,90,0,0
98998,-66.6666666666667,4,2,3,90,0,1
99284,-66.6666666666667,4,2,3,90,0,0
99498,-66.6666666666667,4,2,3,5,0,0
99569,-66.6666666666667,4,2,3,90,0,1
99783,-66.6666666666667,4,2,3,5,0,1
99855,-66.6666666666667,4,2,3,90,0,0
100141,-66.6666666666667,4,2,3,90,0,1
100641,-66.6666666666667,4,2,3,90,0,0
100712,-66.6666666666667,4,2,3,90,0,1
100926,-66.6666666666667,4,2,3,5,0,1
100998,-66.6666666666667,4,2,3,90,0,0
101284,-66.6666666666667,4,2,3,90,0,1
101498,-66.6666666666667,4,2,3,5,0,1
101569,-66.6666666666667,4,2,3,90,0,0
101783,-66.6666666666667,4,2,3,5,0,0
101855,-66.6666666666667,4,2,3,90,0,1
102069,-66.6666666666667,4,2,3,5,0,1
102141,-66.6666666666667,4,2,3,90,0,0
102427,-68.0272108843537,4,2,3,90,0,1
102712,-68.0272108843537,4,2,3,90,0,0
102927,-68.0272108843537,4,2,3,5,0,0
102998,-66.6666666666667,4,2,3,90,0,1
103212,-66.6666666666667,4,2,3,5,0,1
103284,-133.333333333333,4,2,3,90,0,0
103569,-66.6666666666667,4,2,3,90,0,1
103783,-66.6666666666667,4,2,3,5,0,1
103855,-66.6666666666667,4,2,3,90,0,0
104141,-66.6666666666667,4,2,3,90,0,1
104355,-66.6666666666667,4,2,3,5,0,1
104427,-66.6666666666667,4,2,3,90,0,0
104712,-66.6666666666667,4,2,3,90,0,1
105212,-66.6666666666667,4,2,3,90,0,0
105284,-66.6666666666667,4,2,3,90,0,1
105498,-66.6666666666667,4,2,3,5,0,1
105569,-66.6666666666667,4,2,3,90,0,0
105855,-66.6666666666667,4,2,3,90,0,1
106069,-66.6666666666667,4,2,3,5,0,1
106141,-100,4,2,3,90,0,0
106427,-66.6666666666667,4,2,3,90,0,1
106641,-66.6666666666667,4,2,3,5,0,1
106712,-66.6666666666667,4,2,3,90,0,0
106998,-66.6666666666667,4,2,3,90,0,1
107212,-66.6666666666667,4,2,3,5,0,1
107284,-66.6666666666667,4,2,3,90,0,0
107569,-66.6666666666667,4,2,3,90,0,1
107855,-66.6666666666667,4,2,3,90,0,0
108141,-66.6666666666667,4,2,3,90,0,1
108355,-66.6666666666667,4,2,3,5,0,1
108427,-66.6666666666667,4,2,3,90,0,0
108712,-66.6666666666667,4,2,3,90,0,1
108926,-66.6666666666667,4,2,3,5,0,1
108998,-66.6666666666667,4,2,3,90,0,0
109284,-66.6666666666667,4,2,3,90,0,1
109855,-66.6666666666667,4,2,3,90,0,0
110141,-200,4,2,3,90,0,0
110712,-200,4,2,3,90,0,1
110855,-66.6666666666667,4,2,3,90,0,1
116998,-133.333333333333,4,2,3,90,0,1
117284,-66.6666666666667,4,2,3,90,0,1
123569,-200,4,2,0,65,0,0
128142,-200,4,2,2,65,0,0

[Colours]
Combo1 : 248,73,73
Combo2 : 250,91,46

[HitObjects]
292,282,18427,6,0,B|347:258|399:307|370:331|423:381|487:347,1,220.5,0|0,3:0|2:0,0:0:0:0:
480,350,18998,1,8,0:0:0:0:
331,194,19284,2,0,P|372:186|387:170,1,62.9999999999999,0|0,0:0|2:0,0:0:0:0:
266,51,19569,6,0,P|327:65|324:130,2,126,0|0|8,0:0|3:0|0:0,0:0:0:0:
88,215,20569,1,0,0:0:0:0:
63,282,20712,6,0,B|118:306|170:257|141:233|194:183|258:217,1,220.5,0|0,3:0|2:0,0:0:0:0:
251,214,21284,1,8,0:0:0:0:
217,380,21569,2,0,P|190:361|150:354,1,62.9999999999999,0|0,0:0|3:0,0:0:0:0:
63,282,21855,6,0,P|51:220|36:158,2,126,0|0|8,0:0|3:0|0:0,0:0:0:0:
281,336,22855,1,0,0:0:0:0:
315,255,22998,6,0,P|389:328|506:352,1,220.5,0|0,3:0|2:0,0:0:0:0:
499,352,23569,1,8,0:0:0:0:
490,216,23712,2,0,P|498:254|515:275,2,62.9999999999999
376,166,24141,6,0,P|397:106|396:38,2,126,0|0|8,0:0|3:0|0:0,0:0:0:0:
209,175,24998,1,0,0:0:0:0:
243,238,25141,1,0,0:0:0:0:
209,300,25284,6,0,B|154:276|102:325|131:349|78:399|14:365,1,220.5,0|0,3:0|2:0,0:0:0:0:
20,367,25855,1,8,0:0:0:0:
103,242,26141,2,0,P|94:211|79:184,1,62.9999999999999,0|0,0:0|3:0,0:0:0:0:
246,56,26427,6,0,P|221:106|208:179,2,126,0|0|8,0:0|3:0|0:0,0:0:0:0:
326,39,27141,2,0,P|359:27|376:0,2,62.9999999999999,0|0|0,0:0|3:0|0:0,0:0:0:0:
511,172,27569,6,0,B|470:193|432:157|453:140|415:105|376:122,1,157.5,4|0,1:0|3:2,0:0:0:0:
351,351,28141,2,0,B|326:300|326:300|373:252,1,118.125,0|0,3:2|2:0,0:0:0:0:
369,242,28427,2,0,L|452:261,1,78.7500000000002,0|0,3:2|3:2,0:0:0:0:
208,174,28712,6,0,L|224:296,1,118.125,0|0,3:2|2:0,0:0:0:0:
223,291,28998,1,2,3:2:0:0:
16,358,29284,2,0,P|77:317|54:262,1,118.125,2|0,3:2|2:0,0:0:0:0:
62,273,29569,2,0,P|55:228|84:199,1,78.7500000000002,2|0,3:2|3:2,0:0:0:0:
0,64,29855,6,0,B|76:74|76:74|78:79|78:79|172:92,1,157.5,2|2,3:2|3:2,0:0:0:0:
298,134,30427,2,0,P|347:95|300:46,1,118.125,10|0,3:2|2:0,0:0:0:0:
323,40,30712,2,0,P|283:52|246:57,1,78.7500000000002,10|0,3:2|3:2,0:0:0:0:
295,217,30998,6,0,P|358:230|423:257,1,118.125,10|0,3:2|2:0,0:0:0:0:
408,249,31284,1,10,3:2:0:0:
512,69,31569,2,0,B|529:29|529:29|497:-8,1,78.7500000000002,10|0,3:2|2:0,0:0:0:0:
426,69,31855,2,0,L|437:150,1,78.7500000000002,10|0,3:2|3:2,0:0:0:0:
499,378,32141,5,8,0:2:0:0:
444,368,32284,1,8,0:2:0:0:
454,314,32427,1,8,0:2:0:0:
508,323,32569,1,8,0:2:0:0:
302,349,32712,5,8,0:2:0:0:
292,295,32855,1,8,0:2:0:0:
238,304,32998,1,8,0:2:0:0:
247,359,33141,1,8,0:2:0:0:
218,195,33284,5,8,0:2:0:0:
141,176,33427,1,8,0:2:0:0:
108,241,33569,1,8,0:2:0:0:
32,222,33712,1,8,0:2:0:0:
317,84,33855,5,8,0:2:0:0:
229,106,33998,1,8,0:2:0:0:
190,30,34141,1,8,0:2:0:0:
101,52,34284,1,8,0:2:0:0:
454,68,34427,5,8,0:2:0:0:
452,75,34498,1,8,0:2:0:0:
451,83,34569,1,8,0:2:0:0:
450,91,34641,1,8,0:2:0:0:
449,99,34712,2,0,L|458:144,3,39.3750000000001,8|8|8|8,0:2|0:2|0:2|0:2,0:0:0:0:
401,224,34998,5,8,0:2:0:0:
403,233,35069,1,8,0:2:0:0:
405,244,35141,1,8,0:2:0:0:
406,255,35212,1,8,0:2:0:0:
407,267,35284,2,0,L|396:324,3,39.3750000000001,8|8|8|8,0:2|0:2|0:2|0:2,0:0:0:0:
472,377,35569,6,0,L|495:369,8,15.75,2|2|2|2|2|2|2|2|2,0:3|0:3|0:3|0:3|0:3|0:3|0:3|0:3|0:0,0:0:0:0:
80,40,36712,6,0,B|65:20|65:20|71:-1|71:-1|85:16|85:16|80:40,1,91.875,0|0,3:0|2:0,0:0:0:0:
0,100,37284,6,0,B|3:73|22:49|61:56|61:56|96:62|96:62|102:59|102:59|113:65|113:65|145:71|145:71|154:67|154:67|161:74|161:74|196:80|196:80|207:78|207:78|212:82|212:82|237:87|237:87|307:99|315:155|288:205|218:192|218:192|192:188|192:188|183:191|183:191|175:185|175:185|148:180|148:180|78:168|51:217|59:273|98:281|129:285|129:285|176:293,1,735,8|0,0:0|2:0,0:0:0:0:
285,343,37855,6,0,P|286:313|286:343,1,91.875,0|0,3:0|2:0,0:0:0:0:
386,363,38427,6,0,B|365:253|468:199|468:199|388:213|388:213|382:210|382:210|374:216|374:216|296:230|296:230|290:235|290:235|242:244|242:244|225:242|225:242|220:248|220:248|145:260|145:260|199:358|199:358|237:351|237:351|247:356|254:349|254:349|286:343,1,735,8|0,0:0|2:0,0:0:0:0:
309,146,38998,6,0,B|294:125|294:125|295:103|295:103|308:120|308:120|309:146,1,91.875,0|0,3:0|2:0,0:0:0:0:
383,113,39569,6,0,B|428:112|428:112|434:109|434:109|447:112|447:112|488:113|488:113|515:38|515:38|434:36|434:36|430:33|430:33|420:37|420:37|340:36|340:36|333:39|333:39|285:39|285:39|269:34|269:34|263:39|263:39|177:39|177:39|215:143|215:143|260:143|260:143|272:141|272:141|276:145|276:145|309:145,1,735,8|0,0:0|2:0,0:0:0:0:
426,263,40141,6,0,B|369:272|369:272|366:276|366:276|308:285,1,110.25,0|0,3:0|2:0,0:0:0:0:
182,358,40712,5,10,0:0:0:0:
52,125,40855,2,0,P|25:116|-4:110,1,52.5,2|0,0:0|0:0,0:0:0:0:
116,166,40998,2,0,P|122:193|131:221,1,52.5,2|0,0:0|0:0,0:0:0:0:
120,90,41141,2,0,P|140:71|160:49,1,52.5,2|0,0:0|0:0,0:0:0:0:
392,185,41284,6,0,L|432:179,14,39.375,0|0|0|0|0|0|0|0|0|0|0|0|0|0|0,3:0|0:0|0:0|0:0|0:0|0:0|0:0|0:0|0:0|0:0|0:0|0:0|0:0|0:0|0:0,0:0:0:0:
501,125,41855,6,0,B|498:98|479:74|440:81|440:81|405:87|405:87|399:84|399:84|388:90|388:90|356:96|356:96|347:92|347:92|340:99|340:99|305:105|305:105|294:103|294:103|289:107|289:107|264:112|264:112|194:124|186:180|213:230|283:217|283:217|309:213|309:213|318:216|318:216|326:210|326:210|353:205|353:205|423:193|423:193|433:246|433:246|440:250|440:250|445:282|445:282|411:293,1,735,8|0,0:0|2:0,0:0:0:0:
268,359,42427,6,0,B|258:335|256:315|256:315|256:335|245:360,1,91.875,0|0,3:0|2:0,0:0:0:0:
88,252,42998,6,0,B|122:247|122:247|127:249|127:249|172:242,1,68.25,8|0,0:0|0:0,0:0:0:0:
142,75,43141,2,0,B|107:79|107:79|102:77|102:77|57:84,1,68.25,2|0,0:0|0:0,0:0:0:0:
203,191,43284,2,0,B|198:156|198:156|200:151|200:151|193:106,1,68.25,2|0,0:3|0:0,0:0:0:0:
27,136,43427,2,0,B|31:170|31:170|29:175|29:175|36:220,1,68.25,2|0,0:0|0:0,0:0:0:0:
152,371,43569,6,0,P|151:341|151:371,1,91.875,0|0,3:0|2:0,0:0:0:0:
0,293,44141,6,0,B|61:282|61:282|69:289|69:289|104:282|104:282|152:272|147:222|147:222|143:204|143:204|147:197|147:197|142:193|142:193|137:170|137:170|130:119|180:109|180:109|213:103|213:103|220:98|220:98|230:101|230:101|257:96|257:96|306:90|318:138|318:138|322:159|322:159|317:165|317:165|322:190|322:190|334:237|377:234|377:234|410:229|410:229|417:215|417:215|495:202,1,735,8|0,0:0|2:0,0:0:0:0:
417,76,44712,6,0,L|436:-5,1,78.7500000000002,2|2,3:2|0:0,0:0:0:0:
486,105,44998,2,0,L|505:24,1,78.7500000000002,2|2,0:0|0:0,0:0:0:0:
252,344,45284,6,0,L|258:383,1,36.75,10|0,0:0|2:0,0:0:0:0:
276,264,45855,6,0,B|197:248|197:248|158:266|158:266|47:242,1,220.5,0|0,3:0|2:0,0:0:0:0:
83,170,46141,2,0,B|73:106|73:106|227:82,1,220.5,8|0,0:0|2:0,0:0:0:0:
276,21,46427,1,0,3:0:0:0:
469,60,46569,5,2,0:0:0:0:
467,45,46641,1,2,0:0:0:0:
464,31,46712,1,8,0:0:0:0:
354,167,46855,5,2,0:0:0:0:
349,177,46927,1,0,0:0:0:0:
345,186,46998,2,0,B|332:151|332:151|365:114,1,73.5,0|2,3:0|0:0,0:0:0:0:
426,139,47141,2,0,B|436:176|436:176|406:211,1,73.5,2|2,0:0|0:0,0:0:0:0:
369,298,47284,5,8,0:0:0:0:
417,277,47355,1,0,0:0:0:0:
457,301,47427,1,2,0:0:0:0:
476,330,47498,1,0,0:0:0:0:
499,337,47569,6,0,B|380:351|380:351|374:346|374:346|225:362,1,275.625,0|0,3:0|2:0,0:0:0:0:
227,370,47855,2,0,B|374:354|374:354|380:359|380:359|499:345,1,275.625,8|0,0:0|2:0,0:0:0:0:
510,246,48141,6,0,P|497:158|384:165,1,220.5,0|0,3:0|2:0,0:0:0:0:
303,47,48427,2,0,B|385:61|385:61|418:19|418:19|506:34,1,220.5,8|0,0:0|2:0,0:0:0:0:
512,133,48712,1,0,3:0:0:0:
307,209,48855,5,2,0:0:0:0:
304,187,48927,1,2,0:0:0:0:
300,166,48998,1,8,0:0:0:0:
135,108,49141,5,2,0:0:0:0:
145,105,49212,1,0,0:0:0:0:
155,102,49284,2,0,B|168:67|168:67|135:30,1,73.5,0|2,3:0|0:0,0:0:0:0:
54,194,49427,5,2,0:0:0:0:
32,189,49498,1,2,0:0:0:0:
14,184,49569,2,0,B|1:149|1:149|34:112,1,73.5,8|0,0:0|0:0,0:0:0:0:
54,324,49712,5,2,0:0:0:0:
54,324,49784,1,0,0:0:0:0:
54,324,49855,2,0,B|173:338|173:338|179:333|179:333|328:349,1,275.625,0|0,3:0|2:0,0:0:0:0:
334,339,50141,2,0,B|129:318,1,183.75,8|2,0:0|0:3,0:0:0:0:
139,245,50355,5,2,0:3:0:0:
139,245,50427,2,0,P|159:185|201:195,1,110.25,0|0,3:0|2:0,0:0:0:0:
257,150,50998,5,8,0:0:0:0:
445,75,51141,5,2,0:0:0:0:
443,60,51212,1,2,0:0:0:0:
440,46,51284,1,2,0:0:0:0:
298,234,51427,5,2,0:0:0:0:
296,223,51498,1,0,0:0:0:0:
294,212,51569,5,0,3:0:0:0:
341,200,51641,1,2,0:0:0:0:
376,229,51712,1,2,0:0:0:0:
396,270,51784,1,2,0:0:0:0:
441,273,51855,6,0,P|475:264|513:258,1,73.5,0|0,3:0|0:0,0:0:0:0:
402,149,51998,2,0,P|436:158|474:164,1,73.5,0|0,3:0|0:0,0:0:0:0:
237,329,52141,6,0,B|243:248|243:248|250:244|250:244|257:140,1,183.75,8|0,0:0|2:0,0:0:0:0:
219,87,52355,1,0,3:0:0:0:
219,87,52427,2,0,B|175:99|175:99|169:148,1,91.8750000000001,0|0,3:0|0:0,0:0:0:0:
294,212,52569,1,8,0:0:0:0:
156,365,52712,5,4,0:0:0:0:
376,229,52855,1,0,3:0:0:0:
123,85,52998,1,0,3:0:0:0:
205,254,53141,6,0,P|235:245|276:240,1,52.5,8|0,0:0|0:0,0:0:0:0:
29,113,53284,5,0,3:0:0:0:
47,125,53355,1,0,3:0:0:0:
72,126,53427,1,0,3:0:0:0:
106,110,53498,1,0,3:0:0:0:
123,85,53569,5,8,0:1:0:0:
131,45,53641,1,8,0:1:0:0:
167,10,53712,1,8,0:1:0:0:
227,4,53784,1,8,0:1:0:0:
282,43,53855,1,2,0:3:0:0:
282,43,54712,6,0,L|342:35,1,52.5,2|0,0:2|0:0,0:0:0:0:
277,53,54855,2,0,L|337:45,1,52.5,2|0,0:2|0:0,0:0:0:0:
292,192,54998,6,0,P|335:213|341:253,1,78.7500000000002,4|0,0:0|2:0,0:0:0:0:
300,305,55284,2,0,P|231:309|148:359,1,157.500006008148,2|2,0:0|0:0,0:0:0:0:
87,313,55712,1,0,0:0:0:0:
87,313,55855,2,0,P|85:270|119:246,1,78.7500000000002,2|2,0:0|0:0,0:0:0:0:
157,117,56141,6,0,P|181:146|231:158,1,78.7500030040742,2|0,0:0|2:0,0:0:0:0:
292,192,56427,2,0,P|365:159|456:166,1,157.500006008148,2|2,0:0|0:0,0:0:0:0:
505,224,56855,2,0,P|471:247|453:292,1,78.7500030040742,0|2,0:0|0:0,0:0:0:0:
436,168,57141,1,2,0:0:0:0:
317,336,57284,6,0,P|326:294|334:250,1,78.7500030040742,2|0,0:0|2:0,0:0:0:0:
282,185,57569,2,0,P|204:201|107:217,1,157.5,2|2,0:0|0:0,0:0:0:0:
48,152,57998,1,0,0:0:0:0:
48,152,58141,2,0,P|95:143|133:127,1,78.7500030040742,2|2,0:0|0:0,0:0:0:0:
238,25,58427,6,0,P|279:18|329:22,1,78.7500030040742,2|0,0:0|2:0,0:0:0:0:
399,17,58712,2,0,P|371:94|362:180,1,157.500006008148,2|2,0:0|0:0,0:0:0:0:
425,219,59141,1,0,0:0:0:0:
425,219,59284,2,0,P|466:228|478:274,1,78.7500000000002,2|2,0:0|0:0,0:0:0:0:
343,354,59569,6,0,P|329:308|322:266,1,78.7500030040742,2|0,0:0|2:0,0:0:0:0:
269,220,59855,2,0,B|228:199|191:238|213:252|173:292|127:263,1,157.5,2|2,0:0|0:0,0:0:0:0:
230,318,60284,2,0,P|258:350|264:386,2,78.7500000000002,0|2|2,0:0|0:0|0:0,0:0:0:0:
146,197,60712,6,0,P|157:144|177:122,1,78.7500000000002,2|0,0:0|2:0,0:0:0:0:
175,36,60998,2,0,P|260:85|322:88,1,157.5,2|2,0:0|0:0,0:0:0:0:
387,55,61427,1,0,0:0:0:0:
387,55,61569,2,0,P|435:23|439:-2,1,78.7500000000002,2|2,0:0|0:0,0:0:0:0:
512,98,61855,6,0,P|492:126|495:184,1,78.7500000000002,2|0,0:0|2:0,0:0:0:0:
417,238,62141,2,0,P|485:255|478:339,1,157.500006008148,2|2,0:0|0:0,0:0:0:0:
414,368,62569,1,0,0:0:0:0:
414,368,62712,2,0,P|378:334|332:336,1,78.7500000000002,2|2,0:0|0:0,0:0:0:0:
170,304,62998,6,0,P|227:288|252:250,1,78.7500000000002,2|0,0:0|2:0,0:0:0:0:
224,203,63284,2,0,B|185:221|147:186|168:168|130:132|83:156,1,157.5,2|2,0:0|0:0,0:0:0:0:
139,77,63712,1,0,0:0:0:0:
139,77,63855,2,0,P|129:32|126:-6,1,78.7500000000002,2|2,0:0|0:0,0:0:0:0:
319,19,64141,6,0,P|293:54|281:103,1,89.2500000000003,2|0,0:0|2:0,0:0:0:0:
308,181,64427,1,2,0:0:0:0:
380,130,64569,2,0,B|427:123|456:172|428:184|457:233|517:226,1,178.500000000001,2|2,0:0|0:0,0:0:0:0:
478,300,64998,2,0,P|437:330|442:373,1,89.2500000000003,0|2,0:0|0:0,0:0:0:0:
267,380,65284,6,0,P|232:354|180:350,1,89.2500000000003,2|0,0:0|2:0,0:0:0:0:
65,380,65569,1,2,0:0:0:0:
107,280,65712,2,0,P|87:202|65:100,1,178.500000000001,2|2,0:0|0:0,0:0:0:0:
106,41,66141,2,0,P|150:34|194:23,1,89.2500000000003,2|2,0:0|0:0,0:0:0:0:
320,50,66427,6,0,P|366:58|390:92,1,89.2500000000003,2|0,0:0|2:0,0:0:0:0:
490,199,66712,1,2,0:0:0:0:
356,189,66855,2,0,B|399:208|440:169|417:150|458:111|515:134,1,178.500000000001,2|2,0:0|0:0,0:0:0:0:
471,335,67284,2,0,P|460:284|428:252,1,89.2500000000003,0|2,0:0|0:0,0:0:0:0:
303,371,67569,6,0,P|347:343|353:306,2,89.2500000000003,2|0|2,0:0|0:0|0:0,0:0:0:0:
228,335,67998,2,0,P|201:254|152:165,1,178.500000000001,2|2,0:0|0:0,0:0:0:0:
198,82,68427,2,0,P|178:129|167:183,1,89.2500000000003,2|2,0:0|0:0,0:0:0:0:
283,201,68712,6,0,P|303:154|314:100,1,89.2500000000003,2|0,0:0|2:0,0:0:0:0:
277,41,68998,1,2,0:0:0:0:
394,80,69141,2,0,P|461:76|485:138,1,133.875,2|0,0:0|2:0,0:0:0:0:
496,134,69427,1,2,0:0:0:0:
478,226,69569,2,0,P|444:229|398:275,1,89.2500017023087,0|2,0:0|0:0,0:0:0:0:
273,371,69855,6,0,P|263:322|243:270,1,89.2500017023087,2|0,0:0|2:0,0:0:0:0:
159,259,70141,1,2,0:0:0:0:
167,164,70284,2,0,B|101:150|110:208|36:184,1,133.875,2|0,0:0|2:0,0:0:0:0:
32,193,70569,2,0,P|63:227|57:289,1,89.2500000000003,2|2,0:0|0:0,0:0:0:0:
62,107,70855,1,2,0:0:0:0:
258,195,70998,6,0,P|302:196|338:171,1,89.2500000000003,2|0,0:0|2:0,0:0:0:0:
268,56,71284,1,2,0:0:0:0:
394,112,71427,2,0,P|413:176|426:241,1,133.875,2|0,0:0|2:0,0:0:0:0:
417,255,71712,1,2,0:0:0:0:
492,152,71855,2,0,P|504:201|516:260,1,89.2500000000003,0|2,0:0|0:0,0:0:0:0:
320,374,72141,6,0,P|327:323|337:280,1,89.2500000000003,2|0,0:0|2:0,0:0:0:0:
382,188,72427,1,2,0:0:0:0:
275,105,72569,2,0,B|199:107|235:160|148:156,1,133.875,2|0,0:0|2:0,0:0:0:0:
150,147,72855,1,2,0:0:0:0:
23,206,72998,1,2,0:0:0:0:
23,206,73141,1,2,0:0:0:0:
15,62,73284,6,0,P|75:52|92:7,1,105,0|0,3:0|2:0,0:0:0:0:
92,16,73498,1,0,0:0:0:0:
92,16,73569,1,8,0:0:0:0:
187,126,73712,2,0,P|175:177|163:253,1,105,8|2,0:0|0:0,0:0:0:0:
223,277,73927,1,2,0:0:0:0:
223,277,73998,1,8,0:0:0:0:
162,362,74141,2,0,P|132:321|71:330,1,105,0|8,0:0|0:0,0:0:0:0:
275,234,74427,6,0,P|262:291|249:362,2,105,0|8|8,0:0|0:0|0:0,0:0:0:0:
401,272,74855,1,0,0:0:0:0:
401,272,74927,1,0,0:0:0:0:
401,272,74998,2,0,P|371:203|328:205,1,105,8|0,0:0|2:0,0:0:0:0:
461,91,75284,1,2,0:0:0:0:
461,91,75427,1,8,0:0:0:0:
301,133,75569,6,0,P|313:76|331:23,1,105,8|0,0:0|2:0,0:0:0:0:
327,31,75784,1,0,0:0:0:0:
327,31,75855,1,8,0:0:0:0:
199,166,75998,2,0,P|148:138|150:93,1,105,8|2,0:0|0:0,0:0:0:0:
127,29,76212,1,2,0:0:0:0:
127,29,76284,1,8,0:0:0:0:
16,176,76427,2,0,P|70:161|124:160,1,105,0|8,0:0|0:0,0:0:0:0:
253,374,76712,6,0,P|227:336|168:351,1,105,0|8,0:0|0:0,0:0:0:0:
79,270,76998,2,0,B|128:278|119:225|172:232,1,105,8|0,0:0|2:0,0:0:0:0:
268,137,77284,1,8,0:0:0:0:
268,137,77355,1,0,0:0:0:0:
268,137,77427,1,8,0:0:0:0:
332,186,77569,1,8,0:0:0:0:
330,343,77712,5,8,0:0:0:0:
330,343,77784,1,8,0:0:0:0:
330,343,77855,2,0,P|389:326|437:324,1,105,8|0,0:0|2:0,0:0:0:0:
432,324,78069,1,0,0:0:0:0:
432,324,78141,1,8,0:0:0:0:
232,198,78284,2,0,B|226:152|226:152|223:146|223:146|217:92,1,105,8|2,0:0|0:0,0:0:0:0:
256,33,78498,1,2,0:0:0:0:
256,33,78569,1,8,0:0:0:0:
147,130,78712,2,0,L|91:140,2,52.5,0|0|8,0:0|0:0|0:0,0:0:0:0:
159,311,78998,6,0,P|125:268|72:274,2,105,0|8|8,0:0|0:0|0:0,0:0:0:0:
253,374,79427,1,0,0:0:0:0:
253,374,79498,1,0,0:0:0:0:
253,374,79569,2,0,P|261:325|280:261,1,105,8|0,0:0|2:0,0:0:0:0:
496,336,79855,1,2,0:0:0:0:
429,377,79998,1,8,0:0:0:0:
474,152,80141,6,0,P|417:157|389:203,1,105,8|0,0:0|2:0,0:0:0:0:
390,193,80355,1,0,0:0:0:0:
390,193,80427,1,8,0:0:0:0:
274,136,80569,2,0,P|265:81|254:28,1,105,8|2,0:0|0:0,0:0:0:0:
187,13,80784,1,2,0:0:0:0:
187,13,80855,1,8,0:0:0:0:
99,118,80998,2,0,L|111:56,2,52.5,0|0|8,0:0|0:0|0:0,0:0:0:0:
89,245,81284,6,0,B|108:232|108:232|189:217,2,105,0|8|8,0:0|0:0|0:0,0:0:0:0:
241,361,81712,1,0,0:0:0:0:
241,361,81784,1,0,0:0:0:0:
241,361,81855,2,0,P|252:286|262:238,1,105,8|8,0:0|0:0,0:0:0:0:
398,303,82141,1,8,0:0:0:0:
408,378,82284,1,8,0:0:0:0:
482,134,82427,6,0,P|435:146|421:208,1,105,2|0,3:0|2:0,0:0:0:0:
417,195,82641,1,0,0:0:0:0:
424,201,82712,2,0,P|392:161|342:164,1,105,2|0,3:0|2:0,0:0:0:0:
258,70,82998,1,2,3:0:0:0:
259,60,83069,1,0,0:0:0:0:
260,50,83141,1,0,0:0:0:0:
144,104,83284,1,2,3:0:0:0:
129,37,83427,1,0,0:0:0:0:
19,169,83569,6,0,P|65:181|79:243,1,105,2|0,3:0|2:0,0:0:0:0:
82,231,83784,1,0,0:0:0:0:
89,237,83855,2,0,P|120:197|170:200,1,105,2|0,3:0|2:0,0:0:0:0:
221,260,84069,1,0,0:0:0:0:
221,260,84141,2,0,P|201:310|192:362,1,105,2|0,3:0|2:0,0:0:0:0:
398,303,84427,1,2,3:0:0:0:
327,318,84569,1,2,3:0:0:0:
491,209,84712,6,0,P|445:194|431:140,1,105,2|0,3:0|2:0,0:0:0:0:
430,143,84927,1,0,0:0:0:0:
437,151,84998,2,0,P|384:157|360:211,1,105,2|0,3:0|2:0,0:0:0:0:
304,79,85284,1,2,3:0:0:0:
305,69,85355,1,0,0:0:0:0:
306,59,85427,1,0,0:0:0:0:
200,103,85569,1,2,3:0:0:0:
185,36,85712,1,0,0:0:0:0:
26,212,85855,6,0,P|72:197|86:143,1,105,2|0,3:0|2:0,0:0:0:0:
86,146,86069,1,0,0:0:0:0:
93,152,86141,2,0,P|146:158|170:212,1,105,2|0,3:0|2:0,0:0:0:0:
225,258,86355,1,0,0:0:0:0:
225,258,86427,1,2,3:0:0:0:
205,346,86569,1,2,3:0:0:0:
117,326,86712,1,2,3:0:0:0:
137,238,86855,1,2,3:0:0:0:
411,270,86998,5,2,3:0:0:0:
308,292,87141,1,2,3:0:0:0:
285,190,87284,1,2,3:0:0:0:
387,166,87427,1,2,3:0:0:0:
93,152,87569,5,2,3:0:0:0:
200,175,87712,1,2,3:0:0:0:
225,67,87855,1,2,3:0:0:0:
117,42,87998,1,2,3:0:0:0:
469,205,88141,5,2,3:0:0:0:
478,191,88212,1,2,3:0:0:0:
480,175,88284,1,2,3:0:0:0:
469,158,88355,1,2,3:0:0:0:
457,147,88427,2,0,P|427:154|400:158,1,52.5,2|2,3:0|3:0,0:0:0:0:
359,259,88569,2,0,P|385:263|411:270,1,52.5,2|2,3:0|3:0,0:0:0:0:
246,161,88712,5,2,3:0:0:0:
215,163,88784,1,2,3:0:0:0:
187,182,88855,1,2,3:0:0:0:
173,208,88927,1,2,3:0:0:0:
176,237,88998,5,10,3:0:0:0:
217,251,89069,1,10,3:0:0:0:
245,285,89141,1,10,3:0:0:0:
239,329,89212,1,10,3:0:0:0:
199,347,89284,6,0,P|245:284|273:357,1,189,4|8,0:0|0:0,0:0:0:0:
273,355,91569,6,0,B|381:341|381:341|383:335|383:335|507:319,1,236.25,0|0,3:0|2:0,0:0:0:0:
512,331,91855,1,2,0:0:0:0:
512,331,92141,6,0,B|533:255|483:217|468:240|409:188|443:122,1,236.25,12|0,0:0|2:0,0:0:0:0:
436,113,92427,1,0,0:0:0:0:
436,113,92712,6,0,B|327:126|327:126|324:132|324:132|198:150,1,236.25,0|0,3:0|2:0,0:0:0:0:
194,139,92998,1,0,0:0:0:0:
178,224,93284,6,0,L|184:260,28,19.6875,8|0|0|0|0|0|0|0|0|0|0|0|0|0|0|0|0|0|0|0|0|0|0|0|0|0|0|0|0,0:0|0:0|0:0|0:0|0:0|0:0|0:0|0:0|0:0|0:0|0:0|0:0|0:0|0:0|0:0|0:0|0:0|0:0|0:0|0:0|0:0|0:0|0:0|0:0|0:0|0:0|0:0|0:0|0:0,0:0:0:0:
248,279,93855,6,0,B|139:265|139:265|136:260|136:260|10:242,1,236.25,0|0,3:0|2:0,0:0:0:0:
4,251,94141,1,2,0:0:0:0:
4,251,94427,6,0,B|17:142|17:142|23:139|23:139|41:13,1,236.25,8|0,0:0|2:0,0:0:0:0:
27,4,94712,2,0,L|-9:-2,12,19.6875
40,19,94998,6,0,B|148:32|148:32|152:38|152:38|278:56,1,236.25,0|0,3:0|2:0,0:0:0:0:
284,47,95284,1,0,0:0:0:0:
284,47,95569,6,0,B|261:83|261:83|279:132,1,78.75,8|0,0:0|0:0,0:0:0:0:
348,128,95712,2,0,B|371:92|371:92|353:43,1,78.75,2|0,0:3|0:0,0:0:0:0:
136,244,95855,6,0,B|113:208|113:208|131:159,1,78.75,2|0,0:0|0:0,0:0:0:0:
200,163,95998,2,0,B|223:199|223:199|205:248,1,78.75,2|0,0:3|0:0,0:0:0:0:
268,360,96141,6,0,B|282:324|282:324|479:290,1,236.25,0|0,3:0|2:0,0:0:0:0:
491,297,96427,1,2,0:0:0:0:
491,297,96712,6,0,B|439:299|409:239|410:202|492:208|536:137|518:12|363:-6|376:121|319:173|227:137|185:40|266:3,1,551.25,8|0,0:0|2:0,0:0:0:0:
259,6,97284,6,0,B|245:42|245:42|48:76,1,236.25,0|0,3:0|2:0,0:0:0:0:
39,67,97569,1,0,0:0:0:0:
39,67,97855,6,0,L|55:155,1,78.75,8|0,0:0|0:0,0:0:0:0:
85,295,97998,2,0,L|69:207,1,78.75,0|0,1:0|0:0,0:0:0:0:
175,79,98141,6,0,B|149:109|149:109|164:146,1,78.75,0|0,1:0|0:0,0:0:0:0:
236,160,98284,2,0,B|262:130|262:130|247:93,1,78.75,0|0,1:0|0:0,0:0:0:0:
85,295,98427,6,0,B|99:259|99:259|296:225,1,236.25,0|0,3:0|2:0,0:0:0:0:
305,234,98712,1,2,0:0:0:0:
305,234,98998,6,0,B|297:176|366:135|435:212|387:263|385:248|329:264|333:336|422:422|589:338|517:231|461:224|449:242|422:172|421:114|477:142|531:104|497:23,1,551.25,12|0,0:0|2:0,0:0:0:0:
502,37,99569,6,0,B|488:73|488:73|291:107,1,236.25,0|0,3:0|2:0,0:0:0:0:
283,95,99855,1,0,0:0:0:0:
283,95,100141,6,0,B|268:132|268:132|297:167,1,78.75,8|0,0:0|0:0,0:0:0:0:
376,148,100284,2,0,B|391:111|391:111|362:76,1,78.75,2|0,0:0|0:0,0:0:0:0:
316,297,100427,5,2,0:0:0:0:
363,285,100498,1,2,0:0:0:0:
398,314,100569,1,2,0:0:0:0:
418,355,100641,1,2,0:0:0:0:
467,354,100712,6,0,B|478:246|478:246|481:242|481:242|496:104,1,236.25,0|0,3:0|2:0,0:0:0:0:
505,112,100998,1,2,0:0:0:0:
505,112,101284,6,0,B|431:129|397:65|422:54|379:-14|317:7,1,236.25,12|0,0:0|2:0,0:0:0:0:
270,65,101569,2,0,B|328:109|385:62|365:43|427:-5|483:37,1,236.25,0|0,0:0|2:0,0:0:0:0:
376,148,101855,6,0,B|362:270|362:270|360:274|360:274|348:382,1,236.25,0|0,3:0|2:0,0:0:0:0:
363,379,102141,1,0,0:0:0:0:
363,379,102427,6,0,B|418:347|418:347|301:327|301:327|263:356|263:356|221:348|221:348|198:319|198:319|167:313|167:313|146:328|146:328|127:324|127:324|112:310|112:310|99:308|99:308|90:315|90:315|79:313|79:313|75:307|75:307|63:305|63:305|54:313|54:313|46:311|46:311|40:305|40:305|33:304|33:304|27:307|27:307|21:306|21:306|17:301|17:301|11:304|11:304|7:299|7:299|3:302|3:302|0:299,1,540.225,8|0,0:0|2:0,0:0:0:0:
0,299,102998,6,0,B|14:177|14:177|16:173|16:173|28:65,1,236.25,0|0,3:0|2:0,0:0:0:0:
2,188,103284,2,0,B|9:135|9:135|9:133|9:133|17:72,1,118.125,2|2,0:0|0:0,0:0:0:0:
17,72,103569,6,0,B|139:86|139:86|143:88|143:88|251:100,1,236.25,8|0,0:0|2:0,0:0:0:0:
244,89,103855,1,2,0:2:0:0:
244,89,104141,6,0,B|230:211|230:211|228:215|228:215|216:323,1,236.25,0|0,3:0|2:0,0:0:0:0:
215,323,104427,6,0,B|224:320|224:320|304:331,1,78.75,4|0,0:0|0:0,0:0:0:0:
207,312,104569,2,0,B|215:308|215:308|295:319,1,78.75,6|2,0:0|0:0,0:0:0:0:
397,200,104712,6,0,B|374:236|374:236|392:285,1,78.75,8|0,0:0|0:0,0:0:0:0:
461,281,104855,2,0,B|484:245|484:245|466:196,1,78.75,2|0,0:3|0:0,0:0:0:0:
254,158,104998,6,0,B|231:122|231:122|249:73,1,78.75,2|0,0:0|0:0,0:0:0:0:
318,77,105141,2,0,B|341:113|341:113|323:162,1,78.75,2|0,0:3|0:0,0:0:0:0:
128,253,105284,6,0,B|135:242|135:242|157:13,1,236.25,0|0,3:0|2:0,0:0:0:0:
147,9,105569,1,2,0:0:0:0:
147,9,105855,6,0,B|158:16|158:16|387:38,1,236.25,8|0,0:0|2:0,0:0:0:0:
391,26,106141,2,0,L|465:31,3,52.5,0|0|0|0,3:2|3:2|3:2|3:2,0:0:0:0:
380,37,106427,6,0,B|373:48|373:48|351:277,1,236.25,0|0,3:0|2:0,0:0:0:0:
361,282,106712,1,0,0:0:0:0:
361,282,106998,6,0,B|350:275|350:275|121:253,1,236.25,8|0,0:0|2:0,0:0:0:0:
12,241,107284,5,0,3:2:0:0:
50,273,107355,1,0,3:2:0:0:
42,313,107427,1,0,3:2:0:0:
58,322,107498,1,0,3:2:0:0:
60,338,107569,6,0,B|143:386|213:267|125:183|26:220|34:263|58:284|-3:336|-86:298|-108:206|-6:37|57:250|124:198|156:140,1,551.25,0|2,3:0|0:0,0:0:0:0:
149,129,108141,6,0,B|160:136|160:136|389:158,1,236.25,8|0,0:0|2:0,0:0:0:0:
394,148,108427,1,2,0:2:0:0:
463,187,108569,1,2,0:2:0:0:
394,148,108712,6,0,B|387:159|387:159|365:388,1,236.25,0|0,3:0|2:0,0:0:0:0:
376,379,108998,2,0,L|383:298,1,78.75,2|0,0:0|0:0,0:0:0:0:
455,344,109141,1,2,0:0:0:0:
210,190,109284,6,0,L|220:279,1,78.75,8|0,0:0|0:0,0:0:0:0:
293,259,109427,2,0,L|284:180,1,78.75,2|0,0:0|0:0,0:0:0:0:
498,86,109569,6,0,L|488:175,1,78.75,2|0,0:0|0:0,0:0:0:0:
394,148,109712,2,0,L|402:69,1,78.75,2|0,0:0|0:0,0:0:0:0:
160,8,109855,5,0,3:0:0:0:
160,8,110141,2,0,L|163:39,4,26.25,8|8|8|8|8,0:0|0:0|0:0|0:0|0:0,0:0:0:0:
59,309,110712,5,2,0:0:0:0:
64,317,110784,1,2,0:0:0:0:
69,324,110855,2,0,B|106:318|106:318|109:320|109:320|157:312,1,78.75,2|0,0:0|0:0,0:0:0:0:
256,352,110998,1,0,3:0:0:0:
0,222,111141,5,2,0:0:0:0:
5,230,111212,1,2,0:0:0:0:
10,237,111284,2,0,B|86:226|86:226|94:231|94:231|175:220,1,157.5,2|2,0:0|0:0,0:0:0:0:
256,0,111569,6,0,B|240:39|240:39|256:73,1,78.75,8|2,0:0|0:0,0:0:0:0:
28,136,111712,2,0,B|104:125|104:125|112:130|112:130|193:119,1,157.5,2|2,0:0|0:0,0:0:0:0:
298,283,111998,1,2,0:0:0:0:
256,352,112141,6,0,B|206:293|206:293|246:223,1,157.5,0|2,3:0|0:3,0:0:0:0:
255,72,112427,1,2,0:0:0:0:
255,72,112712,2,0,B|331:83|331:83|339:78|339:78|420:89,1,157.5,8|2,0:0|0:0,0:0:0:0:
467,330,112998,5,2,0:0:0:0:
462,338,113069,1,2,0:0:0:0:
457,345,113141,2,0,B|420:339|420:339|417:341|417:341|369:333,1,78.75,2|0,0:0|0:0,0:0:0:0:
256,352,113284,1,0,3:0:0:0:
506,238,113427,5,2,0:0:0:0:
500,247,113498,1,2,0:0:0:0:
495,255,113569,2,0,B|458:249|458:249|455:251|455:251|407:243,1,78.75,2|0,0:0|0:0,0:0:0:0:
343,233,113712,2,0,B|305:226|305:226|302:228|302:228|265:222,1,78.75,2|0,0:0|0:0,0:0:0:0:
254,0,113855,6,0,B|270:39|270:39|254:73,1,78.75,8|0,0:0|0:0,0:0:0:0:
467,168,113998,2,0,B|430:162|430:162|427:164|427:164|379:156,1,78.75,2|0,3:0|0:0,0:0:0:0:
256,352,114141,5,2,3:0:0:0:
256,352,114212,1,0,0:0:0:0:
256,352,114284,1,2,3:0:0:0:
256,352,114355,1,0,0:0:0:0:
256,352,114427,6,0,B|306:293|306:293|266:223,1,157.5,0|2,3:0|0:3,0:0:0:0:
254,72,114712,1,2,0:0:0:0:
254,72,114998,2,0,B|178:83|178:83|170:78|170:78|89:89,1,157.5,8|2,0:0|0:0,0:0:0:0:
106,314,115284,5,2,0:0:0:0:
109,323,115355,1,2,0:0:0:0:
112,332,115427,2,0,B|142:304|142:304|132:259,1,78.75,2|0,0:0|0:0,0:0:0:0:
266,223,115569,1,0,3:0:0:0:
57,238,115712,5,2,0:0:0:0:
54,247,115784,1,2,0:0:0:0:
51,256,115855,2,0,B|-8:201|-8:201|26:125,1,157.5,2|2,0:0|0:0,0:0:0:0:
253,0,116141,6,0,B|256:30|256:30|252:37|252:37|254:72,1,78.75,8|0,0:0|0:0,0:0:0:0:
333,77,116284,2,0,B|330:47|330:47|334:40|334:40|332:5,1,78.75,2|0,0:3|0:0,0:0:0:0:
178,88,116427,6,0,B|175:118|175:118|179:125|179:125|177:160,1,78.75,2|0,0:3|0:0,0:0:0:0:
98,165,116569,2,0,B|101:135|101:135|97:128|97:128|99:93,1,78.75,2|0,0:3|0:0,0:0:0:0:
266,223,116712,6,0,B|342:239|342:239|398:167,1,157.5,0|2,3:0|0:3,0:0:0:0:
256,352,116998,2,0,L|250:299,1,39.3750000000001,2|0,0:0|0:0,0:0:0:0:
184,360,117141,2,0,L|178:307,1,39.3750000000001,2|0,0:3|0:0,0:0:0:0:
256,352,117284,6,0,B|332:342|332:342|340:346|340:346|426:334,1,157.5,8|2,0:0|0:0,0:0:0:0:
397,158,117569,5,2,0:0:0:0:
394,167,117641,1,2,0:0:0:0:
391,176,117712,2,0,B|361:148|361:148|371:103,1,78.75,2|0,0:0|0:0,0:0:0:0:
254,77,117855,1,0,3:0:0:0:
485,40,117998,5,2,0:0:0:0:
488,31,118069,1,2,0:0:0:0:
491,22,118141,2,0,B|521:50|521:50|511:95,1,78.75,2|0,0:0|0:0,0:0:0:0:
440,97,118284,1,2,0:3:0:0:
253,0,118427,6,0,B|256:30|256:30|252:37|252:37|254:72,1,78.75,8|0,0:0|0:0,0:0:0:0:
468,174,118569,2,0,B|438:177|438:177|431:173|431:173|396:175,1,78.75,2|0,0:0|0:0,0:0:0:0:
205,249,118712,5,2,0:0:0:0:
205,297,118784,1,2,0:3:0:0:
243,316,118855,1,2,0:3:0:0:
257,338,118927,1,2,0:0:0:0:
256,352,118998,6,0,B|299:343|299:343|281:229,1,157.5,0|2,3:0|0:3,0:0:0:0:
254,77,119284,1,2,0:0:0:0:
254,77,119569,6,0,B|183:111|183:111|121:56,1,157.5,8|2,0:0|0:0,0:0:0:0:
47,331,119855,5,2,0:0:0:0:
49,321,119927,1,2,0:0:0:0:
51,310,119998,2,0,B|72:315|72:315|141:304,1,78.75,2|0,0:0|0:0,0:0:0:0:
281,230,120141,1,0,3:0:0:0:
8,220,120284,5,2,0:0:0:0:
10,210,120355,1,2,0:0:0:0:
12,199,120427,2,0,B|33:204|33:204|175:180,1,157.5,2|2,0:0|0:0,0:0:0:0:
251,0,120712,6,0,B|259:15|259:15|253:88,1,78.75,8|2,0:0|0:0,0:0:0:0:
112,116,120855,2,0,L|147:110,8,19.6875,2|0|0|0|0|0|0|0|2,0:0|0:0|0:0|0:0|0:0|0:0|0:0|0:0|0:0,0:0:0:0:
300,289,121141,1,2,0:0:0:0:
256,352,121284,6,0,B|213:343|213:343|231:229,1,157.5,0|2,3:0|0:3,0:0:0:0:
253,76,121569,1,2,0:0:0:0:
253,76,121855,6,0,B|324:110|324:110|386:55,1,157.5,8|2,0:0|0:0,0:0:0:0:
462,255,122141,5,2,0:0:0:0:
457,263,122212,1,2,0:0:0:0:
452,272,122284,2,0,B|431:267|431:267|362:278,1,78.75,2|0,0:0|0:0,0:0:0:0:
256,352,122427,1,0,3:0:0:0:
505,155,122569,5,2,0:0:0:0:
500,163,122641,1,2,0:0:0:0:
495,172,122712,2,0,B|474:167|474:167|405:178,1,78.75,2|0,0:0|0:0,0:0:0:0:
337,190,122855,2,0,B|318:201|318:201|262:210,1,78.75,2|0,0:0|0:0,0:0:0:0:
258,26,122998,5,8,3:1:0:0:
253,76,123069,1,8,3:1:0:0:
248,126,123141,1,8,3:1:0:0:
324,56,123284,5,8,0:1:0:0:
167,181,123427,1,8,0:1:0:0:
256,352,123569,6,0,P|299:333|356:323,2,105,4|2|2,0:1|0:0|0:0,0:0:0:0:
174,284,124427,6,0,L|179:250,2,26.25,2|2|2,0:0|0:0|0:0,0:0:0:0:
75,319,124855,2,0,L|70:285,2,26.25,2|2|2,0:0|0:0|0:0,0:0:0:0:
256,352,125284,2,0,L|261:318,2,26.25,2|2|2,0:0|0:0|0:0,0:0:0:0:
355,323,125569,6,0,L|366:254,1,52.5,2|2,0:0|0:3,0:0:0:0:
167,181,125855,5,2,0:0:0:0:
167,181,125998,1,2,0:3:0:0:
236,208,126141,1,2,0:3:0:0:
236,208,126284,1,2,0:3:0:0:
300,163,126427,1,2,0:0:0:0:
300,163,126569,1,2,0:3:0:0:
312,84,126712,1,2,0:3:0:0:
312,84,126855,1,2,0:3:0:0:
372,32,126998,5,2,0:0:0:0:
372,32,127141,1,2,0:3:0:0:
444,63,127284,1,2,0:3:0:0:
444,63,127427,1,2,0:3:0:0:
512,92,127569,6,0,L|508:124,3,26.25,2|0|0|0,0:0|0:0|0:0|0:0,0:0:0:0:
511,15,127855,5,0,0:0:0:0:
512,4,127927,1,0,0:0:0:0:
502,3,127998,1,0,0:0:0:0:
500,12,128069,1,0,0:0:0:0:
