osu file format v14

[General]
AudioFilename: audio.mp3
AudioLeadIn: 0
PreviewTime: 91534
Countdown: 0
SampleSet: Soft
StackLeniency: 0.7
Mode: 3
LetterboxInBreaks: 0
SpecialStyle: 0
WidescreenStoryboard: 0

[Editor]
Bookmarks: 128142
DistanceSpacing: 0.8
BeatDivisor: 4
GridSize: 4
TimelineZoom: 2

[Metadata]
Title:Regret
TitleUnicode:Regret
Artist:ARForest
ArtistUnicode:ARForest
Creator:FAMoss
Version:Frost Era
Source:osu!
Tags:lita- stelar featured artist fa mappers' guild mg frost era artcore electronic instrumental piano AFST-001 ln sv
BeatmapID:2606428
BeatmapSetID:1254196

[Difficulty]
HPDrainRate:9.2
CircleSize:4
OverallDifficulty:8.5
ApproachRate:5
SliderMultiplier:1.4
SliderTickRate:1

[Events]
//Background and Video events
0,0,"ARForest Regret.jpg",0,0
//Break Periods
//Storyboard Layer 0 (Background)
//Storyboard Layer 1 (Fail)
//Storyboard Layer 2 (Pass)
//Storyboard Layer 3 (Foreground)
//Storyboard Layer 4 (Overlay)
//Storyboard Sound Samples
Sample,36106,0,"ready.wav",100
Sample,44677,0,"yeeeeeeah.wav",70
Sample,90963,0,"yok.wav",70
Sample,109749,0,"YES_wave.wav",100

[TimingPoints]
142,285.714285714286,4,2,1,50,1,0
18427,-83.3334166665833,4,2,1,50,0,0
18570,-166.666697222225,4,2,1,50,0,0
18713,-100,4,2,1,50,0,0
20713,-83.3333,4,2,1,50,0,0
20856,-166.667,4,2,1,50,0,0
20999,-100,4,2,1,50,0,0
22999,-83.3333,4,2,1,50,0,0
23142,-166.667,4,2,1,50,0,0
23285,-100,4,2,1,50,0,0
25284,-83.3333,4,2,1,50,0,0
25427,-166.667,4,2,1,50,0,0
25570,-100,4,2,1,50,0,0
27570,-83.3333,4,2,1,50,0,0
27713,-125.000187499906,4,2,1,50,0,0
27856,-100,4,2,1,50,0,0
28142,-100,4,2,1,30,0,0
29856,-83.3333,4,2,1,40,0,0
29999,-125.000187499906,4,2,1,40,0,0
30142,-100,4,2,1,40,0,0
32142,-100,4,2,1,50,0,0
34427,-100,4,2,1,60,0,0
36142,-166.666666666667,4,2,1,60,0,0
36284,-250,4,2,1,60,0,0
36427,-166.666666666667,4,2,1,60,0,0
36570,-100,4,2,1,60,0,0
36713,-100,4,2,1,70,0,1
45284,-166.666666666667,4,2,1,70,0,0
45570,-125,4,2,1,70,0,0
45713,-83.3333333333333,4,2,1,70,0,0
45856,-100,4,2,1,70,0,1
47570,-125,4,2,1,70,0,1
47713,-111.111111111111,4,2,1,70,0,1
47856,-83.3333333333333,4,2,1,70,0,1
47999,-166.666666666667,4,2,1,70,0,1
48142,-100,4,2,1,70,0,1
49856,-125,4,2,1,70,0,1
49999,-111.111,4,2,1,70,0,1
50142,-83.3333,4,2,1,70,0,1
50285,-125.000187499906,4,2,1,70,0,1
50428,-100,4,2,1,70,0,1
50713,-166.666666666667,4,2,1,70,0,1
50856,-125,4,2,1,70,0,1
50999,-83.3333333333333,4,2,1,70,0,1
51070,-100,4,2,1,70,0,1
52427,-125,4,2,1,70,0,1
52570,-83.3333333333333,4,2,1,70,0,1
52606,-166.666666666667,4,2,1,70,0,1
52713,-100,4,2,1,70,0,1
54713,-62.5,4,2,1,70,0,1
54749,-250.000000000001,4,2,1,70,0,1
54784,-100,4,2,1,70,0,1
54856,-62.5,4,2,1,70,0,1
54892,-250.000000000001,4,2,1,70,0,1
54927,-100,4,2,1,70,0,1
54999,-100,4,2,1,50,0,0
73284,-100,4,2,1,60,0,0
82427,-83.3333,4,2,1,60,0,0
82570,-125.000187499906,4,2,1,60,0,0
82713,-100,4,2,1,60,0,0
84713,-83.3333,4,2,1,60,0,0
84856,-125.000187499906,4,2,1,60,0,0
84999,-100,4,2,1,60,0,0
89284,-250,4,2,1,60,0,0
90999,-71.4285714285714,4,2,1,60,0,0
91070,-166.666666666667,4,2,1,60,0,0
91142,-100,4,2,1,60,0,0
91284,-62.5000218749991,4,2,1,60,0,0
91320,-250.00075000075,4,2,1,60,0,0
91355,-100,4,2,1,60,0,0
91427,-62.5000218749991,4,2,1,60,0,0
91463,-250.00075000075,4,2,1,60,0,0
91498,-100,4,2,1,60,0,0
91570,-50,4,2,1,70,0,1
91606,-125,4,2,1,70,0,1
91642,-100,4,2,1,70,0,1
92142,-50,4,2,1,70,0,1
92178,-125,4,2,1,70,0,1
92214,-100,4,2,1,70,0,1
92713,-50,4,2,1,70,0,1
92749,-125,4,2,1,70,0,1
92785,-100,4,2,1,70,0,1
93284,-50,4,2,1,70,0,1
93320,-125,4,2,1,70,0,1
93356,-100,4,2,1,70,0,1
93856,-50,4,2,1,70,0,1
93892,-125,4,2,1,70,0,1
93928,-100,4,2,1,70,0,1
94427,-50,4,2,1,70,0,1
94463,-125,4,2,1,70,0,1
94499,-100,4,2,1,70,0,1
94999,-50,4,2,1,70,0,1
95035,-125,4,2,1,70,0,1
95071,-100,4,2,1,70,0,1
95570,-50,4,2,1,70,0,1
95606,-125,4,2,1,70,0,1
95642,-100,4,2,1,70,0,1
96142,-50,4,2,1,70,0,1
96178,-125,4,2,1,70,0,1
96214,-100,4,2,1,70,0,1
96713,-50,4,2,1,70,0,1
96749,-125,4,2,1,70,0,1
96785,-100,4,2,1,70,0,1
97284,-50,4,2,1,70,0,1
97320,-125,4,2,1,70,0,1
97356,-100,4,2,1,70,0,1
97856,-50,4,2,1,70,0,1
97892,-125,4,2,1,70,0,1
97928,-100,4,2,1,70,0,1
98427,-50,4,2,1,70,0,1
98463,-125,4,2,1,70,0,1
98499,-100,4,2,1,70,0,1
98999,-50,4,2,1,70,0,1
99035,-125,4,2,1,70,0,1
99071,-100,4,2,1,70,0,1
99570,-50,4,2,1,70,0,1
99606,-125,4,2,1,70,0,1
99642,-100,4,2,1,70,0,1
100142,-50,4,2,1,70,0,1
100178,-125,4,2,1,70,0,1
100214,-100,4,2,1,70,0,1
100713,-50,4,2,1,70,0,1
100749,-125,4,2,1,70,0,1
100785,-100,4,2,1,70,0,1
101285,-50,4,2,1,70,0,1
101321,-125,4,2,1,70,0,1
101357,-100,4,2,1,70,0,1
101856,-50,4,2,1,70,0,1
101892,-125,4,2,1,70,0,1
101928,-100,4,2,1,70,0,1
102427,-50,4,2,1,70,0,1
102463,-125,4,2,1,70,0,1
102499,-100,4,2,1,70,0,1
102999,-50,4,2,1,70,0,1
103035,-125,4,2,1,70,0,1
103071,-100,4,2,1,70,0,1
103570,-50,4,2,1,70,0,1
103606,-125,4,2,1,70,0,1
103642,-100,4,2,1,70,0,1
104142,-50,4,2,1,70,0,1
104178,-125,4,2,1,70,0,1
104214,-100,4,2,1,70,0,1
104713,-50,4,2,1,70,0,1
104749,-125,4,2,1,70,0,1
104785,-100,4,2,1,70,0,1
105285,-50,4,2,1,70,0,1
105321,-125,4,2,1,70,0,1
105357,-100,4,2,1,70,0,1
105856,-50,4,2,1,70,0,1
105892,-125,4,2,1,70,0,1
105928,-100,4,2,1,70,0,1
106427,-50,4,2,1,70,0,1
106463,-125,4,2,1,70,0,1
106499,-100,4,2,1,70,0,1
106999,-50,4,2,1,70,0,1
107035,-125,4,2,1,70,0,1
107071,-100,4,2,1,70,0,1
107570,-50,4,2,1,70,0,1
107606,-125,4,2,1,70,0,1
107642,-100,4,2,1,70,0,1
108142,-50,4,2,1,70,0,1
108178,-125,4,2,1,70,0,1
108214,-100,4,2,1,70,0,1
108713,-50,4,2,1,70,0,1
108749,-125,4,2,1,70,0,1
108785,-100,4,2,1,70,0,1
109284,-100,4,2,1,70,0,0
109856,-125,4,2,1,70,0,0
109999,-90.9090909090909,4,2,1,70,0,0
110142,-76.9230769230769,4,2,1,70,0,0
110185,-149.254,4,2,1,70,0,0
110213,-76.9230769230769,4,2,1,70,0,0
110256,-149.254,4,2,1,70,0,0
110284,-76.9230769230769,4,2,1,70,0,0
110327,-149.254,4,2,1,70,0,0
110356,-76.9230769230769,4,2,1,70,0,0
110399,-149.254,4,2,1,70,0,0
110427,-50,4,2,1,70,0,1
110463,-125,4,2,1,70,0,1
110499,-100,4,2,1,70,0,1
110999,-50,4,2,1,70,0,1
111035,-125,4,2,1,70,0,1
111071,-100,4,2,1,70,0,1
111570,-50,4,2,1,70,0,1
111606,-125,4,2,1,70,0,1
111642,-100,4,2,1,70,0,1
112142,-50,4,2,1,70,0,1
112178,-125,4,2,1,70,0,1
112214,-100,4,2,1,70,0,1
112427,-125,4,2,1,70,0,1
112570,-90.9091,4,2,1,70,0,1
112713,-50,4,2,1,70,0,1
112749,-125,4,2,1,70,0,1
112785,-100,4,2,1,70,0,1
113284,-50,4,2,1,70,0,1
113320,-125,4,2,1,70,0,1
113356,-100,4,2,1,70,0,1
113856,-50,4,2,1,70,0,1
113892,-125,4,2,1,70,0,1
113928,-100,4,2,1,70,0,1
114427,-50,4,2,1,70,0,1
114463,-125,4,2,1,70,0,1
114499,-100,4,2,1,70,0,1
114713,-125,4,2,1,70,0,1
114856,-90.9091,4,2,1,70,0,1
114999,-50,4,2,1,70,0,1
115035,-125,4,2,1,70,0,1
115071,-100,4,2,1,70,0,1
115570,-50,4,2,1,70,0,1
115606,-125,4,2,1,70,0,1
115642,-100,4,2,1,70,0,1
116142,-50,4,2,1,70,0,1
116178,-125,4,2,1,70,0,1
116214,-100,4,2,1,70,0,1
116713,-50,4,2,1,70,0,1
116749,-125,4,2,1,70,0,1
116785,-100,4,2,1,70,0,1
116999,-125,4,2,1,70,0,1
117142,-90.9091,4,2,1,70,0,1
117284,-50,4,2,1,70,0,1
117320,-125,4,2,1,70,0,1
117356,-100,4,2,1,70,0,1
117856,-50,4,2,1,70,0,1
117892,-125,4,2,1,70,0,1
117928,-100,4,2,1,70,0,1
118427,-50,4,2,1,70,0,1
118463,-125,4,2,1,70,0,1
118499,-100,4,2,1,70,0,1
118999,-50,4,2,1,70,0,1
119035,-125,4,2,1,70,0,1
119071,-100,4,2,1,70,0,1
119284,-125,4,2,1,70,0,1
119427,-90.9091,4,2,1,70,0,1
119571,-50,4,2,1,70,0,1
119607,-125,4,2,1,70,0,1
119643,-100,4,2,1,70,0,1
120142,-50,4,2,1,70,0,1
120178,-125,4,2,1,70,0,1
120214,-100,4,2,1,70,0,1
120714,-50,4,2,1,70,0,1
120750,-125,4,2,1,70,0,1
120786,-100,4,2,1,70,0,1
121285,-50,4,2,1,70,0,1
121321,-125,4,2,1,70,0,1
121357,-100,4,2,1,70,0,1
121570,-125,4,2,1,70,0,1
121713,-90.9091,4,2,1,70,0,1
121856,-50,4,2,1,70,0,1
121892,-125,4,2,1,70,0,1
121928,-100,4,2,1,70,0,1
122428,-50,4,2,1,70,0,1
122464,-125,4,2,1,70,0,1
122500,-100,4,2,1,70,0,1
122999,-50,4,2,1,70,0,1
123035,-125,4,2,1,70,0,1
123071,-100,4,2,1,70,0,1
123570,-100,4,2,1,60,0,0

[HitObjects]
320,192,9284,5,0,0:0:0:0:
448,192,9284,1,0,0:0:0:0:
64,192,9427,1,0,0:0:0:0:
192,192,9427,1,0,0:0:0:0:
64,192,9570,1,0,0:0:0:0:
448,192,9570,1,0,0:0:0:0:
320,192,9713,128,0,9856:0:0:0:0:
64,192,9999,1,0,0:0:0:0:
192,192,9999,1,0,0:0:0:0:
320,192,10142,1,0,0:0:0:0:
64,192,10284,1,0,0:0:0:0:
448,192,10284,1,0,0:0:0:0:
192,192,10427,1,0,0:0:0:0:
320,192,10570,1,0,0:0:0:0:
448,192,10570,1,0,0:0:0:0:
64,192,10713,1,0,0:0:0:0:
320,192,10713,1,0,0:0:0:0:
192,192,10856,128,0,10999:0:0:0:0:
192,192,11142,1,0,0:0:0:0:
448,192,11142,1,0,0:0:0:0:
320,192,11284,1,0,0:0:0:0:
64,192,11427,1,0,0:0:0:0:
320,192,11427,1,0,0:0:0:0:
64,192,11570,1,0,0:0:0:0:
192,192,11570,1,0,0:0:0:0:
320,192,11713,1,0,0:0:0:0:
448,192,11713,1,0,0:0:0:0:
64,192,11856,1,0,0:0:0:0:
448,192,11856,1,0,0:0:0:0:
192,192,11999,128,0,12142:0:0:0:0:
320,192,12284,1,0,0:0:0:0:
448,192,12284,1,0,0:0:0:0:
192,192,12427,1,0,0:0:0:0:
64,192,12570,1,0,0:0:0:0:
448,192,12570,1,0,0:0:0:0:
320,192,12713,1,0,0:0:0:0:
64,192,12856,1,0,0:0:0:0:
192,192,12856,1,0,0:0:0:0:
192,192,12999,1,0,0:0:0:0:
448,192,12999,1,0,0:0:0:0:
320,192,13142,128,0,13284:0:0:0:0:
64,192,13427,1,0,0:0:0:0:
320,192,13427,1,0,0:0:0:0:
192,192,13570,1,0,0:0:0:0:
320,192,13570,1,0,0:0:0:0:
192,192,13713,1,0,0:0:0:0:
448,192,13713,1,0,0:0:0:0:
320,192,13856,1,0,0:0:0:0:
448,192,13856,1,0,0:0:0:0:
64,192,13999,1,0,0:0:0:0:
192,192,13999,1,0,0:0:0:0:
64,192,14142,1,0,0:0:0:0:
320,192,14142,1,0,0:0:0:0:
448,192,14284,128,0,14427:0:0:0:0:
64,192,14570,1,0,0:0:0:0:
192,192,14570,1,0,0:0:0:0:
320,192,14713,1,0,0:0:0:0:
192,192,14856,1,0,0:0:0:0:
448,192,14856,1,0,0:0:0:0:
64,192,14999,1,0,0:0:0:0:
320,192,15142,1,0,0:0:0:0:
448,192,15142,1,0,0:0:0:0:
192,192,15284,1,0,0:0:0:0:
448,192,15284,1,0,0:0:0:0:
64,192,15427,128,0,15570:0:0:0:0:
192,192,15713,1,0,0:0:0:0:
448,192,15713,1,0,0:0:0:0:
320,192,15856,1,0,0:0:0:0:
64,192,15999,1,0,0:0:0:0:
320,192,15999,1,0,0:0:0:0:
64,192,16142,1,0,0:0:0:0:
192,192,16142,1,0,0:0:0:0:
320,192,16284,1,0,0:0:0:0:
448,192,16284,1,0,0:0:0:0:
192,192,16427,1,0,0:0:0:0:
448,192,16427,1,0,0:0:0:0:
64,192,16570,128,0,16713:0:0:0:0:
320,192,16856,1,0,0:0:0:0:
448,192,16856,1,0,0:0:0:0:
192,192,16999,1,0,0:0:0:0:
64,192,17142,1,0,0:0:0:0:
320,192,17142,1,0,0:0:0:0:
320,192,17284,1,0,0:0:0:0:
448,192,17284,1,0,0:0:0:0:
64,192,17427,1,0,0:0:0:0:
192,192,17427,1,0,0:0:0:0:
64,192,17570,1,0,0:0:0:0:
320,192,17570,1,0,0:0:0:0:
320,192,17713,1,0,0:0:0:0:
448,192,17713,1,0,0:0:0:0:
64,192,17856,1,0,0:0:0:0:
192,192,17856,1,0,0:0:0:0:
64,192,17999,1,0,0:0:0:0:
320,192,17999,1,0,0:0:0:0:
320,192,18142,1,0,0:0:0:0:
448,192,18142,1,0,0:0:0:0:
192,192,18284,1,0,0:0:0:0:
448,192,18284,1,0,0:0:0:0:
64,192,18427,1,2,0:0:0:0:
320,192,18427,1,4,0:0:0:0:
448,192,18427,1,0,0:0:0:0:
64,192,18713,1,0,0:0:0:0:
192,192,18713,1,0,0:0:0:0:
64,192,18999,1,0,0:0:0:50:Cymatics - House Clap 2.wav
320,192,18999,1,0,0:0:0:0:
320,192,19284,1,2,0:0:0:0:
448,192,19284,1,0,0:0:0:0:
448,192,19427,1,0,0:0:0:0:
64,192,19570,1,0,0:0:0:0:
192,192,19570,1,0,0:0:0:0:
64,192,19856,1,2,0:0:0:0:
192,192,19856,1,0,0:0:0:0:
448,192,19856,1,0,0:0:0:0:
64,192,20142,1,0,0:0:0:50:Cymatics - House Clap 2.wav
320,192,20142,1,0,0:0:0:0:
192,192,20427,1,0,0:0:0:0:
448,192,20427,1,0,0:0:0:0:
320,192,20570,1,0,0:0:0:0:
64,192,20713,1,2,0:0:0:0:
192,192,20713,1,0,0:0:0:0:
448,192,20713,1,0,0:0:0:0:
320,192,20999,1,0,0:0:0:0:
448,192,20999,1,0,0:0:0:0:
192,192,21284,1,0,0:0:0:50:Cymatics - House Clap 2.wav
448,192,21284,1,0,0:0:0:0:
320,192,21570,1,0,0:0:0:0:
64,192,21713,1,2,0:0:0:0:
192,192,21713,1,0,0:0:0:0:
320,192,21856,1,0,0:0:0:0:
448,192,21856,1,0,0:0:0:0:
64,192,22142,1,2,0:0:0:0:
320,192,22142,1,0,0:0:0:0:
448,192,22142,1,0,0:0:0:0:
192,192,22427,1,0,0:0:0:50:Cymatics - House Clap 2.wav
448,192,22427,1,0,0:0:0:0:
64,192,22713,1,0,0:0:0:0:
320,192,22713,1,0,0:0:0:0:
192,192,22856,1,0,0:0:0:0:
64,192,22999,1,2,0:0:0:0:
320,192,22999,1,0,0:0:0:0:
448,192,22999,1,0,0:0:0:0:
64,192,23284,1,0,0:0:0:0:
192,192,23284,1,0,0:0:0:0:
64,192,23570,1,0,0:0:0:50:Cymatics - House Clap 2.wav
320,192,23570,1,0,0:0:0:0:
320,192,23856,1,2,0:0:0:0:
448,192,23856,1,0,0:0:0:0:
320,192,23999,1,0,0:0:0:0:
64,192,24142,1,0,0:0:0:0:
192,192,24142,1,0,0:0:0:0:
64,192,24427,1,2,0:0:0:0:
192,192,24427,1,0,0:0:0:0:
448,192,24427,1,0,0:0:0:0:
64,192,24713,1,0,0:0:0:50:Cymatics - House Clap 2.wav
320,192,24713,1,0,0:0:0:0:
192,192,24999,1,0,0:0:0:0:
448,192,24999,1,0,0:0:0:0:
320,192,25142,1,0,0:0:0:0:
64,192,25284,1,2,0:0:0:0:
192,192,25284,1,0,0:0:0:0:
448,192,25284,1,0,0:0:0:0:
320,192,25570,1,0,0:0:0:0:
448,192,25570,1,0,0:0:0:0:
192,192,25856,1,0,0:0:0:50:Cymatics - House Clap 2.wav
448,192,25856,1,0,0:0:0:0:
320,192,26142,1,0,0:0:0:0:
64,192,26284,1,2,0:0:0:0:
192,192,26284,1,0,0:0:0:0:
320,192,26427,1,0,0:0:0:0:
448,192,26427,1,0,0:0:0:0:
64,192,26713,1,2,0:0:0:0:
320,192,26713,1,0,0:0:0:0:
448,192,26713,1,0,0:0:0:0:
192,192,26999,1,0,0:0:0:50:Cymatics - House Clap 2.wav
448,192,26999,1,0,0:0:0:0:
64,192,27284,1,2,0:0:0:0:
320,192,27284,1,0,0:0:0:0:
192,192,27427,1,0,0:0:0:0:
64,192,27570,1,2,0:0:0:0:
320,192,27570,1,4,0:0:0:0:
448,192,27570,1,0,0:0:0:0:
64,192,27856,1,2,0:0:0:0:
192,192,27856,1,0,0:0:0:0:
192,192,28142,1,8,0:0:0:0:
320,192,28142,1,0,0:0:0:0:
448,192,28142,1,0,0:0:0:0:
64,192,28427,1,8,0:0:0:0:
320,192,28427,1,0,0:0:0:0:
448,192,28427,1,0,0:0:0:0:
320,192,28570,1,0,0:0:0:0:
64,192,28713,1,8,0:0:0:0:
192,192,28713,1,0,0:0:0:0:
448,192,28713,1,0,0:0:0:0:
64,192,28999,1,8,0:0:0:0:
192,192,28999,1,0,0:0:0:0:
320,192,28999,1,0,0:0:0:0:
192,192,29284,1,8,0:0:0:0:
320,192,29284,1,0,0:0:0:0:
448,192,29284,1,0,0:0:0:0:
64,192,29570,1,8,0:0:0:0:
320,192,29570,1,0,0:0:0:0:
448,192,29570,1,0,0:0:0:0:
192,192,29713,1,0,0:0:0:0:
64,192,29856,1,8,0:0:0:0:
192,192,29856,1,0,0:0:0:0:
448,192,29856,1,0,0:0:0:0:
64,192,30142,1,8,0:0:0:0:
192,192,30142,1,0,0:0:0:0:
320,192,30142,1,0,0:0:0:0:
192,192,30427,1,8,0:0:0:0:
320,192,30427,1,0,0:0:0:0:
448,192,30427,1,0,0:0:0:0:
64,192,30713,1,8,0:0:0:0:
320,192,30713,1,0,0:0:0:0:
448,192,30713,1,0,0:0:0:0:
320,192,30856,1,0,0:0:0:0:
64,192,30999,1,8,0:0:0:0:
192,192,30999,1,0,0:0:0:0:
448,192,30999,1,0,0:0:0:0:
448,192,31142,1,0,0:0:0:0:
64,192,31284,1,8,0:0:0:0:
192,192,31284,1,0,0:0:0:0:
320,192,31284,1,0,0:0:0:0:
64,192,31427,1,0,0:0:0:0:
192,192,31570,1,8,0:0:0:0:
320,192,31570,1,0,0:0:0:0:
448,192,31570,1,0,0:0:0:0:
64,192,31713,1,2,0:0:0:0:
320,192,31713,1,0,0:0:0:0:
64,192,31856,1,8,0:0:0:0:
192,192,31856,1,0,0:0:0:0:
448,192,31856,1,0,0:0:0:0:
192,192,31999,1,2,0:0:0:0:
320,192,31999,1,0,0:0:0:0:
64,192,32142,1,8,0:0:0:0:
320,192,32142,1,2,0:0:0:0:
448,192,32142,1,0,0:0:0:0:
192,192,32284,1,8,0:0:0:0:
448,192,32284,1,0,0:0:0:0:
64,192,32427,1,8,0:0:0:0:
192,192,32427,1,2,0:0:0:0:
320,192,32427,1,0,0:0:0:0:
320,192,32570,1,8,0:0:0:0:
448,192,32570,1,0,0:0:0:0:
64,192,32713,1,8,0:0:0:0:
192,192,32713,1,2,0:0:0:0:
448,192,32713,1,0,0:0:0:0:
64,192,32856,1,8,0:0:0:0:
320,192,32856,1,0,0:0:0:0:
192,192,32999,1,8,0:0:0:0:
320,192,32999,1,2,0:0:0:0:
448,192,32999,1,0,0:0:0:0:
64,192,33142,1,8,0:0:0:0:
448,192,33142,1,0,0:0:0:0:
64,192,33284,1,8,0:0:0:0:
192,192,33284,1,2,0:0:0:0:
320,192,33284,1,0,0:0:0:0:
192,192,33427,1,8,0:0:0:0:
448,192,33427,1,0,0:0:0:0:
64,192,33570,1,8,0:0:0:0:
320,192,33570,1,2,0:0:0:0:
448,192,33570,1,0,0:0:0:0:
192,192,33713,1,8,0:0:0:0:
320,192,33713,1,0,0:0:0:0:
64,192,33856,1,8,0:0:0:0:
192,192,33856,1,2,0:0:0:0:
448,192,33856,1,0,0:0:0:0:
64,192,33999,1,8,0:0:0:0:
320,192,33999,1,0,0:0:0:0:
192,192,34142,1,8,0:0:0:0:
320,192,34142,1,2,0:0:0:0:
448,192,34142,1,0,0:0:0:0:
64,192,34284,1,8,0:0:0:0:
192,192,34284,1,0,0:0:0:0:
320,192,34427,1,8,0:0:0:0:
448,192,34427,1,2,0:0:0:0:
64,192,34499,1,8,0:0:0:0:
192,192,34499,1,0,0:0:0:0:
320,192,34570,1,8,0:0:0:0:
448,192,34570,1,0,0:0:0:0:
64,192,34642,1,8,0:0:0:0:
192,192,34642,1,0,0:0:0:0:
320,192,34713,1,8,0:0:0:0:
448,192,34713,1,2,0:0:0:0:
64,192,34784,1,8,0:0:0:0:
192,192,34784,1,0,0:0:0:0:
320,192,34856,1,8,0:0:0:0:
448,192,34856,1,0,0:0:0:0:
64,192,34927,1,8,0:0:0:0:
192,192,34927,1,0,0:0:0:0:
320,192,34999,1,8,0:0:0:0:
448,192,34999,1,2,0:0:0:0:
64,192,35070,1,8,0:0:0:0:
192,192,35070,1,0,0:0:0:0:
320,192,35142,1,8,0:0:0:0:
448,192,35142,1,0,0:0:0:0:
64,192,35213,1,8,0:0:0:0:
192,192,35213,1,0,0:0:0:0:
320,192,35284,1,8,0:0:0:0:
448,192,35284,1,2,0:0:0:0:
64,192,35356,1,8,0:0:0:0:
192,192,35356,1,0,0:0:0:0:
320,192,35427,1,8,0:0:0:0:
448,192,35427,1,0,0:0:0:0:
64,192,35499,1,8,0:0:0:0:
192,192,35499,1,0,0:0:0:0:
320,192,35570,128,0,35642:0:0:0:0:
192,192,35642,128,0,35713:0:0:0:0:
320,192,35713,128,0,35784:0:0:0:0:
192,192,35784,128,0,35856:0:0:0:0:
320,192,35856,128,0,35927:0:0:0:0:
192,192,35927,128,0,35999:0:0:0:0:
320,192,35999,128,0,36070:0:0:0:0:
192,192,36070,128,0,36142:0:0:0:0:
64,192,36142,128,0,36570:0:0:0:0:
448,192,36142,128,0,36570:0:0:0:0:
320,192,36570,1,0,0:0:0:0:
192,192,36618,1,0,0:0:0:0:
320,192,36665,1,0,0:0:0:0:
64,192,36713,128,2,37213:0:0:0:0:
192,192,36713,1,4,0:0:0:0:
448,192,36713,1,0,0:0:0:70:Sweepdown.wav
192,192,36927,128,0,37213:0:0:0:0:
320,192,37070,128,0,37213:0:0:0:0:
448,192,37142,128,0,37213:0:0:0:0:
64,192,37284,128,2,37784:0:0:0:0:
448,192,37284,128,0,37380:0:0:0:0:
320,192,37380,128,0,37475:0:0:0:0:
192,192,37475,128,0,37570:0:0:0:0:
448,192,37570,128,0,37784:0:0:0:0:
320,192,37642,128,0,37784:0:0:0:0:
64,192,37856,1,2,0:0:0:0:
192,192,37856,1,0,0:0:0:0:
448,192,37856,128,0,38356:0:0:0:0:
320,192,38070,128,0,38356:0:0:0:0:
192,192,38213,128,0,38356:0:0:0:0:
64,192,38284,128,0,38356:0:0:0:0:
64,192,38427,128,2,38522:0:0:0:0:
448,192,38427,128,0,38927:0:0:0:0:
192,192,38522,128,0,38618:0:0:0:0:
320,192,38618,128,0,38713:0:0:0:0:
64,192,38713,128,0,38927:0:0:0:0:
192,192,38784,128,0,38927:0:0:0:0:
64,192,38999,128,2,39499:0:0:0:0:
320,192,38999,1,0,0:0:0:0:
448,192,38999,1,0,0:0:0:0:
192,192,39094,128,0,39499:0:0:0:0:
320,192,39213,128,0,39499:0:0:0:0:
448,192,39356,128,0,39499:0:0:0:0:
64,192,39570,128,2,40070:0:0:0:0:
448,192,39570,128,0,39665:0:0:0:0:
192,192,39665,128,0,39761:0:0:0:0:
320,192,39761,128,0,39856:0:0:0:0:
448,192,39856,128,0,40070:0:0:0:0:
192,192,39927,128,0,40070:0:0:0:0:
64,192,40142,1,2,0:0:0:0:
192,192,40142,1,0,0:0:0:0:
448,192,40142,128,0,40642:0:0:0:0:
320,192,40237,128,0,40642:0:0:0:0:
192,192,40356,128,0,40642:0:0:0:0:
64,192,40499,128,0,40642:0:0:0:0:
320,192,40713,1,2,0:0:0:0:
448,192,40713,1,0,0:0:0:0:
64,192,40856,128,0,40927:0:0:0:0:
192,192,40856,128,0,40927:0:0:0:0:
64,192,40999,128,0,41070:0:0:0:0:
192,192,40999,128,0,41070:0:0:0:0:
64,192,41142,128,0,41213:0:0:0:0:
192,192,41142,128,0,41213:0:0:0:0:
64,192,41284,1,2,0:0:0:0:
448,192,41284,1,0,0:0:0:0:
192,192,41380,1,0,0:0:0:0:
320,192,41427,1,0,0:0:0:0:
448,192,41475,1,0,0:0:0:0:
64,192,41522,1,0,0:0:0:0:
192,192,41570,1,0,0:0:0:0:
320,192,41618,1,0,0:0:0:0:
448,192,41665,1,0,0:0:0:0:
64,192,41713,1,0,0:0:0:0:
192,192,41761,1,0,0:0:0:0:
320,192,41808,1,0,0:0:0:0:
64,192,41856,128,2,41951:0:0:0:0:
448,192,41856,128,0,42356:0:0:0:0:
192,192,41951,128,0,42046:0:0:0:0:
320,192,42046,128,0,42142:0:0:0:0:
64,192,42142,128,0,42356:0:0:0:0:
192,192,42213,128,0,42356:0:0:0:0:
64,192,42427,128,2,42927:0:0:0:0:
320,192,42427,1,0,0:0:0:0:
448,192,42427,1,0,0:0:0:0:
192,192,42522,128,0,42927:0:0:0:0:
320,192,42665,128,0,42927:0:0:0:0:
448,192,42761,128,0,42927:0:0:0:0:
64,192,42999,1,2,0:0:0:0:
448,192,42999,128,0,43094:0:0:0:0:
192,192,43094,1,0,0:0:0:0:
320,192,43142,128,0,43237:0:0:0:0:
64,192,43237,1,0,0:0:0:0:
192,192,43284,128,0,43380:0:0:0:0:
448,192,43380,1,0,0:0:0:0:
64,192,43427,128,0,43522:0:0:0:0:
320,192,43522,1,0,0:0:0:0:
64,192,43570,1,2,0:0:0:0:
192,192,43570,1,0,0:0:0:0:
448,192,43570,128,0,44070:0:0:0:0:
320,192,43665,128,0,44070:0:0:0:0:
192,192,43784,128,0,44070:0:0:0:0:
64,192,43927,128,0,44070:0:0:0:0:
320,192,44142,128,2,44237:0:0:0:0:
448,192,44142,128,0,44642:0:0:0:0:
64,192,44237,128,0,44332:0:0:0:0:
320,192,44332,128,0,44427:0:0:0:0:
64,192,44427,128,0,44642:0:0:0:0:
192,192,44499,128,0,44642:0:0:0:0:
64,192,44713,1,2,0:0:0:0:
320,192,44713,1,0,0:0:0:0:
448,192,44713,1,0,0:0:0:0:
192,192,44784,128,0,44856:0:0:0:0:
320,192,44856,128,0,44927:0:0:0:0:
64,192,44927,1,0,0:0:0:0:
192,192,44999,128,0,45070:0:0:0:0:
320,192,45070,128,0,45142:0:0:0:0:
192,192,45142,128,0,45213:0:0:0:0:
320,192,45213,128,0,45284:0:0:0:0:
64,192,45284,128,8,45784:0:0:0:0:
192,192,45284,1,0,0:0:0:0:
448,192,45284,128,0,45784:0:0:0:0:
64,192,45856,1,2,0:0:0:0:
192,192,45856,1,4,0:0:0:0:
320,192,45856,1,0,0:0:0:0:
448,192,45856,1,0,0:0:0:0:
192,192,45999,1,0,0:0:0:0:
64,192,46142,128,2,46356:0:0:0:0:
320,192,46142,1,8,0:0:0:0:
448,192,46142,1,0,0:0:0:0:
320,192,46284,128,0,46427:0:0:0:0:
64,192,46427,1,2,0:0:0:0:
448,192,46427,1,0,0:0:0:0:
320,192,46570,1,0,0:0:0:0:
320,192,46642,1,0,0:0:0:0:
64,192,46713,1,8,0:0:0:0:
192,192,46713,1,2,0:0:0:0:
448,192,46713,128,0,46927:0:0:0:0:
192,192,46856,128,0,46999:0:0:0:0:
64,192,46999,1,2,0:0:0:0:
448,192,46999,1,0,0:0:0:0:
192,192,47142,1,0,0:0:0:0:
192,192,47213,1,0,0:0:0:0:
64,192,47284,128,2,47499:0:0:0:0:
320,192,47284,1,8,0:0:0:0:
448,192,47284,1,0,0:0:0:0:
448,192,47427,128,0,47570:0:0:0:0:
64,192,47570,1,2,0:0:0:0:
192,192,47570,128,0,47784:0:0:0:0:
320,192,47642,128,0,47856:0:0:0:0:
64,192,47856,1,8,0:0:0:0:
192,192,47856,1,2,0:0:0:0:
448,192,47856,128,0,48070:0:0:0:0:
64,192,47999,128,0,48142:0:0:0:0:
320,192,48142,1,2,0:0:0:0:
448,192,48142,128,0,48332:0:0:0:0:
192,192,48237,128,0,48427:0:0:0:0:
320,192,48284,128,0,48427:0:0:0:0:
64,192,48427,128,8,48618:0:0:0:0:
448,192,48427,1,2,0:0:0:0:
320,192,48522,128,0,48713:0:0:0:0:
192,192,48570,128,0,48713:0:0:0:0:
64,192,48713,1,2,0:0:0:0:
448,192,48713,1,0,0:0:0:0:
192,192,48856,1,0,0:0:0:0:
192,192,48927,1,0,0:0:0:0:
64,192,48999,1,2,0:0:0:0:
320,192,48999,1,8,0:0:0:0:
448,192,48999,128,0,49213:0:0:0:0:
64,192,49142,1,0,0:0:0:0:
192,192,49213,1,0,0:0:0:0:
320,192,49284,1,2,0:0:0:0:
448,192,49284,1,0,0:0:0:0:
320,192,49427,1,0,0:0:0:0:
320,192,49499,1,0,0:0:0:0:
64,192,49570,128,2,49784:0:0:0:0:
192,192,49570,1,8,0:0:0:0:
448,192,49570,1,0,0:0:0:0:
448,192,49713,1,0,0:0:0:0:
320,192,49784,1,0,0:0:0:0:
64,192,49856,128,2,50070:0:0:0:0:
192,192,49856,1,0,0:0:0:0:
448,192,49927,128,0,50070:0:0:0:0:
320,192,49999,128,0,50142:0:0:0:0:
64,192,50142,1,8,0:0:0:0:
192,192,50142,1,2,0:0:0:0:
448,192,50142,128,0,50356:0:0:0:0:
192,192,50284,1,0,0:0:0:0:
320,192,50356,1,0,0:0:0:0:
64,192,50427,1,2,0:0:0:0:
192,192,50427,1,4,0:0:0:0:
448,192,50427,1,0,0:0:0:0:
320,192,50570,1,0,0:0:0:0:
192,192,50642,1,0,0:0:0:0:
320,192,50713,128,0,50999:0:0:0:0:
64,192,50999,1,8,0:0:0:0:
192,192,50999,1,2,0:0:0:0:
448,192,50999,1,0,0:0:0:0:
192,192,51142,128,0,51213:0:0:0:0:
320,192,51213,128,0,51284:0:0:0:0:
64,192,51284,128,0,51427:0:0:0:0:
448,192,51356,1,0,0:0:0:0:
320,192,51427,128,0,51499:0:0:0:0:
192,192,51499,128,0,51570:0:0:0:0:
64,192,51570,1,2,0:0:0:0:
320,192,51570,1,0,0:0:0:0:
448,192,51570,1,0,0:0:0:0:
192,192,51642,128,0,51713:0:0:0:0:
448,192,51713,128,0,51784:0:0:0:0:
64,192,51784,128,0,51856:0:0:0:0:
320,192,51856,1,2,0:0:0:0:
448,192,51856,1,0,0:0:0:0:
192,192,51927,128,0,51999:0:0:0:0:
320,192,51999,1,2,0:0:0:0:
448,192,51999,1,0,0:0:0:0:
192,192,52070,128,0,52142:0:0:0:0:
64,192,52142,1,8,0:0:0:0:
320,192,52142,128,2,52284:0:0:0:0:
448,192,52142,1,0,0:0:0:0:
192,192,52284,128,0,52356:0:0:0:0:
320,192,52356,1,2,0:0:0:0:
448,192,52356,1,0,0:0:0:0:
64,192,52427,1,2,0:0:0:0:
192,192,52427,1,0,0:0:0:0:
64,192,52570,1,8,0:0:0:0:
320,192,52570,1,0,0:0:0:0:
448,192,52570,1,0,0:0:0:0:
64,192,52713,1,2,0:0:0:0:
192,192,52713,1,4,0:0:0:0:
448,192,52713,1,0,0:0:0:0:
192,192,52856,1,2,0:0:0:0:
320,192,52856,1,0,0:0:0:0:
320,192,52999,1,2,0:0:0:0:
448,192,52999,1,0,0:0:0:0:
64,192,53142,1,8,0:0:0:0:
192,192,53142,1,2,0:0:0:0:
448,192,53142,1,0,0:0:0:0:
320,192,53284,1,2,0:0:0:0:
448,192,53284,1,0,0:0:0:0:
64,192,53356,1,2,0:0:0:0:
192,192,53356,1,0,0:0:0:0:
320,192,53427,1,2,0:0:0:0:
448,192,53427,1,0,0:0:0:0:
64,192,53499,1,2,0:0:0:0:
192,192,53499,1,0,0:0:0:0:
320,192,53570,1,2,0:0:0:0:
448,192,53570,1,8,0:0:0:0:
64,192,53642,1,2,0:0:0:0:
192,192,53642,1,8,0:0:0:0:
320,192,53713,1,2,0:0:0:0:
448,192,53713,1,8,0:0:0:0:
64,192,53784,1,2,0:0:0:0:
192,192,53784,1,8,0:0:0:0:
320,192,53856,128,0,53927:0:0:0:70:35585__vexst__gluestick.wav
192,192,53927,128,0,53999:0:0:0:70:35585__vexst__gluestick.wav
320,192,53999,128,0,54070:0:0:0:70:35585__vexst__gluestick.wav
192,192,54070,128,0,54142:0:0:0:70:35585__vexst__gluestick.wav
64,192,54142,128,0,54213:0:0:0:70:35585__vexst__gluestick.wav
448,192,54142,128,0,54213:0:0:0:0:
320,192,54213,128,0,54284:0:0:0:0:
192,192,54284,128,0,54356:0:0:0:70:35586__vexst__hardstep1-bpm130-20070401234847125.wav
320,192,54356,128,0,54427:0:0:0:70:35585__vexst__gluestick.wav
448,192,54356,128,0,54427:0:0:0:0:
64,192,54427,128,0,54499:0:0:0:70:35586__vexst__hardstep1-bpm130-20070401234847125.wav
320,192,54499,128,0,54570:0:0:0:70:35585__vexst__gluestick.wav
448,192,54499,128,0,54570:0:0:0:0:
64,192,54570,128,0,54642:0:0:0:70:35586__vexst__hardstep1-bpm130-20070401234847125.wav
448,192,54642,128,0,54713:0:0:0:0:
64,192,54713,128,0,54784:0:0:0:70:35610__vexst__snare-dommhkh.wav
192,192,54713,128,0,54784:0:0:0:0:
64,192,54856,128,0,54927:0:0:0:70:35610__vexst__snare-dommhkh.wav
192,192,54856,128,0,54927:0:0:0:0:
64,192,54999,1,2,0:0:0:0:
320,192,54999,1,4,0:0:0:0:
448,192,54999,1,0,0:0:0:70:Sweepdown.wav
192,192,55142,1,0,0:0:0:0:
64,192,55284,1,0,0:0:0:0:
192,192,55284,1,0,0:0:0:0:
320,192,55427,1,0,0:0:0:0:
64,192,55570,1,0,0:0:0:0:
448,192,55570,1,0,0:0:0:0:
192,192,55713,1,0,0:0:0:0:
192,192,55856,1,0,0:0:0:0:
448,192,55856,1,0,0:0:0:0:
320,192,55999,1,0,0:0:0:0:
64,192,56142,1,0,0:0:0:0:
192,192,56142,1,0,0:0:0:0:
320,192,56284,1,0,0:0:0:0:
320,192,56427,1,0,0:0:0:0:
448,192,56427,1,0,0:0:0:0:
192,192,56570,1,0,0:0:0:0:
64,192,56713,1,0,0:0:0:0:
448,192,56713,1,0,0:0:0:0:
320,192,56856,1,0,0:0:0:0:
64,192,56999,1,0,0:0:0:0:
320,192,56999,1,0,0:0:0:0:
192,192,57142,1,0,0:0:0:0:
320,192,57284,1,0,0:0:0:0:
448,192,57284,1,0,0:0:0:0:
192,192,57427,1,0,0:0:0:0:
64,192,57570,1,0,0:0:0:0:
192,192,57570,1,0,0:0:0:0:
320,192,57642,1,0,0:0:0:0:
192,192,57713,1,0,0:0:0:0:
64,192,57856,1,0,0:0:0:0:
448,192,57856,1,0,0:0:0:0:
192,192,57999,1,0,0:0:0:0:
192,192,58142,1,0,0:0:0:0:
448,192,58142,1,0,0:0:0:0:
320,192,58284,1,0,0:0:0:0:
64,192,58427,1,0,0:0:0:0:
192,192,58427,1,0,0:0:0:0:
320,192,58570,1,0,0:0:0:0:
320,192,58713,1,0,0:0:0:0:
448,192,58713,1,0,0:0:0:0:
192,192,58856,1,0,0:0:0:0:
64,192,58999,1,0,0:0:0:0:
448,192,58999,1,0,0:0:0:0:
320,192,59142,1,0,0:0:0:0:
64,192,59284,1,0,0:0:0:0:
320,192,59284,1,0,0:0:0:0:
192,192,59427,1,0,0:0:0:0:
320,192,59570,1,0,0:0:0:0:
448,192,59570,1,0,0:0:0:0:
192,192,59713,1,0,0:0:0:0:
64,192,59856,1,0,0:0:0:0:
192,192,59856,1,0,0:0:0:0:
320,192,59999,1,0,0:0:0:0:
192,192,60142,1,0,0:0:0:0:
448,192,60142,1,0,0:0:0:0:
64,192,60284,1,0,0:0:0:0:
64,192,60427,1,0,0:0:0:0:
448,192,60427,1,0,0:0:0:0:
320,192,60570,1,0,0:0:0:0:
64,192,60713,1,0,0:0:0:0:
192,192,60713,1,0,0:0:0:0:
320,192,60856,1,0,0:0:0:0:
320,192,60999,1,0,0:0:0:0:
448,192,60999,1,0,0:0:0:0:
192,192,61142,1,0,0:0:0:0:
64,192,61284,1,0,0:0:0:0:
320,192,61284,1,0,0:0:0:0:
448,192,61427,1,0,0:0:0:0:
64,192,61570,1,0,0:0:0:0:
448,192,61570,1,0,0:0:0:0:
192,192,61713,1,0,0:0:0:0:
320,192,61856,1,0,0:0:0:0:
448,192,61856,1,0,0:0:0:0:
192,192,61999,1,0,0:0:0:0:
64,192,62142,1,0,0:0:0:0:
192,192,62142,1,0,0:0:0:0:
320,192,62213,1,0,0:0:0:0:
192,192,62284,1,0,0:0:0:0:
320,192,62427,1,0,0:0:0:0:
448,192,62427,1,0,0:0:0:0:
64,192,62570,1,0,0:0:0:0:
64,192,62713,1,0,0:0:0:0:
448,192,62713,1,0,0:0:0:0:
320,192,62856,1,0,0:0:0:0:
64,192,62999,1,0,0:0:0:0:
192,192,62999,1,0,0:0:0:0:
320,192,63142,1,0,0:0:0:0:
320,192,63284,1,0,0:0:0:0:
448,192,63284,1,0,0:0:0:0:
192,192,63427,1,0,0:0:0:0:
64,192,63570,1,0,0:0:0:0:
320,192,63570,1,0,0:0:0:0:
192,192,63713,1,0,0:0:0:0:
192,192,63856,1,0,0:0:0:0:
448,192,63856,1,0,0:0:0:0:
320,192,63999,1,0,0:0:0:0:
320,192,64142,1,0,0:0:0:0:
448,192,64142,1,0,0:0:0:0:
192,192,64284,1,0,0:0:0:0:
64,192,64427,1,0,0:0:0:0:
192,192,64427,1,0,0:0:0:0:
320,192,64570,1,0,0:0:0:0:
64,192,64713,1,0,0:0:0:0:
448,192,64713,1,0,0:0:0:0:
192,192,64856,1,0,0:0:0:0:
192,192,64999,1,0,0:0:0:0:
448,192,64999,1,0,0:0:0:0:
320,192,65142,1,0,0:0:0:0:
64,192,65284,1,0,0:0:0:0:
192,192,65284,1,0,0:0:0:0:
320,192,65427,1,0,0:0:0:0:
320,192,65570,1,0,0:0:0:0:
448,192,65570,1,0,0:0:0:0:
192,192,65713,1,0,0:0:0:0:
64,192,65856,1,0,0:0:0:0:
448,192,65856,1,0,0:0:0:0:
320,192,65999,1,0,0:0:0:0:
64,192,66142,1,0,0:0:0:0:
192,192,66142,1,0,0:0:0:0:
320,192,66284,1,0,0:0:0:0:
320,192,66427,1,0,0:0:0:0:
448,192,66427,1,0,0:0:0:0:
192,192,66570,1,0,0:0:0:0:
64,192,66713,1,0,0:0:0:0:
192,192,66713,1,0,0:0:0:0:
320,192,66784,1,0,0:0:0:0:
192,192,66856,1,0,0:0:0:0:
64,192,66999,1,0,0:0:0:0:
448,192,66999,1,0,0:0:0:0:
192,192,67142,1,0,0:0:0:0:
192,192,67284,1,0,0:0:0:0:
448,192,67284,1,0,0:0:0:0:
320,192,67427,1,0,0:0:0:0:
64,192,67570,1,0,0:0:0:0:
192,192,67570,1,0,0:0:0:0:
320,192,67713,1,0,0:0:0:0:
320,192,67856,1,0,0:0:0:0:
448,192,67856,1,0,0:0:0:0:
192,192,67999,1,0,0:0:0:0:
320,192,68142,1,0,0:0:0:0:
448,192,68142,1,0,0:0:0:0:
192,192,68284,1,0,0:0:0:0:
64,192,68427,1,0,0:0:0:0:
192,192,68427,1,0,0:0:0:0:
320,192,68570,1,0,0:0:0:0:
320,192,68713,1,0,0:0:0:0:
448,192,68713,1,0,0:0:0:0:
192,192,68856,1,0,0:0:0:0:
64,192,68999,1,0,0:0:0:0:
192,192,68999,1,0,0:0:0:0:
320,192,69142,1,0,0:0:0:0:
192,192,69284,1,0,0:0:0:0:
448,192,69284,1,0,0:0:0:0:
64,192,69427,1,0,0:0:0:0:
64,192,69570,1,0,0:0:0:0:
448,192,69570,1,0,0:0:0:0:
320,192,69713,1,0,0:0:0:0:
64,192,69856,1,0,0:0:0:0:
192,192,69856,1,0,0:0:0:0:
320,192,69999,1,0,0:0:0:0:
320,192,70142,1,0,0:0:0:0:
448,192,70142,1,0,0:0:0:0:
192,192,70284,1,0,0:0:0:0:
64,192,70427,1,0,0:0:0:0:
320,192,70427,1,0,0:0:0:0:
448,192,70570,1,0,0:0:0:0:
64,192,70713,1,0,0:0:0:0:
192,192,70713,1,0,0:0:0:0:
320,192,70856,1,0,0:0:0:0:
320,192,70999,1,0,0:0:0:0:
448,192,70999,1,0,0:0:0:0:
192,192,71142,1,0,0:0:0:0:
64,192,71284,1,0,0:0:0:0:
192,192,71284,1,0,0:0:0:0:
320,192,71356,1,0,0:0:0:0:
192,192,71427,1,0,0:0:0:0:
320,192,71570,1,0,0:0:0:0:
448,192,71570,1,0,0:0:0:0:
64,192,71713,1,0,0:0:0:0:
64,192,71856,1,0,0:0:0:0:
448,192,71856,1,0,0:0:0:0:
320,192,71999,1,0,0:0:0:0:
64,192,72142,1,0,0:0:0:0:
192,192,72142,1,0,0:0:0:0:
320,192,72284,1,0,0:0:0:0:
320,192,72427,1,0,0:0:0:0:
448,192,72427,1,0,0:0:0:0:
192,192,72570,1,0,0:0:0:0:
64,192,72713,1,0,0:0:0:0:
320,192,72713,1,0,0:0:0:0:
448,192,72856,1,0,0:0:0:0:
64,192,72999,1,0,0:0:0:0:
448,192,72999,1,0,0:0:0:0:
192,192,73142,1,0,0:0:0:0:
64,192,73284,1,4,0:0:0:0:
192,192,73284,1,2,0:0:0:0:
448,192,73284,1,0,0:0:0:0:
64,192,73427,1,0,0:0:0:0:
192,192,73499,1,0,0:0:0:0:
320,192,73570,1,0,0:0:0:50:35597__vexst__snareew.wav
448,192,73570,1,0,0:0:0:0:
64,192,73713,1,0,0:0:0:70:35597__vexst__snareewD.wav
320,192,73713,1,0,0:0:0:0:
64,192,73856,1,0,0:0:0:0:
192,192,73927,1,0,0:0:0:0:
320,192,73999,1,0,0:0:0:70:35597__vexst__snareewD.wav
448,192,73999,1,0,0:0:0:0:
192,192,74142,1,0,0:0:0:50:35597__vexst__snareew.wav
448,192,74177,1,0,0:0:0:50:35597__vexst__snareew.wav
320,192,74213,1,0,0:0:0:50:35597__vexst__snareew.wav
192,192,74249,1,0,0:0:0:50:35597__vexst__snareew.wav
64,192,74284,1,0,0:0:0:50:35597__vexst__snareew.wav
448,192,74284,1,0,0:0:0:0:
320,192,74427,1,0,0:0:0:50:35597__vexst__snareew.wav
448,192,74427,1,0,0:0:0:0:
64,192,74570,1,0,0:0:0:70:35597__vexst__snareewD.wav
192,192,74570,1,0,0:0:0:0:
64,192,74713,1,0,0:0:0:50:35597__vexst__snareew.wav
448,192,74713,1,0,0:0:0:0:
192,192,74856,1,0,0:0:0:0:
64,192,74999,1,0,0:0:0:70:35597__vexst__snareewD.wav
320,192,74999,1,0,0:0:0:0:
448,192,75142,1,0,0:0:0:0:
64,192,75284,1,0,0:0:0:50:35597__vexst__snareew.wav
192,192,75284,1,0,0:0:0:0:
192,192,75427,1,0,0:0:0:70:35597__vexst__snareewD.wav
448,192,75427,1,0,0:0:0:0:
320,192,75570,1,0,0:0:0:70:35597__vexst__snareewD.wav
448,192,75570,1,0,0:0:0:0:
320,192,75713,1,0,0:0:0:0:
448,192,75784,1,0,0:0:0:0:
64,192,75856,1,0,0:0:0:50:35597__vexst__snareew.wav
192,192,75856,1,0,0:0:0:0:
192,192,75999,1,0,0:0:0:70:35597__vexst__snareewD.wav
448,192,75999,1,0,0:0:0:0:
448,192,76142,1,0,0:0:0:0:
320,192,76213,1,0,0:0:0:0:
64,192,76284,1,0,0:0:0:70:35597__vexst__snareewD.wav
192,192,76284,1,0,0:0:0:0:
320,192,76427,1,0,0:0:0:50:35597__vexst__snareew.wav
64,192,76463,1,0,0:0:0:50:35597__vexst__snareew.wav
192,192,76499,1,0,0:0:0:50:35597__vexst__snareew.wav
320,192,76534,1,0,0:0:0:50:35597__vexst__snareew.wav
64,192,76570,1,0,0:0:0:50:35597__vexst__snareew.wav
448,192,76570,1,0,0:0:0:0:
64,192,76713,1,2,0:0:0:0:
192,192,76713,1,0,0:0:0:0:
320,192,76856,1,0,0:0:0:70:35597__vexst__snareewD.wav
448,192,76856,1,0,0:0:0:0:
64,192,76999,1,0,0:0:0:50:35597__vexst__snareew.wav
448,192,76999,1,0,0:0:0:0:
320,192,77142,1,0,0:0:0:0:
192,192,77284,1,0,0:0:0:70:35597__vexst__snareewD.wav
448,192,77284,1,0,0:0:0:0:
64,192,77427,1,0,0:0:0:50:35597__vexst__snareew.wav
192,192,77427,1,0,0:0:0:0:
64,192,77570,1,0,0:0:0:70:35597__vexst__snareewD.wav
192,192,77606,1,0,0:0:0:70:35597__vexst__snareewD.wav
448,192,77642,1,0,0:0:0:70:35597__vexst__snareewD.wav
320,192,77677,1,0,0:0:0:70:35597__vexst__snareewD.wav
64,192,77713,1,0,0:0:0:70:35597__vexst__snareewD.wav
192,192,77713,1,0,0:0:0:0:
320,192,77784,1,0,0:0:0:70:35597__vexst__snareewD.wav
448,192,77784,1,0,0:0:0:0:
64,192,77856,1,0,0:0:0:70:35597__vexst__snareewD.wav
192,192,77856,1,0,0:0:0:0:
192,192,77999,1,0,0:0:0:0:
64,192,78070,1,0,0:0:0:0:
320,192,78142,1,0,0:0:0:50:35597__vexst__snareew.wav
448,192,78142,1,0,0:0:0:0:
64,192,78284,1,0,0:0:0:70:35597__vexst__snareewD.wav
320,192,78284,1,0,0:0:0:0:
64,192,78427,1,0,0:0:0:0:
192,192,78499,1,0,0:0:0:0:
320,192,78570,1,0,0:0:0:70:35597__vexst__snareewD.wav
448,192,78570,1,0,0:0:0:0:
192,192,78713,1,0,0:0:0:50:35597__vexst__snareew.wav
448,192,78749,1,0,0:0:0:50:35597__vexst__snareew.wav
320,192,78784,1,0,0:0:0:50:35597__vexst__snareew.wav
192,192,78820,1,0,0:0:0:50:35597__vexst__snareew.wav
64,192,78856,1,0,0:0:0:50:35597__vexst__snareew.wav
448,192,78856,1,0,0:0:0:0:
320,192,78999,1,2,0:0:0:0:
448,192,78999,1,0,0:0:0:0:
64,192,79142,1,0,0:0:0:70:35597__vexst__snareewD.wav
192,192,79142,1,0,0:0:0:0:
64,192,79284,1,0,0:0:0:50:35597__vexst__snareew.wav
448,192,79284,1,0,0:0:0:0:
192,192,79427,1,0,0:0:0:0:
64,192,79570,1,0,0:0:0:70:35597__vexst__snareewD.wav
320,192,79570,1,0,0:0:0:0:
448,192,79713,1,0,0:0:0:0:
64,192,79856,1,0,0:0:0:50:35597__vexst__snareew.wav
192,192,79856,1,0,0:0:0:0:
192,192,79999,1,0,0:0:0:70:35597__vexst__snareewD.wav
448,192,79999,1,0,0:0:0:0:
320,192,80142,1,0,0:0:0:70:35597__vexst__snareewD.wav
448,192,80142,1,0,0:0:0:0:
320,192,80284,1,0,0:0:0:0:
448,192,80356,1,0,0:0:0:0:
64,192,80427,1,0,0:0:0:50:35597__vexst__snareew.wav
192,192,80427,1,0,0:0:0:0:
64,192,80570,1,0,0:0:0:70:35597__vexst__snareewD.wav
448,192,80570,1,0,0:0:0:0:
448,192,80713,1,0,0:0:0:0:
320,192,80784,1,0,0:0:0:0:
64,192,80856,1,0,0:0:0:70:35597__vexst__snareewD.wav
192,192,80856,1,0,0:0:0:0:
320,192,80999,1,0,0:0:0:50:35597__vexst__snareew.wav
64,192,81034,1,0,0:0:0:50:35597__vexst__snareew.wav
192,192,81070,1,0,0:0:0:50:35597__vexst__snareew.wav
320,192,81106,1,0,0:0:0:50:35597__vexst__snareew.wav
64,192,81142,1,0,0:0:0:50:35597__vexst__snareew.wav
448,192,81142,1,0,0:0:0:0:
320,192,81284,1,2,0:0:0:0:
448,192,81284,1,0,0:0:0:0:
192,192,81427,1,0,0:0:0:70:35597__vexst__snareewD.wav
448,192,81427,1,0,0:0:0:0:
64,192,81570,1,0,0:0:0:50:35597__vexst__snareew.wav
192,192,81570,1,0,0:0:0:0:
64,192,81713,1,0,0:0:0:50:35597__vexst__snareew.wav
448,192,81713,1,0,0:0:0:0:
320,192,81761,1,0,0:0:0:70:35597__vexst__snareewD.wav
192,192,81808,1,0,0:0:0:70:35597__vexst__snareewD.wav
320,192,81856,1,0,0:0:0:70:35597__vexst__snareewD.wav
448,192,81856,1,0,0:0:0:0:
64,192,81999,1,0,0:0:0:50:35597__vexst__snareew.wav
448,192,81999,1,0,0:0:0:0:
192,192,82142,1,0,0:0:0:70:35597__vexst__snareewD.wav
448,192,82177,1,0,0:0:0:70:35597__vexst__snareewD.wav
320,192,82213,1,0,0:0:0:70:35597__vexst__snareewD.wav
192,192,82249,1,0,0:0:0:70:35597__vexst__snareewD.wav
64,192,82284,1,0,0:0:0:70:35597__vexst__snareewD.wav
448,192,82284,1,0,0:0:0:0:
320,192,82356,1,0,0:0:0:0:
64,192,82427,1,2,0:0:0:0:
192,192,82427,1,8,0:0:0:0:
448,192,82427,1,0,0:0:0:0:
192,192,82713,1,8,0:0:0:0:
320,192,82713,1,2,0:0:0:0:
448,192,82713,1,0,0:0:0:0:
64,192,82999,1,8,0:0:0:0:
192,192,82999,1,2,0:0:0:0:
320,192,82999,1,0,0:0:0:0:
64,192,83284,1,8,0:0:0:0:
192,192,83284,1,2,0:0:0:0:
448,192,83284,1,0,0:0:0:0:
192,192,83427,1,0,0:0:0:0:
64,192,83570,1,8,0:0:0:0:
320,192,83570,1,2,0:0:0:0:
448,192,83570,1,0,0:0:0:0:
192,192,83856,1,8,0:0:0:0:
320,192,83856,1,2,0:0:0:0:
448,192,83856,1,0,0:0:0:0:
64,192,84142,1,8,0:0:0:0:
192,192,84142,1,2,0:0:0:0:
320,192,84142,1,0,0:0:0:0:
64,192,84427,1,8,0:0:0:0:
192,192,84427,1,2,0:0:0:0:
448,192,84427,1,0,0:0:0:0:
192,192,84570,1,2,0:0:0:0:
320,192,84570,1,0,0:0:0:0:
64,192,84713,1,8,0:0:0:0:
320,192,84713,1,2,0:0:0:0:
448,192,84713,1,0,0:0:0:0:
192,192,84999,1,8,0:0:0:0:
320,192,84999,1,2,0:0:0:0:
448,192,84999,1,0,0:0:0:0:
64,192,85284,1,8,0:0:0:0:
192,192,85284,1,2,0:0:0:0:
320,192,85284,1,0,0:0:0:0:
64,192,85570,1,2,0:0:0:0:
192,192,85570,1,8,0:0:0:0:
448,192,85570,1,0,0:0:0:0:
192,192,85713,1,0,0:0:0:0:
64,192,85856,1,2,0:0:0:0:
320,192,85856,1,8,0:0:0:0:
448,192,85856,1,0,0:0:0:0:
64,192,85999,1,0,0:0:0:0:
192,192,86142,1,2,0:0:0:0:
320,192,86142,1,8,0:0:0:0:
448,192,86142,1,0,0:0:0:0:
448,192,86284,1,0,0:0:0:0:
64,192,86427,1,8,0:0:0:0:
192,192,86427,1,2,0:0:0:0:
320,192,86427,1,0,0:0:0:0:
192,192,86570,1,8,0:0:0:0:
448,192,86570,1,0,0:0:0:0:
64,192,86713,1,2,0:0:0:0:
320,192,86713,1,8,0:0:0:0:
448,192,86713,1,0,0:0:0:0:
192,192,86856,1,8,0:0:0:0:
320,192,86856,1,0,0:0:0:0:
64,192,86999,1,8,0:0:0:0:
192,192,86999,1,2,0:0:0:0:
448,192,86999,1,0,0:0:0:0:
64,192,87142,1,8,0:0:0:0:
320,192,87142,1,0,0:0:0:0:
192,192,87284,1,8,0:0:0:0:
320,192,87284,1,2,0:0:0:0:
448,192,87284,1,0,0:0:0:0:
64,192,87427,1,8,0:0:0:0:
192,192,87427,1,0,0:0:0:0:
64,192,87570,1,8,0:0:0:0:
320,192,87570,1,2,0:0:0:0:
448,192,87570,1,0,0:0:0:0:
192,192,87713,1,8,0:0:0:0:
448,192,87713,1,0,0:0:0:0:
64,192,87856,1,8,0:0:0:0:
192,192,87856,1,2,0:0:0:0:
320,192,87856,1,0,0:0:0:0:
64,192,87999,1,8,0:0:0:0:
448,192,87999,1,0,0:0:0:0:
320,192,88142,1,8,0:0:0:0:
448,192,88142,1,2,0:0:0:0:
64,192,88213,1,8,0:0:0:0:
192,192,88213,1,0,0:0:0:0:
320,192,88284,1,8,0:0:0:0:
448,192,88284,1,0,0:0:0:0:
64,192,88356,1,8,0:0:0:0:
192,192,88356,1,0,0:0:0:0:
320,192,88427,1,8,0:0:0:0:
448,192,88427,1,2,0:0:0:0:
64,192,88499,1,8,0:0:0:0:
192,192,88499,1,0,0:0:0:0:
320,192,88570,1,8,0:0:0:0:
448,192,88570,1,0,0:0:0:0:
64,192,88642,1,8,0:0:0:0:
192,192,88642,1,0,0:0:0:0:
320,192,88713,1,8,0:0:0:0:
448,192,88713,1,2,0:0:0:0:
64,192,88784,1,8,0:0:0:0:
192,192,88784,1,0,0:0:0:0:
320,192,88856,1,8,0:0:0:0:
448,192,88856,1,0,0:0:0:0:
64,192,88927,1,8,0:0:0:0:
192,192,88927,1,0,0:0:0:0:
320,192,88999,1,8,0:0:0:0:
448,192,88999,1,2,0:0:0:0:
64,192,89070,1,8,0:0:0:0:
192,192,89070,1,0,0:0:0:0:
320,192,89142,1,8,0:0:0:0:
448,192,89142,1,0,0:0:0:0:
64,192,89213,1,8,0:0:0:0:
192,192,89213,1,0,0:0:0:0:
320,192,89284,128,4,90999:0:0:0:0:
64,192,90999,128,0,91213:0:0:0:0:
192,192,90999,128,0,91213:0:0:0:0:
64,192,91284,128,0,91356:0:0:0:30:LS-HK Bounce Kick 21 F#.wav
320,192,91284,128,0,91356:0:0:0:0:
448,192,91284,128,0,91356:0:0:0:0:
64,192,91427,128,0,91499:0:0:0:30:LS-HK Bounce Kick 21 F#.wav
320,192,91427,128,0,91499:0:0:0:0:
448,192,91427,128,0,91499:0:0:0:0:
64,192,91570,128,2,91856:0:0:0:0:
192,192,91570,128,4,91856:0:0:0:0:
320,192,91570,1,0,0:0:0:70:Sweepdown.wav
448,192,91713,128,0,91856:0:0:0:0:
320,192,91927,1,0,0:0:0:0:
448,192,91999,1,0,0:0:0:0:
192,192,92070,1,0,0:0:0:0:
64,192,92142,1,2,0:0:0:0:
320,192,92142,128,8,92427:0:0:0:0:
448,192,92142,128,0,92427:0:0:0:0:
192,192,92284,128,0,92427:0:0:0:0:
64,192,92427,1,0,0:0:0:0:
64,192,92570,1,0,0:0:0:0:
192,192,92713,1,2,0:0:0:0:
320,192,92713,128,0,92999:0:0:0:0:
448,192,92713,128,0,92999:0:0:0:0:
64,192,92856,128,0,92999:0:0:0:0:
192,192,93142,1,0,0:0:0:0:
320,192,93213,1,0,0:0:0:0:
64,192,93284,128,2,93570:0:0:0:0:
192,192,93284,128,8,93570:0:0:0:0:
448,192,93284,1,0,0:0:0:0:
320,192,93427,128,0,93570:0:0:0:0:
448,192,93570,1,0,0:0:0:0:
192,192,93642,1,0,0:0:0:0:
320,192,93713,1,0,0:0:0:0:
64,192,93856,128,2,94142:0:0:0:0:
192,192,93856,128,0,94142:0:0:0:0:
448,192,93856,128,0,93999:0:0:0:0:
320,192,93999,128,0,94070:0:0:0:0:
448,192,94070,128,0,94142:0:0:0:0:
320,192,94213,1,0,0:0:0:0:
448,192,94284,1,0,0:0:0:0:
192,192,94356,1,0,0:0:0:0:
64,192,94427,128,2,94713:0:0:0:0:
320,192,94427,1,8,0:0:0:0:
448,192,94427,128,0,94713:0:0:0:0:
192,192,94570,128,0,94713:0:0:0:0:
320,192,94713,128,0,94927:0:0:0:0:
192,192,94856,1,0,0:0:0:0:
64,192,94999,1,2,0:0:0:0:
320,192,94999,128,0,95284:0:0:0:0:
448,192,94999,128,0,95284:0:0:0:0:
192,192,95142,128,0,95284:0:0:0:0:
192,192,95427,1,0,0:0:0:0:
320,192,95499,1,0,0:0:0:0:
64,192,95570,128,2,95856:0:0:0:0:
192,192,95570,1,8,0:0:0:0:
448,192,95570,128,0,95856:0:0:0:0:
320,192,95713,128,0,95784:0:0:0:0:
192,192,95784,128,0,95856:0:0:0:0:
320,192,95856,128,0,95999:0:0:0:0:
192,192,95999,1,0,0:0:0:0:
64,192,96070,1,0,0:0:0:0:
192,192,96142,1,2,0:0:0:0:
320,192,96142,128,0,96427:0:0:0:0:
448,192,96142,128,0,96427:0:0:0:0:
64,192,96284,128,0,96427:0:0:0:0:
192,192,96499,1,0,0:0:0:0:
64,192,96570,1,0,0:0:0:0:
320,192,96642,1,0,0:0:0:0:
64,192,96713,128,2,96999:0:0:0:0:
192,192,96713,128,8,96999:0:0:0:0:
448,192,96713,1,0,0:0:0:0:
320,192,96856,128,0,97213:0:0:0:0:
448,192,96999,1,0,0:0:0:0:
64,192,97284,128,2,97570:0:0:0:0:
192,192,97284,128,0,97570:0:0:0:0:
320,192,97284,1,0,0:0:0:0:
448,192,97427,128,0,97570:0:0:0:0:
320,192,97713,1,0,0:0:0:0:
192,192,97784,1,0,0:0:0:0:
64,192,97856,1,2,0:0:0:0:
320,192,97856,128,8,98142:0:0:0:0:
448,192,97856,128,0,98142:0:0:0:0:
192,192,97999,128,0,98142:0:0:0:0:
64,192,98142,128,0,98284:0:0:0:0:
320,192,98284,128,0,98356:0:0:0:0:
192,192,98427,1,2,0:0:0:0:
320,192,98427,128,0,98713:0:0:0:0:
448,192,98427,128,0,98713:0:0:0:0:
64,192,98570,128,0,98713:0:0:0:0:
192,192,98784,1,0,0:0:0:0:
64,192,98856,1,0,0:0:0:0:
320,192,98927,1,0,0:0:0:0:
64,192,98999,128,2,99284:0:0:0:0:
192,192,98999,1,8,0:0:0:0:
448,192,98999,128,0,99284:0:0:0:0:
320,192,99142,128,0,99284:0:0:0:0:
192,192,99284,128,0,99499:0:0:0:0:
320,192,99427,1,0,0:0:0:0:
64,192,99570,128,2,99856:0:0:0:0:
192,192,99570,128,0,99856:0:0:0:0:
448,192,99570,1,0,0:0:0:0:
320,192,99713,128,0,99856:0:0:0:0:
320,192,99999,1,0,0:0:0:0:
192,192,100070,1,0,0:0:0:0:
64,192,100142,1,2,0:0:0:0:
320,192,100142,1,8,0:0:0:0:
448,192,100142,128,0,100284:0:0:0:0:
192,192,100213,1,0,0:0:0:0:
64,192,100284,128,0,100427:0:0:0:0:
320,192,100356,1,0,0:0:0:0:
448,192,100427,128,0,100499:0:0:0:0:
192,192,100499,128,0,100570:0:0:0:0:
320,192,100570,128,0,100642:0:0:0:0:
64,192,100642,128,0,100713:0:0:0:0:
192,192,100713,1,2,0:0:0:0:
320,192,100713,128,4,100999:0:0:0:0:
448,192,100713,128,0,100999:0:0:0:0:
64,192,100856,128,0,100999:0:0:0:0:
192,192,101070,1,0,0:0:0:0:
64,192,101142,1,0,0:0:0:0:
320,192,101213,1,0,0:0:0:0:
64,192,101284,128,2,101570:0:0:0:0:
192,192,101284,128,8,101570:0:0:0:0:
448,192,101284,1,0,0:0:0:0:
448,192,101427,128,0,101570:0:0:0:0:
320,192,101570,128,0,101784:0:0:0:0:
448,192,101713,1,0,0:0:0:0:
64,192,101856,128,2,102142:0:0:0:0:
192,192,101856,128,0,102142:0:0:0:0:
320,192,101856,1,0,0:0:0:0:
448,192,101999,128,0,102142:0:0:0:0:
320,192,102284,1,0,0:0:0:0:
64,192,102356,1,0,0:0:0:0:
192,192,102427,1,2,0:0:0:0:
320,192,102427,128,8,102713:0:0:0:0:
448,192,102427,128,0,102713:0:0:0:0:
192,192,102570,128,0,102927:0:0:0:0:
64,192,102713,1,0,0:0:0:0:
64,192,102999,128,2,103142:0:0:0:0:
320,192,102999,128,0,103284:0:0:0:0:
448,192,102999,128,0,103284:0:0:0:0:
192,192,103142,128,0,103213:0:0:0:0:
64,192,103213,128,0,103284:0:0:0:0:
192,192,103284,128,0,103356:0:0:0:0:
320,192,103356,1,0,0:0:0:0:
448,192,103427,128,0,103499:0:0:0:0:
192,192,103499,1,0,0:0:0:0:
64,192,103570,128,2,103856:0:0:0:0:
320,192,103570,1,8,0:0:0:0:
448,192,103570,128,0,103856:0:0:0:0:
320,192,103713,128,0,103856:0:0:0:0:
192,192,103856,128,0,104070:0:0:0:0:
320,192,103999,1,0,0:0:0:0:
64,192,104142,128,2,104427:0:0:0:0:
192,192,104142,128,0,104427:0:0:0:0:
448,192,104142,1,0,0:0:0:0:
320,192,104284,128,0,104427:0:0:0:0:
448,192,104427,128,0,104499:0:0:0:0:
320,192,104570,128,0,104642:0:0:0:0:
64,192,104713,128,2,104999:0:0:0:0:
192,192,104713,1,8,0:0:0:0:
448,192,104713,128,0,104999:0:0:0:0:
192,192,104856,128,0,104927:0:0:0:0:
320,192,104927,128,0,104999:0:0:0:0:
192,192,104999,128,0,105142:0:0:0:0:
320,192,105142,1,0,0:0:0:0:
448,192,105213,1,0,0:0:0:0:
64,192,105284,128,2,105570:0:0:0:0:
192,192,105284,128,0,105570:0:0:0:0:
320,192,105284,1,0,0:0:0:0:
448,192,105427,128,0,105570:0:0:0:0:
320,192,105642,1,0,0:0:0:0:
448,192,105713,1,0,0:0:0:0:
64,192,105784,1,0,0:0:0:0:
192,192,105856,1,2,0:0:0:0:
320,192,105856,128,8,106142:0:0:0:0:
448,192,105856,128,0,106142:0:0:0:0:
192,192,105999,128,0,106142:0:0:0:0:
64,192,106142,128,0,106213:0:0:0:0:
448,192,106213,128,0,106284:0:0:0:0:
320,192,106284,128,0,106356:0:0:0:0:
192,192,106356,128,0,106427:0:0:0:0:
64,192,106427,1,2,0:0:0:0:
320,192,106427,128,0,106713:0:0:0:0:
448,192,106427,128,0,106713:0:0:0:0:
64,192,106570,128,0,106713:0:0:0:0:
192,192,106856,1,0,0:0:0:0:
448,192,106927,1,0,0:0:0:0:
64,192,106999,128,2,107284:0:0:0:0:
192,192,106999,128,8,107284:0:0:0:0:
320,192,106999,1,0,0:0:0:0:
320,192,107142,128,0,107284:0:0:0:0:
448,192,107284,128,0,107356:0:0:0:0:
64,192,107356,128,0,107427:0:0:0:0:
192,192,107427,128,0,107499:0:0:0:0:
448,192,107499,128,0,107570:0:0:0:0:
64,192,107570,128,2,107856:0:0:0:0:
192,192,107570,128,0,107856:0:0:0:0:
320,192,107570,1,0,0:0:0:0:
448,192,107713,128,0,107856:0:0:0:0:
320,192,107856,128,0,107999:0:0:0:0:
64,192,107999,1,0,0:0:0:0:
192,192,108070,1,0,0:0:0:0:
64,192,108142,128,2,108427:0:0:0:0:
320,192,108142,1,8,0:0:0:0:
448,192,108142,128,0,108427:0:0:0:0:
192,192,108284,128,0,108427:0:0:0:0:
320,192,108427,128,0,108570:0:0:0:0:
192,192,108570,128,0,108713:0:0:0:0:
64,192,108713,1,2,0:0:0:0:
320,192,108713,128,0,108999:0:0:0:0:
448,192,108713,128,0,108999:0:0:0:0:
192,192,108856,128,0,108999:0:0:0:0:
64,192,108999,128,0,109142:0:0:0:0:
320,192,109142,128,0,109213:0:0:0:0:
192,192,109213,1,0,0:0:0:0:
64,192,109284,128,2,109427:0:0:0:0:
320,192,109284,1,8,0:0:0:0:
448,192,109284,1,0,0:0:0:0:
192,192,109356,1,0,0:0:0:0:
448,192,109427,128,0,109570:0:0:0:0:
320,192,109499,1,0,0:0:0:0:
64,192,109570,128,0,109642:0:0:0:0:
192,192,109642,128,0,109713:0:0:0:0:
448,192,109713,128,0,109784:0:0:0:0:
320,192,109784,128,0,109856:0:0:0:0:
64,192,109856,1,4,0:0:0:0:
192,192,109856,1,0,0:0:0:70:Sweepdown.wav
320,192,109999,1,0,0:0:0:0:
64,192,110142,1,2,0:0:0:0:
192,192,110142,1,0,0:0:0:0:
320,192,110213,1,2,0:0:0:0:
448,192,110213,1,0,0:0:0:0:
64,192,110284,1,2,0:0:0:0:
192,192,110284,1,0,0:0:0:0:
320,192,110356,1,2,0:0:0:0:
448,192,110356,1,0,0:0:0:0:
64,192,110427,1,2,0:0:0:0:
192,192,110427,1,8,0:0:0:0:
448,192,110427,1,4,0:0:0:0:
320,192,110570,128,0,110713:0:0:0:0:
64,192,110713,1,0,0:0:0:0:
192,192,110784,1,0,0:0:0:0:
320,192,110856,128,0,110999:0:0:0:0:
64,192,110999,1,2,0:0:0:0:
192,192,110999,1,0,0:0:0:0:
448,192,110999,1,0,0:0:0:0:
64,192,111142,1,0,0:0:0:0:
192,192,111213,1,0,0:0:0:0:
320,192,111284,128,0,111427:0:0:0:0:
192,192,111427,1,0,0:0:0:0:
320,192,111499,1,0,0:0:0:0:
64,192,111570,1,2,0:0:0:0:
192,192,111570,1,8,0:0:0:0:
448,192,111570,1,0,0:0:0:0:
320,192,111642,1,0,0:0:0:0:
192,192,111713,128,0,111856:0:0:0:0:
320,192,111856,128,0,111927:0:0:0:0:
64,192,111927,1,0,0:0:0:0:
448,192,111999,128,0,112070:0:0:0:0:
192,192,112070,1,0,0:0:0:0:
64,192,112142,1,2,0:0:0:0:
320,192,112142,128,0,112284:0:0:0:0:
448,192,112142,1,0,0:0:0:0:
192,192,112284,128,0,112427:0:0:0:0:
448,192,112427,128,0,112570:0:0:0:0:
192,192,112570,1,0,0:0:0:0:
320,192,112642,1,0,0:0:0:0:
64,192,112713,1,2,0:0:0:0:
192,192,112713,1,8,0:0:0:0:
448,192,112713,1,0,0:0:0:0:
64,192,112856,1,0,0:0:0:0:
448,192,112999,1,0,0:0:0:0:
320,192,113070,1,0,0:0:0:0:
192,192,113142,128,0,113284:0:0:0:0:
64,192,113284,1,2,0:0:0:0:
320,192,113284,1,0,0:0:0:0:
448,192,113284,1,0,0:0:0:0:
448,192,113427,1,0,0:0:0:0:
320,192,113499,1,0,0:0:0:0:
64,192,113570,128,0,113642:0:0:0:0:
448,192,113642,1,0,0:0:0:0:
320,192,113713,128,0,113784:0:0:0:0:
192,192,113784,1,0,0:0:0:0:
64,192,113856,1,2,0:0:0:0:
320,192,113856,1,8,0:0:0:0:
448,192,113856,1,0,0:0:0:0:
192,192,113927,1,0,0:0:0:0:
320,192,113999,128,0,114142:0:0:0:0:
192,192,114142,1,0,0:0:0:0:
192,192,114213,1,0,0:0:0:0:
320,192,114284,1,0,0:0:0:0:
320,192,114356,1,0,0:0:0:0:
64,192,114427,1,2,0:0:0:0:
192,192,114427,128,0,114570:0:0:0:0:
448,192,114427,1,0,0:0:0:0:
320,192,114570,128,0,114713:0:0:0:0:
64,192,114713,128,0,114856:0:0:0:0:
320,192,114856,1,0,0:0:0:0:
192,192,114927,1,0,0:0:0:0:
64,192,114999,1,2,0:0:0:0:
320,192,114999,1,8,0:0:0:0:
448,192,114999,1,0,0:0:0:0:
448,192,115142,1,0,0:0:0:0:
64,192,115284,1,0,0:0:0:0:
192,192,115356,1,0,0:0:0:0:
320,192,115427,128,0,115570:0:0:0:0:
64,192,115570,1,2,0:0:0:0:
192,192,115570,1,0,0:0:0:0:
448,192,115570,1,0,0:0:0:0:
64,192,115713,1,0,0:0:0:0:
192,192,115784,1,0,0:0:0:0:
320,192,115856,128,0,115999:0:0:0:0:
192,192,115999,1,0,0:0:0:0:
320,192,116070,1,0,0:0:0:0:
64,192,116142,1,2,0:0:0:0:
192,192,116142,1,8,0:0:0:0:
448,192,116142,1,0,0:0:0:0:
320,192,116213,1,0,0:0:0:0:
192,192,116284,128,0,116427:0:0:0:0:
320,192,116427,128,0,116499:0:0:0:0:
64,192,116499,1,0,0:0:0:0:
448,192,116570,128,0,116642:0:0:0:0:
192,192,116642,1,0,0:0:0:0:
64,192,116713,1,2,0:0:0:0:
320,192,116713,128,0,116856:0:0:0:0:
448,192,116713,1,0,0:0:0:0:
192,192,116856,128,0,116999:0:0:0:0:
448,192,116999,128,0,117070:0:0:0:0:
192,192,117070,128,0,117142:0:0:0:0:
448,192,117142,128,0,117213:0:0:0:0:
192,192,117213,128,0,117284:0:0:0:0:
64,192,117284,1,2,0:0:0:0:
320,192,117284,1,8,0:0:0:0:
448,192,117284,1,0,0:0:0:0:
64,192,117427,1,0,0:0:0:0:
448,192,117570,128,0,117642:0:0:0:0:
320,192,117642,128,0,117713:0:0:0:0:
192,192,117713,128,0,117856:0:0:0:0:
64,192,117856,1,2,0:0:0:0:
320,192,117856,1,0,0:0:0:0:
448,192,117856,1,0,0:0:0:0:
448,192,117999,1,0,0:0:0:0:
320,192,118070,1,0,0:0:0:0:
192,192,118142,128,0,118284:0:0:0:0:
320,192,118284,128,0,118356:0:0:0:0:
192,192,118356,128,0,118427:0:0:0:0:
64,192,118427,1,2,0:0:0:0:
320,192,118427,1,8,0:0:0:0:
448,192,118427,1,0,0:0:0:0:
192,192,118499,1,0,0:0:0:0:
320,192,118570,128,0,118713:0:0:0:0:
192,192,118713,1,0,0:0:0:0:
448,192,118784,1,0,0:0:0:0:
64,192,118856,1,0,0:0:0:0:
320,192,118927,1,0,0:0:0:0:
64,192,118999,1,2,0:0:0:0:
192,192,118999,128,4,119142:0:0:0:0:
448,192,118999,1,0,0:0:0:0:
448,192,119142,128,0,119284:0:0:0:0:
64,192,119284,1,0,0:0:0:0:
192,192,119356,1,0,0:0:0:0:
320,192,119427,1,0,0:0:0:0:
192,192,119499,1,0,0:0:0:0:
64,192,119570,1,2,0:0:0:0:
320,192,119570,1,8,0:0:0:0:
448,192,119570,1,0,0:0:0:0:
320,192,119713,128,0,119856:0:0:0:0:
64,192,119856,1,0,0:0:0:0:
192,192,119927,1,0,0:0:0:0:
320,192,119999,128,0,120142:0:0:0:0:
64,192,120142,1,2,0:0:0:0:
192,192,120142,1,0,0:0:0:0:
448,192,120142,1,0,0:0:0:0:
64,192,120284,1,0,0:0:0:0:
192,192,120356,1,0,0:0:0:0:
320,192,120427,128,0,120570:0:0:0:0:
192,192,120570,1,0,0:0:0:0:
320,192,120642,1,0,0:0:0:0:
64,192,120713,1,2,0:0:0:0:
192,192,120713,1,8,0:0:0:0:
448,192,120713,1,0,0:0:0:0:
320,192,120784,1,0,0:0:0:0:
192,192,120856,128,0,120999:0:0:0:0:
320,192,120999,128,0,121142:0:0:0:0:
64,192,121070,128,0,121142:0:0:0:0:
448,192,121142,128,0,121213:0:0:0:0:
192,192,121213,128,0,121284:0:0:0:0:
64,192,121284,1,2,0:0:0:0:
320,192,121284,128,0,121427:0:0:0:0:
448,192,121284,1,0,0:0:0:0:
192,192,121427,128,0,121570:0:0:0:0:
448,192,121570,128,0,121713:0:0:0:0:
192,192,121713,1,0,0:0:0:0:
320,192,121784,1,0,0:0:0:0:
64,192,121856,1,2,0:0:0:0:
192,192,121856,1,8,0:0:0:0:
448,192,121856,1,0,0:0:0:0:
64,192,121999,1,0,0:0:0:0:
448,192,122142,1,0,0:0:0:0:
320,192,122213,1,0,0:0:0:0:
192,192,122284,128,0,122427:0:0:0:0:
64,192,122427,1,2,0:0:0:0:
320,192,122427,1,0,0:0:0:0:
448,192,122427,1,0,0:0:0:0:
448,192,122570,1,0,0:0:0:0:
320,192,122642,1,0,0:0:0:0:
192,192,122713,128,0,122784:0:0:0:0:
448,192,122784,1,0,0:0:0:0:
320,192,122856,128,0,122927:0:0:0:0:
192,192,122927,1,0,0:0:0:0:
320,192,122999,1,2,0:0:0:0:
448,192,122999,1,8,0:0:0:0:
64,192,123070,1,8,0:0:0:0:
192,192,123070,1,0,0:0:0:0:
320,192,123142,1,8,0:0:0:0:
448,192,123142,1,0,0:0:0:0:
64,192,123284,1,8,0:0:0:0:
192,192,123284,1,0,0:0:0:0:
448,192,123284,1,0,0:0:0:0:
64,192,123427,1,8,0:0:0:0:
320,192,123427,1,0,0:0:0:0:
448,192,123427,1,0,0:0:0:0:
64,192,123570,1,2,0:0:0:0:
192,192,123570,128,4,123713:0:0:0:0:
448,192,123570,1,0,0:0:0:0:
320,192,123713,128,0,123856:0:0:0:0:
64,192,123856,128,0,123999:0:0:0:0:
192,192,123856,1,0,0:0:0:0:
320,192,123999,1,0,0:0:0:0:
64,192,124142,1,0,0:0:0:0:
448,192,124142,1,0,0:0:0:0:
192,192,124284,1,0,0:0:0:0:
320,192,124427,1,0,0:0:0:0:
448,192,124427,1,0,0:0:0:0:
192,192,124499,1,0,0:0:0:0:
320,192,124570,128,0,124713:0:0:0:0:
64,192,124713,1,0,0:0:0:0:
192,192,124713,1,0,0:0:0:0:
320,192,124856,1,0,0:0:0:0:
192,192,124927,1,0,0:0:0:0:
320,192,124999,128,0,125142:0:0:0:0:
448,192,124999,1,0,0:0:0:0:
64,192,125142,1,0,0:0:0:0:
320,192,125284,1,0,0:0:0:0:
448,192,125284,1,0,0:0:0:0:
192,192,125356,1,0,0:0:0:0:
320,192,125427,128,0,125570:0:0:0:0:
64,192,125570,1,0,0:0:0:0:
448,192,125570,1,0,0:0:0:0:
192,192,125713,1,0,0:0:0:0:
320,192,125856,1,0,0:0:0:0:
448,192,125856,1,0,0:0:0:0:
192,192,125999,1,0,0:0:0:0:
64,192,126142,1,0,0:0:0:0:
448,192,126142,1,0,0:0:0:0:
448,192,126284,1,0,0:0:0:0:
64,192,126427,1,0,0:0:0:0:
192,192,126427,1,0,0:0:0:0:
64,192,126570,1,0,0:0:0:0:
320,192,126713,1,0,0:0:0:0:
448,192,126713,1,0,0:0:0:0:
320,192,126856,1,0,0:0:0:0:
64,192,126999,1,0,0:0:0:0:
192,192,126999,1,0,0:0:0:0:
192,192,127142,1,0,0:0:0:0:
64,192,127284,1,0,0:0:0:0:
448,192,127284,1,0,0:0:0:0:
320,192,127427,1,0,0:0:0:0:
64,192,127570,1,0,0:0:0:0:
192,192,127606,1,0,0:0:0:0:
448,192,127642,1,0,0:0:0:0:
320,192,127677,1,0,0:0:0:0:
64,192,127713,1,0,0:0:0:0:
192,192,127749,1,0,0:0:0:0:
448,192,127784,1,0,0:0:0:0:
320,192,127820,1,0,0:0:0:0:
64,192,127856,1,0,0:0:0:0:
448,192,127927,1,0,0:0:0:0:
192,192,127999,1,0,0:0:0:0:
320,192,128070,1,0,0:0:0:0:
64,192,128142,1,2,0:0:0:0:
192,192,128142,1,0,0:0:0:0:
448,192,128142,1,0,0:0:0:0:
