osu file format v14

[General]
AudioFilename: audio.mp3
AudioLeadIn: 0
PreviewTime: 90717
Countdown: 0
SampleSet: Soft
StackLeniency: 0.7
Mode: 3
LetterboxInBreaks: 0
SpecialStyle: 0
WidescreenStoryboard: 1

[Editor]
Bookmarks: 3848,16369,28891,35152,38282,41413,47587,53934,91500
DistanceSpacing: 0.8
BeatDivisor: 12
GridSize: 4
TimelineZoom: 2.499998

[Metadata]
Title:Rainbow Magic!!
TitleUnicode:Rainbow Magic!!
Artist:ARForest
ArtistUnicode:ARForest
Creator:_Stan
Version:Hard
Source:
Tags:FAMoss featured artist fa happy hardcore waltz mapper's guild mg instrumental electronic 第二回チュウニズム公募楽曲
BeatmapID:3189159
BeatmapSetID:1508963

[Difficulty]
HPDrainRate:7.5
CircleSize:7
OverallDifficulty:7.5
ApproachRate:5
SliderMultiplier:1.4
SliderTickRate:1

[Events]
//Background and Video events
0,0,"bg.jpg",0,0
//Break Periods
//Storyboard Layer 0 (Background)
//Storyboard Layer 1 (Fail)
//Storyboard Layer 2 (Pass)
//Storyboard Layer 3 (Foreground)
//Storyboard Layer 4 (Overlay)
//Storyboard Sound Samples

[TimingPoints]
3848,260.869565217391,3,2,1,40,1,0
78978,-100,3,2,1,40,0,1
90717,-100,3,2,1,40,0,0
91500,-100,3,2,1,40,0,1
104021,-100,3,2,1,40,0,0

[HitObjects]
182,192,3587,128,0,3761:0:0:0:0:
329,192,3761,1,0,0:0:0:0:
36,192,3848,1,0,0:0:0:15:soft-hitwhistle.wav
256,192,3848,128,0,4282:0:0:0:25:CrashR.wav
475,192,3848,1,0,0:0:0:0:
36,192,4282,1,0,0:0:0:15:soft-hitwhistle.wav
329,192,4369,128,0,4543:0:0:0:45:soft-hitclap.wav
475,192,4369,1,0,0:0:0:0:
109,192,4543,1,0,0:0:0:0:
402,192,4630,128,0,4804:0:0:0:15:soft-hitwhistle.wav
182,192,4804,1,0,0:0:0:45:soft-hitclap.wav
256,192,4891,1,0,0:0:0:0:
329,192,4978,1,0,0:0:0:0:
402,192,5065,1,0,0:0:0:15:soft-hitwhistle.wav
36,192,5152,1,0,0:0:0:45:soft-hitclap.wav
182,192,5152,128,0,5326:0:0:0:0:
475,192,5326,1,0,0:0:0:15:soft-hitwhistle.wav
256,192,5413,128,0,5587:0:0:0:15:soft-hitwhistle.wav
109,192,5587,1,0,0:0:0:0:
329,192,5674,128,0,5847:0:0:0:0:
182,192,5847,1,0,0:0:0:15:soft-hitwhistle.wav
36,192,5934,1,0,0:0:0:45:soft-hitclap.wav
402,192,5934,128,0,6108:0:0:0:0:
256,192,6108,1,0,0:0:0:0:
109,192,6195,128,0,6369:0:0:0:15:soft-hitwhistle.wav
329,192,6369,1,0,0:0:0:45:soft-hitclap.wav
182,192,6456,128,0,6630:0:0:0:0:
402,192,6630,1,0,0:0:0:15:soft-hitwhistle.wav
36,192,6717,1,0,0:0:0:45:soft-hitclap.wav
256,192,6717,128,0,6891:0:0:0:0:
475,192,6891,1,0,0:0:0:45:soft-hitclap.wav
329,192,6978,128,0,8456:0:0:0:15:soft-hitwhistle.wav
36,192,7065,1,0,0:0:0:0:
109,192,7152,1,0,0:0:0:0:
182,192,7239,1,0,0:0:0:0:
256,192,7326,1,0,0:0:0:0:
402,192,7413,1,0,0:0:0:0:
475,192,7500,1,0,0:0:0:45:soft-hitclap.wav
182,192,7587,1,0,0:0:0:0:
109,192,7674,1,0,0:0:0:0:
36,192,7761,1,0,0:0:0:15:soft-hitwhistle.wav
475,192,7847,1,0,0:0:0:0:
402,192,7934,1,0,0:0:0:45:soft-hitclap.wav
256,192,8021,1,0,0:0:0:0:
36,192,8108,1,0,0:0:0:0:
109,192,8195,1,0,0:0:0:15:soft-hitwhistle.wav
182,192,8282,1,0,0:0:0:45:soft-hitclap.wav
402,192,8369,1,0,0:0:0:0:
475,192,8456,1,0,0:0:0:15:soft-hitwhistle.wav
256,192,8543,1,0,0:0:0:15:soft-hitwhistle.wav
109,192,8630,1,0,0:0:0:0:
36,192,8717,1,0,0:0:0:0:
329,192,8804,1,0,0:0:0:0:
182,192,8891,1,0,0:0:0:0:
109,192,8978,1,0,0:0:0:15:soft-hitwhistle.wav
402,192,9065,1,0,0:0:0:45:soft-hitclap.wav
256,192,9152,1,0,0:0:0:0:
182,192,9239,1,0,0:0:0:0:
36,192,9326,1,0,0:0:0:15:soft-hitwhistle.wav
329,192,9413,1,0,0:0:0:0:
256,192,9500,1,0,0:0:0:45:soft-hitclap.wav
109,192,9587,1,0,0:0:0:15:soft-hitwhistle.wav
402,192,9674,1,0,0:0:0:0:
329,192,9761,1,0,0:0:0:0:
182,192,9847,1,0,0:0:0:45:soft-hitclap.wav
475,192,9934,1,0,0:0:0:15:soft-hitwhistle.wav
402,192,10021,1,0,0:0:0:45:soft-hitclap.wav
36,192,10108,1,0,0:0:0:15:soft-hitwhistle.wav
182,192,10108,128,0,10543:0:0:0:25:CrashR.wav
256,192,10108,1,0,0:0:0:0:
402,192,10543,1,0,0:0:0:15:soft-hitwhistle.wav
36,192,10630,1,0,0:0:0:45:soft-hitclap.wav
256,192,10630,128,0,10804:0:0:0:0:
475,192,10804,1,0,0:0:0:0:
329,192,10891,128,0,11065:0:0:0:15:soft-hitwhistle.wav
109,192,11065,1,0,0:0:0:45:soft-hitclap.wav
182,192,11152,1,0,0:0:0:0:
256,192,11239,1,0,0:0:0:0:
329,192,11326,1,0,0:0:0:15:soft-hitwhistle.wav
36,192,11413,1,0,0:0:0:45:soft-hitclap.wav
402,192,11413,128,0,11587:0:0:0:0:
182,192,11587,1,0,0:0:0:15:soft-hitwhistle.wav
329,192,11674,1,0,0:0:0:15:soft-hitwhistle.wav
109,192,11761,1,0,0:0:0:0:
256,192,11847,1,0,0:0:0:0:
402,192,11934,1,0,0:0:0:0:
182,192,12021,1,0,0:0:0:0:
329,192,12108,1,0,0:0:0:15:soft-hitwhistle.wav
36,192,12195,1,0,0:0:0:45:soft-hitclap.wav
475,192,12195,1,0,0:0:0:0:
256,192,12282,1,0,0:0:0:0:
182,192,12369,1,0,0:0:0:0:
109,192,12456,1,0,0:0:0:15:soft-hitwhistle.wav
329,192,12543,1,0,0:0:0:0:
256,192,12630,1,0,0:0:0:45:soft-hitclap.wav
182,192,12717,1,0,0:0:0:0:
402,192,12804,1,0,0:0:0:0:
329,192,12891,1,0,0:0:0:15:soft-hitwhistle.wav
256,192,12978,1,0,0:0:0:45:soft-hitclap.wav
475,192,12978,1,0,0:0:0:0:
109,192,13065,1,0,0:0:0:0:
402,192,13152,1,0,0:0:0:45:soft-hitclap.wav
36,192,13239,1,0,0:0:0:15:soft-hitwhistle.wav
182,192,13239,128,0,14717:0:0:0:0:
475,192,13500,1,0,0:0:0:15:soft-hitwhistle.wav
402,192,13587,1,0,0:0:0:0:
329,192,13674,1,0,0:0:0:45:soft-hitclap.wav
256,192,13761,1,0,0:0:0:0:
36,192,13847,1,0,0:0:0:0:
109,192,13934,1,0,0:0:0:0:
329,192,14021,1,0,0:0:0:45:soft-hitclap.wav
475,192,14108,1,0,0:0:0:0:
36,192,14195,1,0,0:0:0:15:soft-hitwhistle.wav
256,192,14282,1,0,0:0:0:45:soft-hitclap.wav
402,192,14369,1,0,0:0:0:15:soft-hitwhistle.wav
475,192,14456,1,0,0:0:0:15:soft-hitwhistle.wav
109,192,14543,1,0,0:0:0:45:soft-hitclap.wav
329,192,14630,1,0,0:0:0:15:soft-hitwhistle.wav
402,192,14717,1,0,0:0:0:15:soft-hitwhistle.wav
36,192,14804,128,0,15587:0:0:0:15:soft-hitwhistle.wav
256,192,14804,128,0,15587:0:0:0:25:CrashR.wav
475,192,14804,128,0,15587:0:0:0:0:
182,192,15587,1,0,0:0:0:15:soft-hitwhistle.wav
329,192,15587,1,0,0:0:0:25:CrashR.wav
182,192,16108,128,0,16282:0:0:0:25:LR_Kick Drum Fast.wav
329,192,16282,1,0,0:0:0:25:LR_Kick Drum Fast.wav
36,192,16369,1,0,0:0:0:15:soft-hitwhistle.wav
256,192,16369,128,0,16804:0:0:0:25:CrashR.wav
475,192,16369,1,0,0:0:0:0:
109,192,16804,1,0,0:0:0:0:
329,192,16891,128,0,17065:0:0:0:45:soft-hitclap.wav
475,192,16891,1,0,0:0:0:0:
182,192,17065,1,0,0:0:0:15:soft-hitwhistle.wav
36,192,17152,1,0,0:0:0:15:soft-hitwhistle.wav
256,192,17239,1,0,0:0:0:0:
109,192,17326,1,0,0:0:0:45:soft-hitclap.wav
329,192,17413,1,0,0:0:0:0:
182,192,17587,1,0,0:0:0:15:soft-hitwhistle.wav
36,192,17674,1,0,0:0:0:45:soft-hitclap.wav
475,192,17674,1,0,0:0:0:0:
329,192,17847,1,0,0:0:0:15:soft-hitwhistle.wav
182,192,17934,1,0,0:0:0:15:soft-hitwhistle.wav
256,192,18021,1,0,0:0:0:0:
402,192,18108,1,0,0:0:0:15:soft-hitwhistle.wav
109,192,18195,1,0,0:0:0:0:
182,192,18282,1,0,0:0:0:0:
329,192,18369,1,0,0:0:0:15:soft-hitwhistle.wav
36,192,18456,1,0,0:0:0:45:soft-hitclap.wav
475,192,18456,1,0,0:0:0:0:
109,192,18543,1,0,0:0:0:0:
256,192,18630,1,0,0:0:0:15:soft-hitwhistle.wav
475,192,18717,1,0,0:0:0:15:soft-hitwhistle.wav
402,192,18804,1,0,0:0:0:0:
329,192,18891,1,0,0:0:0:45:soft-hitclap.wav
182,192,18978,1,0,0:0:0:0:
109,192,19065,1,0,0:0:0:0:
402,192,19152,1,0,0:0:0:15:soft-hitwhistle.wav
36,192,19239,1,0,0:0:0:45:soft-hitclap.wav
256,192,19239,1,0,0:0:0:0:
475,192,19326,1,0,0:0:0:0:
329,192,19413,1,0,0:0:0:45:soft-hitclap.wav
182,192,19500,1,0,0:0:0:15:soft-hitwhistle.wav
36,192,19587,1,0,0:0:0:0:
256,192,19674,1,0,0:0:0:15:soft-hitwhistle.wav
109,192,19761,1,0,0:0:0:0:
329,192,19847,1,0,0:0:0:0:
182,192,19934,1,0,0:0:0:15:soft-hitwhistle.wav
36,192,20021,1,0,0:0:0:45:soft-hitclap.wav
402,192,20021,1,0,0:0:0:0:
256,192,20108,1,0,0:0:0:0:
475,192,20195,1,0,0:0:0:15:soft-hitwhistle.wav
329,192,20282,1,0,0:0:0:15:soft-hitwhistle.wav
182,192,20369,1,0,0:0:0:0:
109,192,20456,1,0,0:0:0:45:soft-hitclap.wav
402,192,20543,1,0,0:0:0:0:
256,192,20630,1,0,0:0:0:0:
182,192,20717,1,0,0:0:0:15:soft-hitwhistle.wav
475,192,20804,1,0,0:0:0:15:soft-hitwhistle.wav
329,192,20891,1,0,0:0:0:0:
256,192,20978,1,0,0:0:0:45:soft-hitclap.wav
36,192,21065,1,0,0:0:0:15:soft-hitwhistle.wav
182,192,21152,1,0,0:0:0:0:
329,192,21239,1,0,0:0:0:0:
109,192,21326,1,0,0:0:0:0:
256,192,21413,1,0,0:0:0:0:
402,192,21500,1,0,0:0:0:15:soft-hitwhistle.wav
36,192,21587,1,0,0:0:0:45:soft-hitclap.wav
182,192,21587,1,0,0:0:0:0:
329,192,21674,1,0,0:0:0:0:
475,192,21761,1,0,0:0:0:15:soft-hitwhistle.wav
256,192,21847,1,0,0:0:0:45:soft-hitclap.wav
182,192,21934,1,0,0:0:0:0:
109,192,22021,1,0,0:0:0:15:soft-hitwhistle.wav
329,192,22108,1,0,0:0:0:15:soft-hitwhistle.wav
256,192,22195,1,0,0:0:0:0:
182,192,22282,1,0,0:0:0:15:soft-hitwhistle.wav
402,192,22369,128,0,22630:0:0:0:15:soft-hitwhistle.wav
36,192,22630,1,0,0:0:0:15:soft-hitwhistle.wav
256,192,22630,1,0,0:0:0:25:CrashR.wav
475,192,22630,1,0,0:0:0:0:
109,192,23152,128,0,23326:0:0:0:0:
182,192,23413,128,0,23587:0:0:0:0:
256,192,23674,128,0,23847:0:0:0:0:
329,192,23934,128,0,24108:0:0:0:0:
475,192,24195,128,0,24369:0:0:0:0:
182,192,24369,1,0,0:0:0:0:
402,192,24456,128,0,24630:0:0:0:0:
109,192,24630,1,0,0:0:0:0:
329,192,24717,128,0,24891:0:0:0:0:
36,192,24891,1,0,0:0:0:0:
182,192,24978,128,0,25761:0:0:0:0:
256,192,25239,128,0,25761:0:0:0:0:
329,192,25500,128,0,25761:0:0:0:0:
36,192,25761,128,0,25934:0:0:0:0:
475,192,25761,1,0,0:0:0:0:
182,192,26021,128,0,26195:0:0:0:0:
109,192,26195,1,0,0:0:0:0:
329,192,26282,128,0,26456:0:0:0:0:
36,192,26543,1,0,0:0:0:0:
475,192,26543,128,0,26717:0:0:0:0:
329,192,26804,128,0,26978:0:0:0:0:
402,192,26978,1,0,0:0:0:0:
182,192,27065,128,0,27239:0:0:0:0:
256,192,27239,1,0,0:0:0:0:
36,192,27326,1,0,0:0:0:25:LR_Kick Drum Fast.wav
475,192,27326,1,0,0:0:0:0:
182,192,27413,1,0,0:0:0:15:soft-hitwhistle.wav
329,192,27500,1,0,0:0:0:15:soft-hitwhistle.wav
36,192,27587,1,0,0:0:0:25:LR_Kick Drum Fast.wav
475,192,27587,1,0,0:0:0:0:
329,192,27674,1,0,0:0:0:15:soft-hitwhistle.wav
182,192,27761,1,0,0:0:0:15:soft-hitwhistle.wav
36,192,27847,1,0,0:0:0:25:LR_Kick Drum Fast.wav
475,192,27847,1,0,0:0:0:0:
402,192,27934,1,0,0:0:0:15:soft-hitwhistle.wav
329,192,28021,1,0,0:0:0:15:soft-hitwhistle.wav
256,192,28108,1,0,0:0:0:25:LR_Kick Drum Fast.wav
109,192,28282,1,0,0:0:0:25:LR_Kick Drum Fast.wav
402,192,28369,1,0,0:0:0:25:LR_Kick Drum Fast.wav
109,192,28543,1,0,0:0:0:25:LR_Kick Drum Fast.wav
402,192,28630,1,0,0:0:0:25:LR_Kick Drum Fast.wav
329,192,28717,1,0,0:0:0:25:LR_Kick Drum Fast.wav
256,192,28804,1,0,0:0:0:25:LR_Kick Drum Fast.wav
36,192,28891,1,0,0:0:0:15:soft-hitwhistle.wav
182,192,28891,128,0,29152:0:0:0:25:CrashR.wav
475,192,28891,1,0,0:0:0:0:
329,192,29152,1,0,0:0:0:15:soft-hitwhistle.wav
402,192,29239,1,0,0:0:0:0:
109,192,29326,1,0,0:0:0:0:
256,192,29413,1,0,0:0:0:0:
329,192,29500,1,0,0:0:0:0:
36,192,29587,1,0,0:0:0:15:soft-hitwhistle.wav
182,192,29674,1,0,0:0:0:15:soft-hitwhistle.wav
475,192,29674,1,0,0:0:0:0:
402,192,29761,1,0,0:0:0:0:
329,192,29847,1,0,0:0:0:0:
36,192,29934,1,0,0:0:0:15:soft-hitwhistle.wav
109,192,30021,1,0,0:0:0:0:
182,192,30108,1,0,0:0:0:0:
256,192,30195,1,0,0:0:0:15:soft-hitwhistle.wav
329,192,30282,1,0,0:0:0:0:
402,192,30369,1,0,0:0:0:0:
182,192,30456,1,0,0:0:0:15:soft-hitwhistle.wav
475,192,30456,1,0,0:0:0:0:
109,192,30543,1,0,0:0:0:0:
36,192,30630,1,0,0:0:0:0:
256,192,30717,1,0,0:0:0:15:soft-hitwhistle.wav
329,192,30804,1,0,0:0:0:0:
402,192,30891,1,0,0:0:0:15:soft-hitwhistle.wav
182,192,30978,1,0,0:0:0:15:soft-hitwhistle.wav
256,192,31065,1,0,0:0:0:0:
329,192,31152,1,0,0:0:0:15:soft-hitwhistle.wav
36,192,31239,1,0,0:0:0:15:soft-hitwhistle.wav
475,192,31239,1,0,0:0:0:0:
182,192,31326,1,0,0:0:0:0:
402,192,31413,1,0,0:0:0:0:
109,192,31500,1,0,0:0:0:15:soft-hitwhistle.wav
329,192,31587,1,0,0:0:0:0:
36,192,31674,1,0,0:0:0:0:
256,192,31761,1,0,0:0:0:15:soft-hitwhistle.wav
475,192,31847,1,0,0:0:0:0:
182,192,31934,1,0,0:0:0:15:soft-hitwhistle.wav
36,192,32021,1,0,0:0:0:15:soft-hitwhistle.wav
402,192,32021,128,0,32282:0:0:0:0:
256,192,32282,1,0,0:0:0:15:soft-hitwhistle.wav
109,192,32369,1,0,0:0:0:0:
36,192,32456,1,0,0:0:0:0:
329,192,32543,1,0,0:0:0:0:
182,192,32630,1,0,0:0:0:0:
109,192,32717,1,0,0:0:0:15:soft-hitwhistle.wav
36,192,32804,1,0,0:0:0:15:soft-hitwhistle.wav
402,192,32804,1,0,0:0:0:0:
256,192,32891,1,0,0:0:0:0:
182,192,32978,1,0,0:0:0:0:
475,192,33065,1,0,0:0:0:15:soft-hitwhistle.wav
329,192,33152,1,0,0:0:0:0:
256,192,33239,1,0,0:0:0:0:
109,192,33326,128,0,33587:0:0:0:15:soft-hitwhistle.wav
36,192,33587,1,0,0:0:0:15:soft-hitwhistle.wav
475,192,33587,1,0,0:0:0:0:
182,192,33674,1,0,0:0:0:0:
329,192,33761,1,0,0:0:0:0:
109,192,33847,1,0,0:0:0:15:soft-hitwhistle.wav
256,192,33934,1,0,0:0:0:0:
402,192,34021,1,0,0:0:0:15:soft-hitwhistle.wav
182,192,34108,1,0,0:0:0:15:soft-hitwhistle.wav
329,192,34195,1,0,0:0:0:0:
475,192,34282,1,0,0:0:0:15:soft-hitwhistle.wav
36,192,34369,1,0,0:0:0:15:soft-hitwhistle.wav
256,192,34369,1,0,0:0:0:0:
109,192,34543,1,0,0:0:0:15:soft-hitwhistle.wav
402,192,34630,1,0,0:0:0:15:soft-hitwhistle.wav
329,192,34717,1,0,0:0:0:0:
256,192,34804,1,0,0:0:0:15:soft-hitwhistle.wav
182,192,34891,128,0,35152:0:0:0:15:soft-hitwhistle.wav
36,192,35152,1,0,0:0:0:15:soft-hitwhistle.wav
329,192,35152,1,0,0:0:0:25:CrashR.wav
475,192,35152,128,0,35413:0:0:0:0:
256,192,35326,1,0,0:0:0:0:
402,192,35413,128,0,35674:0:0:0:0:
182,192,35587,1,0,0:0:0:0:
329,192,35674,128,0,35934:0:0:0:0:
109,192,35847,1,0,0:0:0:0:
256,192,35934,128,0,36195:0:0:0:0:
475,192,36108,1,0,0:0:0:0:
182,192,36195,128,0,36456:0:0:0:0:
402,192,36369,1,0,0:0:0:0:
109,192,36456,128,0,36717:0:0:0:0:
329,192,36630,1,0,0:0:0:0:
36,192,36717,128,0,36978:0:0:0:0:
256,192,36891,1,0,0:0:0:0:
182,192,36978,128,0,37239:0:0:0:0:
402,192,37152,1,0,0:0:0:0:
329,192,37239,128,0,37500:0:0:0:0:
36,192,37413,1,0,0:0:0:0:
109,192,37500,128,0,37761:0:0:0:0:
475,192,37674,1,0,0:0:0:0:
256,192,37761,128,0,38021:0:0:0:0:
36,192,37934,1,0,0:0:0:0:
402,192,38021,128,0,38282:0:0:0:0:
256,192,38195,1,0,0:0:0:0:
36,192,38282,128,0,39847:0:0:0:25:CrashR.wav
182,192,38282,128,0,39847:0:0:0:0:
475,192,38282,1,0,0:0:0:0:
329,192,38717,128,0,39847:0:0:0:0:
475,192,39847,128,0,40630:0:0:0:0:
109,192,40108,1,0,0:0:0:0:
256,192,40369,1,0,0:0:0:0:
36,192,40630,1,0,0:0:0:0:
182,192,41152,1,0,0:0:0:0:
36,192,41413,1,0,0:0:0:25:CrashR.wav
256,192,41413,128,0,41934:0:0:0:0:
475,192,41413,1,0,0:0:0:0:
329,192,41674,1,0,0:0:0:0:
182,192,41934,1,0,0:0:0:0:
36,192,42195,1,0,0:0:0:0:
329,192,42195,128,0,42717:0:0:0:0:
182,192,42456,1,0,0:0:0:0:
475,192,42717,1,0,0:0:0:0:
36,192,42978,1,0,0:0:0:0:
402,192,42978,128,0,43500:0:0:0:0:
182,192,43239,1,0,0:0:0:0:
36,192,43500,1,0,0:0:0:0:
256,192,43761,1,0,0:0:0:0:
475,192,43761,128,0,44282:0:0:0:0:
109,192,44021,1,0,0:0:0:0:
329,192,44282,1,0,0:0:0:0:
36,192,44543,128,0,45065:0:0:0:0:
182,192,44543,1,0,0:0:0:0:
402,192,44804,1,0,0:0:0:0:
256,192,45065,1,0,0:0:0:0:
109,192,45326,128,0,45847:0:0:0:0:
475,192,45326,1,0,0:0:0:0:
329,192,45587,1,0,0:0:0:0:
475,192,45847,1,0,0:0:0:0:
402,192,45934,1,0,0:0:0:0:
329,192,46021,1,0,0:0:0:0:
36,192,46108,1,0,0:0:0:0:
182,192,46108,128,0,46630:0:0:0:0:
402,192,46369,1,0,0:0:0:0:
36,192,46630,1,0,0:0:0:0:
329,192,46891,1,0,0:0:0:0:
475,192,46891,1,0,0:0:0:0:
36,192,47152,1,0,0:0:0:0:
182,192,47152,1,0,0:0:0:0:
256,192,47413,128,0,47674:0:0:0:0:
36,192,47674,1,0,0:0:0:25:LR_Kick Drum Fast.wav
475,192,47674,1,0,0:0:0:25:CrashR.wav
329,192,47847,1,0,0:0:0:0:
109,192,47934,1,0,0:0:0:0:
182,192,48021,1,0,0:0:0:0:
256,192,48108,1,0,0:0:0:25:LR_Kick Drum Fast.wav
402,192,48195,1,0,0:0:0:25:LR_Kick Drum Fast.wav
182,192,48369,1,0,0:0:0:0:
329,192,48456,1,0,0:0:0:25:LR_Kick Drum Fast.wav
109,192,48630,1,0,0:0:0:25:LR_Kick Drum Fast.wav
256,192,48717,1,0,0:0:0:0:
36,192,48891,1,0,0:0:0:25:LR_Kick Drum Fast.wav
182,192,48978,1,0,0:0:0:25:LR_Kick Drum Fast.wav
475,192,49152,1,0,0:0:0:25:LR_Kick Drum Fast.wav
329,192,49239,1,0,0:0:0:25:LR_Kick Drum Fast.wav
36,192,49413,1,0,0:0:0:0:
182,192,49500,1,0,0:0:0:0:
256,192,49587,1,0,0:0:0:0:
329,192,49674,1,0,0:0:0:25:LR_Kick Drum Fast.wav
475,192,49761,1,0,0:0:0:25:LR_Kick Drum Fast.wav
256,192,49934,1,0,0:0:0:0:
402,192,50021,1,0,0:0:0:25:LR_Kick Drum Fast.wav
182,192,50195,1,0,0:0:0:25:LR_Kick Drum Fast.wav
329,192,50282,1,0,0:0:0:0:
36,192,50369,1,0,0:0:0:0:
182,192,50456,1,0,0:0:0:25:LR_Kick Drum Fast.wav
475,192,50543,1,0,0:0:0:25:LR_Kick Drum Fast.wav
329,192,50630,1,0,0:0:0:25:LR_Kick Drum Fast.wav
182,192,50717,1,0,0:0:0:25:LR_Kick Drum Fast.wav
36,192,50804,1,0,0:0:0:15:soft-hitwhistle.wav
109,192,50804,1,0,0:0:0:25:CrashR.wav
475,192,50804,1,0,0:0:0:0:
256,192,50978,1,0,0:0:0:25:LR_Kick Drum Fast.wav
402,192,51065,1,0,0:0:0:45:soft-hitclap.wav
182,192,51152,1,0,0:0:0:25:LR_Kick Drum Fast.wav
329,192,51239,1,0,0:0:0:25:LR_Kick Drum Fast.wav
109,192,51326,1,0,0:0:0:25:LR_Kick Drum Fast.wav
36,192,51500,1,0,0:0:0:0:
329,192,51587,1,0,0:0:0:15:soft-hitwhistle.wav
402,192,51587,1,0,0:0:0:25:CrashR.wav
475,192,51587,1,0,0:0:0:0:
256,192,51761,1,0,0:0:0:25:LR_Kick Drum Fast.wav
109,192,51847,1,0,0:0:0:45:soft-hitclap.wav
329,192,51934,1,0,0:0:0:25:LR_Kick Drum Fast.wav
182,192,52021,1,0,0:0:0:25:LR_Kick Drum Fast.wav
36,192,52369,1,0,0:0:0:15:soft-hitwhistle.wav
256,192,52369,1,0,0:0:0:25:CrashR.wav
475,192,52369,1,0,0:0:0:0:
182,192,52543,1,0,0:0:0:25:LR_Kick Drum Fast.wav
402,192,52630,1,0,0:0:0:45:soft-hitclap.wav
109,192,52804,1,0,0:0:0:25:LR_Kick Drum Fast.wav
329,192,52891,1,0,0:0:0:25:LR_Kick Drum Fast.wav
36,192,53065,1,0,0:0:0:15:soft-hitwhistle.wav
256,192,53152,1,0,0:0:0:15:soft-hitwhistle.wav
475,192,53152,1,0,0:0:0:25:CrashR.wav
109,192,53326,1,0,0:0:0:15:soft-hitwhistle.wav
182,192,53413,1,0,0:0:0:45:soft-hitclap.wav
256,192,53500,1,0,0:0:0:25:LR_Kick Drum Fast.wav
329,192,53587,1,0,0:0:0:25:LR_Kick Drum Fast.wav
402,192,53674,1,0,0:0:0:15:soft-hitwhistle.wav
36,192,53934,1,0,0:0:0:15:soft-hitwhistle.wav
182,192,53934,128,0,54108:0:0:0:25:CrashR.wav
475,192,53934,1,0,0:0:0:0:
329,192,54108,1,0,0:0:0:0:
109,192,54195,128,0,54369:0:0:0:0:
256,192,54369,1,0,0:0:0:15:soft-hitwhistle.wav
36,192,54456,128,0,54630:0:0:0:45:soft-hitclap.wav
475,192,54456,1,0,0:0:0:0:
182,192,54630,1,0,0:0:0:0:
329,192,54717,1,0,0:0:0:15:soft-hitwhistle.wav
109,192,54804,1,0,0:0:0:0:
256,192,54891,1,0,0:0:0:45:soft-hitclap.wav
402,192,54978,128,0,55152:0:0:0:0:
182,192,55152,1,0,0:0:0:15:soft-hitwhistle.wav
36,192,55239,1,0,0:0:0:45:soft-hitclap.wav
475,192,55239,128,0,55413:0:0:0:0:
329,192,55413,1,0,0:0:0:15:soft-hitwhistle.wav
182,192,55500,1,0,0:0:0:15:soft-hitwhistle.wav
109,192,55587,1,0,0:0:0:0:
36,192,55674,1,0,0:0:0:0:
256,192,55761,1,0,0:0:0:0:
182,192,55847,1,0,0:0:0:0:
109,192,55934,1,0,0:0:0:15:soft-hitwhistle.wav
329,192,56021,1,0,0:0:0:45:soft-hitclap.wav
475,192,56021,1,0,0:0:0:0:
256,192,56108,1,0,0:0:0:0:
182,192,56195,1,0,0:0:0:0:
36,192,56282,1,0,0:0:0:15:soft-hitwhistle.wav
329,192,56369,1,0,0:0:0:0:
109,192,56456,1,0,0:0:0:45:soft-hitclap.wav
402,192,56543,1,0,0:0:0:0:
182,192,56630,1,0,0:0:0:0:
475,192,56717,1,0,0:0:0:15:soft-hitwhistle.wav
36,192,56804,1,0,0:0:0:45:soft-hitclap.wav
256,192,56804,1,0,0:0:0:0:
402,192,56891,1,0,0:0:0:15:soft-hitwhistle.wav
182,192,56978,1,0,0:0:0:45:soft-hitclap.wav
329,192,57065,128,0,57239:0:0:0:15:soft-hitwhistle.wav
475,192,57065,128,0,57239:0:0:0:0:
36,192,57239,1,0,0:0:0:0:
182,192,57500,1,0,0:0:0:15:soft-hitwhistle.wav
329,192,57587,128,0,57761:0:0:0:45:soft-hitclap.wav
475,192,57587,128,0,57761:0:0:0:0:
36,192,57847,128,0,58021:0:0:0:15:soft-hitwhistle.wav
182,192,57847,128,0,58021:0:0:0:0:
475,192,58021,1,0,0:0:0:45:soft-hitclap.wav
329,192,58282,1,0,0:0:0:15:soft-hitwhistle.wav
36,192,58369,128,0,58543:0:0:0:45:soft-hitclap.wav
182,192,58369,128,0,58543:0:0:0:0:
402,192,58630,128,0,58804:0:0:0:15:soft-hitwhistle.wav
475,192,58630,128,0,58804:0:0:0:0:
109,192,58804,1,0,0:0:0:0:
256,192,59065,1,0,0:0:0:15:soft-hitwhistle.wav
402,192,59152,128,0,59326:0:0:0:45:soft-hitclap.wav
475,192,59152,128,0,59326:0:0:0:0:
36,192,59413,128,0,59587:0:0:0:15:soft-hitwhistle.wav
256,192,59413,128,0,59587:0:0:0:0:
109,192,59674,128,0,59847:0:0:0:15:soft-hitwhistle.wav
329,192,59674,128,0,59847:0:0:0:0:
182,192,59934,128,0,60108:0:0:0:45:soft-hitclap.wav
402,192,59934,128,0,60108:0:0:0:0:
36,192,60195,1,0,0:0:0:15:soft-hitwhistle.wav
256,192,60195,128,0,60369:0:0:0:25:CrashR.wav
475,192,60195,1,0,0:0:0:0:
109,192,60369,1,0,0:0:0:0:
182,192,60717,128,0,60891:0:0:0:45:soft-hitclap.wav
402,192,60717,1,0,0:0:0:0:
36,192,60978,128,0,61152:0:0:0:15:soft-hitwhistle.wav
256,192,61152,1,0,0:0:0:45:soft-hitclap.wav
402,192,61239,1,0,0:0:0:0:
182,192,61326,1,0,0:0:0:0:
329,192,61413,1,0,0:0:0:15:soft-hitwhistle.wav
36,192,61500,1,0,0:0:0:45:soft-hitclap.wav
475,192,61500,128,0,61674:0:0:0:0:
256,192,61674,1,0,0:0:0:15:soft-hitwhistle.wav
109,192,61761,1,0,0:0:0:15:soft-hitwhistle.wav
329,192,61847,1,0,0:0:0:0:
182,192,61934,1,0,0:0:0:0:
402,192,62021,128,0,62195:0:0:0:0:
256,192,62195,1,0,0:0:0:15:soft-hitwhistle.wav
36,192,62282,1,0,0:0:0:45:soft-hitclap.wav
475,192,62282,1,0,0:0:0:0:
182,192,62456,1,0,0:0:0:0:
329,192,62543,1,0,0:0:0:15:soft-hitwhistle.wav
402,192,62630,1,0,0:0:0:0:
475,192,62717,1,0,0:0:0:45:soft-hitclap.wav
256,192,62804,1,0,0:0:0:45:soft-hitclap.wav
329,192,62891,1,0,0:0:0:15:soft-hitwhistle.wav
402,192,62978,1,0,0:0:0:15:soft-hitwhistle.wav
36,192,63065,1,0,0:0:0:15:soft-hitwhistle.wav
182,192,63065,1,0,0:0:0:0:
256,192,63152,1,0,0:0:0:15:soft-hitwhistle.wav
329,192,63239,1,0,0:0:0:15:soft-hitwhistle.wav
402,192,63326,128,0,64108:0:0:0:15:soft-hitwhistle.wav
475,192,63326,128,0,64891:0:0:0:25:CrashR.wav
109,192,63500,1,0,0:0:0:15:soft-hitwhistle.wav
256,192,63587,1,0,0:0:0:15:soft-hitwhistle.wav
109,192,63761,1,0,0:0:0:15:soft-hitwhistle.wav
256,192,63847,1,0,0:0:0:45:soft-hitclap.wav
182,192,64021,1,0,0:0:0:15:soft-hitwhistle.wav
36,192,64108,128,0,65674:0:0:0:15:soft-hitwhistle.wav
329,192,64282,1,0,0:0:0:45:soft-hitclap.wav
182,192,64369,1,0,0:0:0:15:soft-hitwhistle.wav
329,192,64543,1,0,0:0:0:15:soft-hitwhistle.wav
182,192,64630,1,0,0:0:0:45:soft-hitclap.wav
256,192,64804,1,0,0:0:0:15:soft-hitwhistle.wav
109,192,64891,128,0,65674:0:0:0:15:soft-hitwhistle.wav
329,192,65065,1,0,0:0:0:15:soft-hitwhistle.wav
475,192,65152,1,0,0:0:0:15:soft-hitwhistle.wav
329,192,65326,1,0,0:0:0:15:soft-hitwhistle.wav
475,192,65413,1,0,0:0:0:45:soft-hitclap.wav
256,192,65587,1,0,0:0:0:15:soft-hitwhistle.wav
402,192,65674,128,0,65847:0:0:0:25:LR_Kick Drum Fast.wav
475,192,65847,1,0,0:0:0:25:LR_Kick Drum Fast.wav
256,192,65934,128,0,66108:0:0:0:25:LR_Kick Drum Fast.wav
329,192,66108,1,0,0:0:0:25:LR_Kick Drum Fast.wav
109,192,66195,128,0,66369:0:0:0:45:soft-hitclap.wav
182,192,66369,1,0,0:0:0:25:LR_Kick Drum Fast.wav
36,192,66456,1,0,0:0:0:15:soft-hitwhistle.wav
329,192,66456,1,0,0:0:0:25:LR_Kick Drum Fast.wav
475,192,66456,128,0,66891:0:0:0:25:CrashR.wav
256,192,66891,1,0,0:0:0:15:soft-hitwhistle.wav
36,192,66978,1,0,0:0:0:45:soft-hitclap.wav
402,192,66978,128,0,67152:0:0:0:0:
182,192,67152,1,0,0:0:0:15:soft-hitwhistle.wav
329,192,67239,1,0,0:0:0:15:soft-hitwhistle.wav
475,192,67326,1,0,0:0:0:0:
109,192,67413,1,0,0:0:0:0:
256,192,67500,128,0,67674:0:0:0:15:soft-hitwhistle.wav
402,192,67674,1,0,0:0:0:0:
36,192,67761,1,0,0:0:0:45:soft-hitclap.wav
182,192,67761,128,0,67934:0:0:0:0:
329,192,67934,1,0,0:0:0:0:
109,192,68021,128,0,68456:0:0:0:15:soft-hitwhistle.wav
329,192,68456,1,0,0:0:0:15:soft-hitwhistle.wav
36,192,68543,128,0,68717:0:0:0:45:soft-hitclap.wav
475,192,68543,1,0,0:0:0:0:
182,192,68717,1,0,0:0:0:15:soft-hitwhistle.wav
256,192,68804,1,0,0:0:0:15:soft-hitwhistle.wav
329,192,68891,1,0,0:0:0:0:
402,192,68978,1,0,0:0:0:0:
182,192,69065,1,0,0:0:0:15:soft-hitwhistle.wav
256,192,69152,1,0,0:0:0:0:
329,192,69239,1,0,0:0:0:0:
109,192,69326,1,0,0:0:0:45:soft-hitclap.wav
475,192,69326,1,0,0:0:0:0:
182,192,69413,1,0,0:0:0:0:
256,192,69500,1,0,0:0:0:0:
329,192,69587,1,0,0:0:0:15:soft-hitwhistle.wav
109,192,69674,1,0,0:0:0:0:
36,192,69761,1,0,0:0:0:0:
402,192,69847,1,0,0:0:0:0:
182,192,69934,1,0,0:0:0:0:
109,192,70021,1,0,0:0:0:15:soft-hitwhistle.wav
36,192,70108,1,0,0:0:0:45:soft-hitclap.wav
475,192,70108,1,0,0:0:0:0:
256,192,70195,1,0,0:0:0:0:
182,192,70282,1,0,0:0:0:15:soft-hitwhistle.wav
329,192,70369,1,0,0:0:0:15:soft-hitwhistle.wav
402,192,70456,1,0,0:0:0:0:
475,192,70543,1,0,0:0:0:0:
256,192,70630,1,0,0:0:0:15:soft-hitwhistle.wav
329,192,70717,1,0,0:0:0:0:
402,192,70804,1,0,0:0:0:0:
36,192,70891,1,0,0:0:0:45:soft-hitclap.wav
182,192,70891,1,0,0:0:0:0:
256,192,70978,1,0,0:0:0:0:
329,192,71065,1,0,0:0:0:0:
475,192,71152,1,0,0:0:0:15:soft-hitwhistle.wav
182,192,71239,1,0,0:0:0:0:
256,192,71326,1,0,0:0:0:0:
402,192,71413,1,0,0:0:0:0:
109,192,71500,1,0,0:0:0:0:
182,192,71587,1,0,0:0:0:15:soft-hitwhistle.wav
329,192,71674,1,0,0:0:0:45:soft-hitclap.wav
475,192,71674,1,0,0:0:0:0:
36,192,71847,1,0,0:0:0:15:soft-hitwhistle.wav
256,192,71934,1,0,0:0:0:15:soft-hitwhistle.wav
402,192,71934,1,0,0:0:0:45:soft-hitclap.wav
36,192,72108,1,0,0:0:0:0:
182,192,72195,1,0,0:0:0:15:soft-hitwhistle.wav
329,192,72195,1,0,0:0:0:45:soft-hitclap.wav
475,192,72369,1,0,0:0:0:0:
109,192,72456,1,0,0:0:0:15:soft-hitwhistle.wav
256,192,72456,1,0,0:0:0:45:soft-hitclap.wav
475,192,72630,1,0,0:0:0:0:
36,192,72717,1,0,0:0:0:15:soft-hitwhistle.wav
182,192,72717,128,0,72891:0:0:0:45:soft-hitclap.wav
256,192,72978,128,0,73152:0:0:0:0:
329,192,73239,128,0,73413:0:0:0:0:
36,192,73413,1,0,0:0:0:0:
475,192,73500,128,0,73674:0:0:0:0:
182,192,73674,1,0,0:0:0:0:
402,192,73761,128,0,73934:0:0:0:0:
109,192,73934,1,0,0:0:0:0:
329,192,74021,128,0,74195:0:0:0:0:
36,192,74195,1,0,0:0:0:0:
256,192,74282,128,0,74456:0:0:0:0:
475,192,74456,1,0,0:0:0:0:
182,192,74543,128,0,74717:0:0:0:0:
402,192,74717,1,0,0:0:0:0:
109,192,74804,128,0,74978:0:0:0:0:
329,192,74978,1,0,0:0:0:0:
36,192,75065,128,0,75847:0:0:0:0:
256,192,75326,128,0,75847:0:0:0:0:
475,192,75587,128,0,75847:0:0:0:0:
182,192,75847,1,0,0:0:0:15:soft-hitwhistle.wav
402,192,75934,1,0,0:0:0:0:
109,192,76021,1,0,0:0:0:15:soft-hitwhistle.wav
329,192,76108,1,0,0:0:0:15:soft-hitwhistle.wav
36,192,76195,1,0,0:0:0:0:
256,192,76282,1,0,0:0:0:15:soft-hitwhistle.wav
475,192,76369,1,0,0:0:0:15:soft-hitwhistle.wav
182,192,76456,1,0,0:0:0:0:
402,192,76543,1,0,0:0:0:15:soft-hitwhistle.wav
109,192,76630,1,0,0:0:0:15:soft-hitwhistle.wav
256,192,76717,1,0,0:0:0:0:
402,192,76804,1,0,0:0:0:15:soft-hitwhistle.wav
36,192,76891,1,0,0:0:0:15:soft-hitwhistle.wav
182,192,76978,1,0,0:0:0:0:
329,192,77065,1,0,0:0:0:15:soft-hitwhistle.wav
475,192,77152,128,0,77413:0:0:0:15:soft-hitwhistle.wav
256,192,77413,1,0,0:0:0:15:soft-hitwhistle.wav
109,192,77500,1,0,0:0:0:0:
36,192,77587,1,0,0:0:0:15:soft-hitwhistle.wav
329,192,77674,1,0,0:0:0:15:soft-hitwhistle.wav
182,192,77761,1,0,0:0:0:0:
109,192,77847,1,0,0:0:0:15:soft-hitwhistle.wav
402,192,77934,1,0,0:0:0:15:soft-hitwhistle.wav
256,192,78021,1,0,0:0:0:0:
182,192,78108,1,0,0:0:0:15:soft-hitwhistle.wav
36,192,78195,1,0,0:0:0:45:soft-hitclap.wav
475,192,78195,1,0,0:0:0:0:
329,192,78282,1,0,0:0:0:0:
109,192,78369,1,0,0:0:0:15:soft-hitwhistle.wav
402,192,78456,1,0,0:0:0:45:soft-hitclap.wav
182,192,78543,1,0,0:0:0:0:
475,192,78630,1,0,0:0:0:15:soft-hitwhistle.wav
256,192,78717,1,0,0:0:0:45:soft-hitclap.wav
36,192,78978,1,0,0:0:0:15:soft-hitwhistle.wav
256,192,78978,1,0,0:0:0:25:CrashR.wav
475,192,78978,1,0,0:0:0:0:
329,192,79065,1,0,0:0:0:0:
402,192,79152,1,0,0:0:0:0:
182,192,79239,1,0,0:0:0:15:soft-hitwhistle.wav
256,192,79326,1,0,0:0:0:0:
329,192,79413,1,0,0:0:0:0:
109,192,79500,1,0,0:0:0:15:soft-hitwhistle.wav
182,192,79587,1,0,0:0:0:0:
256,192,79674,1,0,0:0:0:0:
36,192,79761,1,0,0:0:0:15:soft-hitwhistle.wav
475,192,79761,1,0,0:0:0:0:
402,192,79847,1,0,0:0:0:0:
329,192,79934,1,0,0:0:0:0:
182,192,80021,1,0,0:0:0:15:soft-hitwhistle.wav
109,192,80108,1,0,0:0:0:0:
36,192,80195,1,0,0:0:0:0:
256,192,80282,1,0,0:0:0:15:soft-hitwhistle.wav
329,192,80369,1,0,0:0:0:0:
402,192,80456,1,0,0:0:0:0:
182,192,80543,1,0,0:0:0:15:soft-hitwhistle.wav
475,192,80543,1,0,0:0:0:0:
109,192,80630,1,0,0:0:0:0:
36,192,80717,1,0,0:0:0:0:
256,192,80804,1,0,0:0:0:15:soft-hitwhistle.wav
182,192,80891,1,0,0:0:0:0:
109,192,80978,1,0,0:0:0:0:
329,192,81065,1,0,0:0:0:15:soft-hitwhistle.wav
256,192,81152,1,0,0:0:0:0:
182,192,81239,1,0,0:0:0:0:
36,192,81326,1,0,0:0:0:15:soft-hitwhistle.wav
475,192,81326,1,0,0:0:0:0:
109,192,81413,1,0,0:0:0:0:
182,192,81500,1,0,0:0:0:0:
402,192,81587,1,0,0:0:0:15:soft-hitwhistle.wav
256,192,81674,1,0,0:0:0:0:
109,192,81761,1,0,0:0:0:0:
329,192,81847,1,0,0:0:0:15:soft-hitwhistle.wav
182,192,81934,1,0,0:0:0:0:
36,192,82021,1,0,0:0:0:0:
329,192,82108,1,0,0:0:0:15:soft-hitwhistle.wav
475,192,82108,1,0,0:0:0:0:
182,192,82195,1,0,0:0:0:0:
109,192,82282,1,0,0:0:0:0:
402,192,82369,1,0,0:0:0:15:soft-hitwhistle.wav
256,192,82456,1,0,0:0:0:0:
182,192,82543,1,0,0:0:0:0:
475,192,82630,1,0,0:0:0:15:soft-hitwhistle.wav
329,192,82717,1,0,0:0:0:0:
256,192,82804,1,0,0:0:0:0:
36,192,82891,1,0,0:0:0:15:soft-hitwhistle.wav
475,192,82891,1,0,0:0:0:0:
182,192,82978,1,0,0:0:0:0:
256,192,83065,1,0,0:0:0:0:
402,192,83152,1,0,0:0:0:15:soft-hitwhistle.wav
109,192,83239,1,0,0:0:0:0:
182,192,83326,1,0,0:0:0:0:
329,192,83413,1,0,0:0:0:15:soft-hitwhistle.wav
36,192,83500,1,0,0:0:0:0:
109,192,83587,1,0,0:0:0:0:
256,192,83674,1,0,0:0:0:15:soft-hitwhistle.wav
475,192,83674,1,0,0:0:0:0:
329,192,83761,1,0,0:0:0:0:
402,192,83847,1,0,0:0:0:0:
182,192,83934,1,0,0:0:0:15:soft-hitwhistle.wav
256,192,84021,1,0,0:0:0:0:
329,192,84108,1,0,0:0:0:0:
109,192,84195,1,0,0:0:0:15:soft-hitwhistle.wav
182,192,84282,1,0,0:0:0:0:
256,192,84369,1,0,0:0:0:0:
36,192,84456,1,0,0:0:0:15:soft-hitwhistle.wav
475,192,84456,1,0,0:0:0:0:
402,192,84543,1,0,0:0:0:0:
329,192,84630,1,0,0:0:0:0:
256,192,84717,1,0,0:0:0:15:soft-hitwhistle.wav
182,192,84804,1,0,0:0:0:0:
109,192,84891,1,0,0:0:0:0:
36,192,84978,1,0,0:0:0:15:soft-hitwhistle.wav
256,192,85065,1,0,0:0:0:0:
475,192,85152,1,0,0:0:0:0:
36,192,85239,1,0,0:0:0:15:soft-hitwhistle.wav
109,192,85239,1,0,0:0:0:0:
329,192,85326,1,0,0:0:0:0:
182,192,85413,1,0,0:0:0:0:
402,192,85500,1,0,0:0:0:15:soft-hitwhistle.wav
256,192,85587,1,0,0:0:0:0:
109,192,85674,1,0,0:0:0:0:
329,192,85761,1,0,0:0:0:15:soft-hitwhistle.wav
182,192,85847,1,0,0:0:0:0:
36,192,85934,1,0,0:0:0:0:
402,192,86021,1,0,0:0:0:15:soft-hitwhistle.wav
475,192,86021,1,0,0:0:0:0:
182,192,86108,1,0,0:0:0:0:
329,192,86195,1,0,0:0:0:0:
109,192,86282,1,0,0:0:0:15:soft-hitwhistle.wav
256,192,86369,1,0,0:0:0:0:
402,192,86456,1,0,0:0:0:0:
182,192,86543,1,0,0:0:0:15:soft-hitwhistle.wav
329,192,86630,1,0,0:0:0:0:
475,192,86717,1,0,0:0:0:0:
36,192,86804,1,0,0:0:0:15:soft-hitwhistle.wav
256,192,86804,1,0,0:0:0:0:
109,192,86891,1,0,0:0:0:0:
182,192,86978,1,0,0:0:0:0:
475,192,87065,1,0,0:0:0:15:soft-hitwhistle.wav
402,192,87152,1,0,0:0:0:0:
329,192,87239,1,0,0:0:0:0:
256,192,87326,1,0,0:0:0:15:soft-hitwhistle.wav
182,192,87413,1,0,0:0:0:0:
109,192,87500,1,0,0:0:0:0:
36,192,87587,1,0,0:0:0:15:soft-hitwhistle.wav
256,192,87587,1,0,0:0:0:0:
329,192,87674,1,0,0:0:0:0:
475,192,87761,1,0,0:0:0:0:
182,192,87847,1,0,0:0:0:15:soft-hitwhistle.wav
256,192,87934,1,0,0:0:0:0:
402,192,88021,1,0,0:0:0:0:
109,192,88108,1,0,0:0:0:15:soft-hitwhistle.wav
182,192,88195,1,0,0:0:0:0:
329,192,88282,1,0,0:0:0:0:
36,192,88369,1,0,0:0:0:15:soft-hitwhistle.wav
402,192,88369,1,0,0:0:0:25:CrashR.wav
475,192,88369,1,0,0:0:0:0:
256,192,88456,1,0,0:0:0:0:
182,192,88543,1,0,0:0:0:0:
109,192,88630,1,0,0:0:0:15:soft-hitwhistle.wav
329,192,88717,1,0,0:0:0:0:
256,192,88804,1,0,0:0:0:0:
182,192,88891,1,0,0:0:0:15:soft-hitwhistle.wav
402,192,88978,1,0,0:0:0:0:
329,192,89065,1,0,0:0:0:0:
36,192,89152,1,0,0:0:0:15:soft-hitwhistle.wav
256,192,89152,1,0,0:0:0:0:
402,192,89239,1,0,0:0:0:0:
475,192,89326,1,0,0:0:0:0:
182,192,89413,1,0,0:0:0:15:soft-hitwhistle.wav
329,192,89500,1,0,0:0:0:0:
402,192,89587,1,0,0:0:0:0:
109,192,89674,1,0,0:0:0:15:soft-hitwhistle.wav
256,192,89761,1,0,0:0:0:0:
329,192,89847,1,0,0:0:0:0:
36,192,89934,1,0,0:0:0:15:soft-hitwhistle.wav
182,192,89934,1,0,0:0:0:25:CrashR.wav
475,192,89934,1,0,0:0:0:0:
402,192,90021,1,0,0:0:0:0:
329,192,90108,1,0,0:0:0:0:
256,192,90195,1,0,0:0:0:15:soft-hitwhistle.wav
182,192,90282,1,0,0:0:0:0:
109,192,90369,1,0,0:0:0:0:
402,192,90456,1,0,0:0:0:15:soft-hitwhistle.wav
329,192,90543,1,0,0:0:0:0:
256,192,90630,1,0,0:0:0:0:
36,192,90717,1,0,0:0:0:45:soft-hitclap.wav
182,192,90717,1,0,0:0:0:25:CrashR.wav
475,192,90717,1,0,0:0:0:0:
329,192,90804,1,0,0:0:0:0:
109,192,90891,1,0,0:0:0:15:soft-hitwhistle.wav
402,192,90978,1,0,0:0:0:0:
256,192,91065,1,0,0:0:0:0:
36,192,91152,1,0,0:0:0:15:soft-hitwhistle.wav
182,192,91239,128,0,91500:0:0:0:15:soft-hitwhistle.wav
329,192,91239,1,0,0:0:0:0:
36,192,91500,1,0,0:0:0:15:soft-hitwhistle.wav
329,192,91500,1,0,0:0:0:45:soft-hitclap.wav
475,192,91500,1,0,0:0:0:25:CrashR.wav
256,192,91587,1,0,0:0:0:0:
109,192,91674,1,0,0:0:0:0:
402,192,91761,1,0,0:0:0:15:soft-hitwhistle.wav
329,192,91847,1,0,0:0:0:0:
182,192,91934,1,0,0:0:0:0:
475,192,92021,1,0,0:0:0:15:soft-hitwhistle.wav
402,192,92108,1,0,0:0:0:0:
256,192,92195,1,0,0:0:0:0:
36,192,92282,1,0,0:0:0:15:soft-hitwhistle.wav
475,192,92282,1,0,0:0:0:0:
182,192,92369,1,0,0:0:0:0:
329,192,92456,1,0,0:0:0:0:
109,192,92543,1,0,0:0:0:15:soft-hitwhistle.wav
256,192,92630,1,0,0:0:0:0:
402,192,92717,1,0,0:0:0:0:
182,192,92804,1,0,0:0:0:15:soft-hitwhistle.wav
329,192,92891,1,0,0:0:0:0:
475,192,92978,1,0,0:0:0:0:
36,192,93065,1,0,0:0:0:15:soft-hitwhistle.wav
182,192,93065,1,0,0:0:0:0:
329,192,93152,1,0,0:0:0:0:
402,192,93239,1,0,0:0:0:0:
109,192,93326,1,0,0:0:0:15:soft-hitwhistle.wav
256,192,93413,1,0,0:0:0:0:
329,192,93500,1,0,0:0:0:0:
36,192,93587,1,0,0:0:0:15:soft-hitwhistle.wav
182,192,93674,1,0,0:0:0:0:
256,192,93761,1,0,0:0:0:0:
36,192,93847,1,0,0:0:0:15:soft-hitwhistle.wav
475,192,93847,1,0,0:0:0:0:
329,192,93934,1,0,0:0:0:0:
182,192,94021,1,0,0:0:0:0:
402,192,94108,1,0,0:0:0:15:soft-hitwhistle.wav
256,192,94195,1,0,0:0:0:0:
109,192,94282,1,0,0:0:0:0:
329,192,94369,1,0,0:0:0:15:soft-hitwhistle.wav
182,192,94456,1,0,0:0:0:0:
36,192,94543,1,0,0:0:0:0:
256,192,94630,1,0,0:0:0:15:soft-hitwhistle.wav
475,192,94630,1,0,0:0:0:0:
329,192,94717,1,0,0:0:0:0:
402,192,94804,1,0,0:0:0:0:
182,192,94891,1,0,0:0:0:15:soft-hitwhistle.wav
256,192,94978,1,0,0:0:0:0:
329,192,95065,1,0,0:0:0:0:
109,192,95152,1,0,0:0:0:15:soft-hitwhistle.wav
182,192,95239,1,0,0:0:0:0:
256,192,95326,1,0,0:0:0:0:
36,192,95413,1,0,0:0:0:15:soft-hitwhistle.wav
475,192,95413,1,0,0:0:0:0:
329,192,95500,1,0,0:0:0:0:
109,192,95587,1,0,0:0:0:0:
402,192,95674,1,0,0:0:0:15:soft-hitwhistle.wav
182,192,95761,1,0,0:0:0:0:
475,192,95847,1,0,0:0:0:0:
256,192,95934,1,0,0:0:0:15:soft-hitwhistle.wav
36,192,96021,1,0,0:0:0:0:
329,192,96108,1,0,0:0:0:0:
109,192,96195,1,0,0:0:0:15:soft-hitwhistle.wav
182,192,96195,1,0,0:0:0:25:CrashR.wav
475,192,96195,1,0,0:0:0:0:
402,192,96282,1,0,0:0:0:0:
329,192,96369,1,0,0:0:0:15:soft-hitwhistle.wav
36,192,96456,1,0,0:0:0:15:soft-hitwhistle.wav
256,192,96456,1,0,0:0:0:0:
109,192,96543,1,0,0:0:0:0:
182,192,96630,1,0,0:0:0:0:
256,192,96717,1,0,0:0:0:15:soft-hitwhistle.wav
475,192,96717,1,0,0:0:0:0:
329,192,96804,1,0,0:0:0:0:
402,192,96891,1,0,0:0:0:15:soft-hitwhistle.wav
36,192,96978,1,0,0:0:0:45:soft-hitclap.wav
109,192,96978,1,0,0:0:0:25:CrashR.wav
475,192,96978,1,0,0:0:0:0:
182,192,97065,1,0,0:0:0:0:
256,192,97152,1,0,0:0:0:15:soft-hitwhistle.wav
36,192,97239,1,0,0:0:0:45:soft-hitclap.wav
475,192,97239,1,0,0:0:0:0:
402,192,97326,1,0,0:0:0:0:
329,192,97413,1,0,0:0:0:15:soft-hitwhistle.wav
256,192,97500,1,0,0:0:0:45:soft-hitclap.wav
475,192,97500,1,0,0:0:0:0:
182,192,97587,1,0,0:0:0:15:soft-hitwhistle.wav
109,192,97674,1,0,0:0:0:45:soft-hitclap.wav
36,192,97761,1,0,0:0:0:15:soft-hitwhistle.wav
402,192,97761,1,0,0:0:0:25:CrashR.wav
475,192,97761,1,0,0:0:0:0:
256,192,97847,1,0,0:0:0:0:
109,192,97934,1,0,0:0:0:0:
329,192,98021,1,0,0:0:0:15:soft-hitwhistle.wav
182,192,98108,1,0,0:0:0:0:
402,192,98195,1,0,0:0:0:0:
256,192,98282,1,0,0:0:0:15:soft-hitwhistle.wav
109,192,98369,1,0,0:0:0:0:
329,192,98456,1,0,0:0:0:0:
36,192,98543,1,0,0:0:0:15:soft-hitwhistle.wav
475,192,98543,1,0,0:0:0:0:
256,192,98630,1,0,0:0:0:0:
402,192,98717,1,0,0:0:0:0:
182,192,98804,1,0,0:0:0:15:soft-hitwhistle.wav
329,192,98891,1,0,0:0:0:0:
109,192,98978,1,0,0:0:0:0:
256,192,99065,1,0,0:0:0:15:soft-hitwhistle.wav
402,192,99152,1,0,0:0:0:0:
182,192,99239,1,0,0:0:0:0:
36,192,99326,1,0,0:0:0:45:soft-hitclap.wav
329,192,99326,1,0,0:0:0:25:CrashR.wav
475,192,99326,1,0,0:0:0:0:
109,192,99500,1,0,0:0:0:15:soft-hitwhistle.wav
256,192,99587,1,0,0:0:0:15:soft-hitwhistle.wav
36,192,99761,1,0,0:0:0:45:soft-hitclap.wav
402,192,99761,1,0,0:0:0:25:CrashR.wav
475,192,99761,1,0,0:0:0:0:
182,192,99847,1,0,0:0:0:15:soft-hitwhistle.wav
329,192,100021,1,0,0:0:0:15:soft-hitwhistle.wav
36,192,100108,1,0,0:0:0:45:soft-hitclap.wav
109,192,100108,1,0,0:0:0:25:CrashR.wav
475,192,100108,1,0,0:0:0:0:
256,192,100282,1,0,0:0:0:15:soft-hitwhistle.wav
402,192,100456,1,0,0:0:0:15:soft-hitwhistle.wav
36,192,100543,1,0,0:0:0:45:soft-hitclap.wav
182,192,100543,1,0,0:0:0:25:CrashR.wav
475,192,100543,1,0,0:0:0:0:
329,192,100630,1,0,0:0:0:15:soft-hitwhistle.wav
256,192,100804,1,0,0:0:0:15:soft-hitwhistle.wav
36,192,100891,1,0,0:0:0:15:soft-hitwhistle.wav
182,192,100891,1,0,0:0:0:25:CrashR.wav
475,192,100891,1,0,0:0:0:0:
402,192,100978,1,0,0:0:0:0:
329,192,101065,1,0,0:0:0:0:
36,192,101152,1,0,0:0:0:15:soft-hitwhistle.wav
109,192,101239,1,0,0:0:0:0:
182,192,101326,1,0,0:0:0:0:
329,192,101413,1,0,0:0:0:15:soft-hitwhistle.wav
402,192,101500,1,0,0:0:0:0:
475,192,101587,1,0,0:0:0:0:
36,192,101674,1,0,0:0:0:15:soft-hitwhistle.wav
256,192,101674,1,0,0:0:0:0:
329,192,101761,1,0,0:0:0:0:
402,192,101847,1,0,0:0:0:0:
182,192,101934,1,0,0:0:0:15:soft-hitwhistle.wav
256,192,102021,1,0,0:0:0:0:
329,192,102108,1,0,0:0:0:0:
109,192,102195,1,0,0:0:0:15:soft-hitwhistle.wav
182,192,102282,1,0,0:0:0:0:
256,192,102369,1,0,0:0:0:0:
36,192,102456,1,0,0:0:0:15:soft-hitwhistle.wav
329,192,102456,1,0,0:0:0:45:soft-hitclap.wav
475,192,102456,1,0,0:0:0:25:CrashR.wav
182,192,102543,1,0,0:0:0:0:
109,192,102630,1,0,0:0:0:15:soft-hitwhistle.wav
36,192,102717,1,0,0:0:0:15:soft-hitwhistle.wav
402,192,102717,1,0,0:0:0:0:
256,192,102804,1,0,0:0:0:0:
182,192,102891,1,0,0:0:0:15:soft-hitwhistle.wav
109,192,102978,1,0,0:0:0:15:soft-hitwhistle.wav
475,192,102978,1,0,0:0:0:0:
329,192,103065,1,0,0:0:0:0:
256,192,103152,1,0,0:0:0:15:soft-hitwhistle.wav
36,192,103239,1,0,0:0:0:15:soft-hitwhistle.wav
182,192,103239,1,0,0:0:0:45:soft-hitclap.wav
475,192,103239,1,0,0:0:0:0:
329,192,103326,1,0,0:0:0:0:
402,192,103413,1,0,0:0:0:15:soft-hitwhistle.wav
36,192,103500,1,0,0:0:0:15:soft-hitwhistle.wav
109,192,103500,1,0,0:0:0:0:
256,192,103587,1,0,0:0:0:0:
329,192,103674,1,0,0:0:0:15:soft-hitwhistle.wav
36,192,103761,1,0,0:0:0:15:soft-hitwhistle.wav
475,192,103761,1,0,0:0:0:0:
182,192,103847,1,0,0:0:0:15:soft-hitwhistle.wav
402,192,103847,1,0,0:0:0:0:
109,192,103934,1,0,0:0:0:15:soft-hitwhistle.wav
329,192,103934,1,0,0:0:0:0:
36,192,104021,128,0,105500:0:0:0:15:soft-hitwhistle.wav
256,192,104021,1,0,0:0:0:45:soft-hitclap.wav
475,192,104021,1,0,0:0:0:25:CrashR.wav
475,192,104282,1,0,0:0:0:0:
256,192,104456,128,0,104717:0:0:0:0:
109,192,104717,1,0,0:0:0:0:
329,192,104804,128,0,104978:0:0:0:0:
182,192,104978,1,0,0:0:0:0:
402,192,105065,128,0,105239:0:0:0:0:
256,192,105239,1,0,0:0:0:0:
475,192,105326,128,0,105500:0:0:0:0:
329,192,105500,1,0,0:0:0:0:
182,192,105587,128,0,105761:0:0:0:0:
402,192,105761,1,0,0:0:0:0:
109,192,105847,128,0,106021:0:0:0:0:
329,192,106021,1,0,0:0:0:0:
36,192,106108,128,0,106282:0:0:0:0:
256,192,106282,1,0,0:0:0:0:
475,192,106369,128,0,106543:0:0:0:0:
182,192,106543,1,0,0:0:0:0:
402,192,106630,128,0,106804:0:0:0:0:
36,192,106804,1,0,0:0:0:0:
182,192,106891,1,0,0:0:0:0:
256,192,106978,1,0,0:0:0:0:
329,192,107065,1,0,0:0:0:0:
475,192,107152,1,0,0:0:0:0:
256,192,107239,1,0,0:0:0:0:
402,192,107326,1,0,0:0:0:0:
182,192,107413,128,0,107587:0:0:0:0:
329,192,107587,1,0,0:0:0:0:
109,192,107674,128,0,107847:0:0:0:0:
256,192,107847,1,0,0:0:0:0:
36,192,107934,1,0,0:0:0:0:
329,192,108021,1,0,0:0:0:0:
109,192,108108,1,0,0:0:0:0:
402,192,108195,1,0,0:0:0:0:
182,192,108282,1,0,0:0:0:0:
475,192,108369,1,0,0:0:0:0:
256,192,108456,1,0,0:0:0:0:
36,192,108543,1,0,0:0:0:0:
329,192,108630,1,0,0:0:0:0:
109,192,108717,1,0,0:0:0:0:
475,192,108804,1,0,0:0:0:0:
402,192,108891,1,0,0:0:0:0:
329,192,108978,1,0,0:0:0:0:
256,192,109065,1,0,0:0:0:0:
182,192,109152,1,0,0:0:0:0:
36,192,109239,1,0,0:0:0:0:
109,192,109326,1,0,0:0:0:0:
182,192,109413,1,0,0:0:0:0:
256,192,109500,1,0,0:0:0:0:
475,192,109500,128,0,109761:0:0:0:0:
182,192,109761,1,0,0:0:0:0:
402,192,109761,128,0,110021:0:0:0:0:
109,192,110021,1,0,0:0:0:0:
329,192,110021,128,0,110282:0:0:0:0:
36,192,110282,1,0,0:0:0:25:CrashR.wav
475,192,110282,1,0,0:0:0:0:
256,192,110282,128,0,110543:0:0:0:0:
402,192,110543,1,0,0:0:0:0:
182,192,110543,128,0,110804:0:0:0:0:
329,192,110804,1,0,0:0:0:0:
109,192,110804,128,0,111065:0:0:0:0:
256,192,111065,1,0,0:0:0:0:
36,192,111065,128,0,111326:0:0:0:0:
475,192,111326,1,0,0:0:0:0:
182,192,111326,128,0,111587:0:0:0:0:
36,192,111587,1,0,0:0:0:0:
256,192,111587,128,0,111847:0:0:0:0:
329,192,111847,128,0,112021:0:0:0:0:
475,192,111847,1,0,0:0:0:0:
36,192,112021,1,0,0:0:0:0:
182,192,112108,1,0,0:0:0:0:
329,192,112282,128,0,112456:0:0:0:0:
475,192,112282,1,0,0:0:0:0:
36,192,112369,1,0,0:0:0:0:
182,192,112543,1,0,0:0:0:0:
402,192,112630,128,0,113413:0:0:0:25:LR_Kick Drum Fast.wav
109,192,112891,128,0,113413:0:0:0:25:LR_Kick Drum Fast.wav
256,192,113152,128,0,113413:0:0:0:15:soft-hitwhistle.wav
36,192,113413,128,0,114369:0:0:0:45:soft-hitclap.wav
475,192,113413,1,0,0:0:0:25:CrashR.wav
329,192,113500,1,0,0:0:0:0:
182,192,113587,1,0,0:0:0:15:soft-hitwhistle.wav
402,192,113674,1,0,0:0:0:15:soft-hitwhistle.wav
256,192,113761,1,0,0:0:0:0:
109,192,113847,1,0,0:0:0:15:soft-hitwhistle.wav
329,192,113934,1,0,0:0:0:15:soft-hitwhistle.wav
402,192,114021,1,0,0:0:0:0:
475,192,114108,1,0,0:0:0:15:soft-hitwhistle.wav
256,192,114195,1,0,0:0:0:45:soft-hitclap.wav
329,192,114282,1,0,0:0:0:0:
402,192,114369,1,0,0:0:0:15:soft-hitwhistle.wav
182,192,114456,128,0,114630:0:0:0:15:soft-hitwhistle.wav
475,192,114543,1,0,0:0:0:0:
36,192,114630,1,0,0:0:0:15:soft-hitwhistle.wav
329,192,114717,128,0,114891:0:0:0:15:soft-hitwhistle.wav
109,192,114804,1,0,0:0:0:0:
256,192,114891,1,0,0:0:0:15:soft-hitwhistle.wav
475,192,114978,128,0,115674:0:0:0:15:soft-hitwhistle.wav
182,192,115065,1,0,0:0:0:0:
329,192,115152,1,0,0:0:0:15:soft-hitwhistle.wav
109,192,115239,1,0,0:0:0:15:soft-hitwhistle.wav
256,192,115326,1,0,0:0:0:0:
402,192,115413,1,0,0:0:0:15:soft-hitwhistle.wav
182,192,115500,1,0,0:0:0:15:soft-hitwhistle.wav
109,192,115587,1,0,0:0:0:0:
36,192,115674,1,0,0:0:0:15:soft-hitwhistle.wav
329,192,115761,128,0,115934:0:0:0:45:soft-hitclap.wav
109,192,115847,1,0,0:0:0:0:
182,192,115934,1,0,0:0:0:15:soft-hitwhistle.wav
256,192,116021,128,0,116195:0:0:0:15:soft-hitwhistle.wav
36,192,116108,1,0,0:0:0:0:
475,192,116195,1,0,0:0:0:15:soft-hitwhistle.wav
182,192,116282,128,0,116456:0:0:0:15:soft-hitwhistle.wav
329,192,116369,1,0,0:0:0:0:
402,192,116456,1,0,0:0:0:15:soft-hitwhistle.wav
36,192,116543,128,0,118108:0:0:0:15:soft-hitwhistle.wav
256,192,116630,1,0,0:0:0:0:
329,192,116717,1,0,0:0:0:15:soft-hitwhistle.wav
402,192,116804,1,0,0:0:0:15:soft-hitwhistle.wav
182,192,116891,1,0,0:0:0:0:
256,192,116978,1,0,0:0:0:15:soft-hitwhistle.wav
329,192,117065,1,0,0:0:0:15:soft-hitwhistle.wav
109,192,117152,1,0,0:0:0:0:
182,192,117239,1,0,0:0:0:15:soft-hitwhistle.wav
256,192,117326,1,0,0:0:0:45:soft-hitclap.wav
475,192,117413,1,0,0:0:0:0:
329,192,117500,1,0,0:0:0:15:soft-hitwhistle.wav
182,192,117587,1,0,0:0:0:15:soft-hitwhistle.wav
402,192,117674,1,0,0:0:0:0:
256,192,117761,1,0,0:0:0:15:soft-hitwhistle.wav
109,192,117847,1,0,0:0:0:15:soft-hitwhistle.wav
329,192,117934,1,0,0:0:0:0:
182,192,118021,1,0,0:0:0:15:soft-hitwhistle.wav
475,192,118108,128,0,118891:0:0:0:15:soft-hitwhistle.wav
256,192,118195,1,0,0:0:0:0:
329,192,118282,1,0,0:0:0:15:soft-hitwhistle.wav
402,192,118369,1,0,0:0:0:15:soft-hitwhistle.wav
182,192,118456,1,0,0:0:0:0:
256,192,118543,1,0,0:0:0:15:soft-hitwhistle.wav
329,192,118630,1,0,0:0:0:15:soft-hitwhistle.wav
109,192,118717,1,0,0:0:0:0:
182,192,118804,1,0,0:0:0:15:soft-hitwhistle.wav
256,192,118891,128,0,119674:0:0:0:15:soft-hitwhistle.wav
36,192,118978,1,0,0:0:0:0:
329,192,119065,1,0,0:0:0:15:soft-hitwhistle.wav
109,192,119152,1,0,0:0:0:15:soft-hitwhistle.wav
402,192,119239,1,0,0:0:0:0:
182,192,119326,1,0,0:0:0:15:soft-hitwhistle.wav
475,192,119413,1,0,0:0:0:15:soft-hitwhistle.wav
109,192,119500,1,0,0:0:0:0:
402,192,119587,1,0,0:0:0:15:soft-hitwhistle.wav
36,192,119674,1,0,0:0:0:45:soft-hitclap.wav
182,192,119674,1,0,0:0:0:25:LR_Kick Drum Fast.wav
329,192,119761,1,0,0:0:0:25:LR_Kick Drum Fast.wav
475,192,119847,1,0,0:0:0:25:LR_Kick Drum Fast.wav
109,192,119934,1,0,0:0:0:25:LR_Kick Drum Fast.wav
256,192,120021,1,0,0:0:0:25:LR_Kick Drum Fast.wav
402,192,120108,1,0,0:0:0:25:LR_Kick Drum Fast.wav
36,192,120195,1,0,0:0:0:25:LR_Kick Drum Fast.wav
182,192,120195,1,0,0:0:0:25:CrashR.wav
329,192,120369,1,0,0:0:0:25:LR_Kick Drum Fast.wav
475,192,120369,1,0,0:0:0:25:CrashR.wav
36,192,120717,1,0,0:0:0:45:soft-hitclap.wav
256,192,120717,1,0,0:0:0:25:CrashR.wav
475,192,120717,1,0,0:0:0:0:
329,192,121065,1,0,0:0:0:0:
402,192,121152,1,0,0:0:0:0:
475,192,121239,1,0,0:0:0:0:
256,192,121326,1,0,0:0:0:0:
329,192,121413,1,0,0:0:0:0:
402,192,121500,1,0,0:0:0:0:
182,192,121587,1,0,0:0:0:0:
256,192,121674,1,0,0:0:0:0:
329,192,121761,1,0,0:0:0:0:
109,192,121847,1,0,0:0:0:0:
182,192,121934,1,0,0:0:0:0:
256,192,122021,1,0,0:0:0:0:
36,192,122108,1,0,0:0:0:0:
109,192,122195,1,0,0:0:0:0:
182,192,122282,1,0,0:0:0:0:
475,192,122369,1,0,0:0:0:0:
402,192,122456,1,0,0:0:0:0:
329,192,122543,1,0,0:0:0:0:
256,192,122630,1,0,0:0:0:0:
182,192,122717,1,0,0:0:0:0:
109,192,122804,1,0,0:0:0:0:
36,192,122891,1,0,0:0:0:0:
256,192,122978,1,0,0:0:0:0:
182,192,123065,1,0,0:0:0:0:
109,192,123152,1,0,0:0:0:0:
329,192,123239,1,0,0:0:0:0:
256,192,123326,1,0,0:0:0:0:
182,192,123413,1,0,0:0:0:0:
402,192,123500,1,0,0:0:0:0:
329,192,123587,1,0,0:0:0:0:
256,192,123674,1,0,0:0:0:0:
475,192,123761,1,0,0:0:0:0:
402,192,123847,1,0,0:0:0:0:
329,192,123934,1,0,0:0:0:0:
256,192,124021,1,0,0:0:0:0:
182,192,124108,1,0,0:0:0:0:
109,192,124195,1,0,0:0:0:0:
36,192,124282,1,0,0:0:0:0:
256,192,124369,1,0,0:0:0:0:
329,192,124456,1,0,0:0:0:0:
475,192,124543,1,0,0:0:0:0:
182,192,124630,1,0,0:0:0:0:
256,192,124717,1,0,0:0:0:0:
402,192,124804,1,0,0:0:0:0:
109,192,124891,1,0,0:0:0:0:
182,192,124978,1,0,0:0:0:0:
329,192,125065,1,0,0:0:0:0:
36,192,125152,1,0,0:0:0:0:
109,192,125239,1,0,0:0:0:0:
256,192,125326,1,0,0:0:0:0:
402,192,125413,1,0,0:0:0:60:soft-hitclap.wav
475,192,125413,1,0,0:0:0:0:
36,192,125500,1,0,0:0:0:15:soft-hitwhistle.wav
182,192,125500,1,0,0:0:0:0:
329,192,125587,1,0,0:0:0:25:LR_Kick Drum Fast.wav
475,192,125587,1,0,0:0:0:0:
109,192,125934,128,0,126195:0:0:0:15:soft-hitwhistle.wav
256,192,125934,128,0,127500:0:0:0:60:soft-hitclap.wav
402,192,125934,128,0,126195:0:0:0:25:CrashR.wav
