osu file format v14

[General]
AudioFilename: audio.mp3
AudioLeadIn: 0
PreviewTime: 90717
Countdown: 0
SampleSet: Soft
StackLeniency: 0.7
Mode: 3
LetterboxInBreaks: 0
SpecialStyle: 0
WidescreenStoryboard: 1

[Editor]
DistanceSpacing: 0.8
BeatDivisor: 3
GridSize: 4
TimelineZoom: 1.2

[Metadata]
Title:Rainbow Magic!!
TitleUnicode:Rainbow Magic!!
Artist:ARForest
ArtistUnicode:ARForest
Creator:_Stan
Version:Easy
Source:
Tags:FAMoss featured artist fa happy hardcore waltz mapper's guild mg instrumental electronic 第二回チュウニズム公募楽曲
BeatmapID:3190335
BeatmapSetID:1508963

[Difficulty]
HPDrainRate:7
CircleSize:7
OverallDifficulty:7
ApproachRate:5
SliderMultiplier:1.4
SliderTickRate:1

[Events]
//Background and Video events
0,0,"bg.jpg",0,0
//Break Periods
//Storyboard Layer 0 (Background)
//Storyboard Layer 1 (Fail)
//Storyboard Layer 2 (Pass)
//Storyboard Layer 3 (Foreground)
//Storyboard Layer 4 (Overlay)
//Storyboard Sound Samples

[TimingPoints]
3848,260.869565217391,3,2,1,40,1,0
78978,-100,3,2,1,40,0,1
90717,-100,3,2,1,40,0,0
91500,-100,3,2,1,40,0,1
104021,-100,3,2,1,40,0,0

[HitObjects]
329,192,3587,5,0,0:0:0:0:
182,192,3848,128,0,4369:0:0:0:15:soft-hitwhistle.wav
36,192,4369,1,0,0:0:0:45:soft-hitclap.wav
475,192,4369,1,0,0:0:0:0:
329,192,4630,128,0,4891:0:0:0:15:soft-hitwhistle.wav
256,192,4891,128,0,5152:0:0:0:0:
36,192,5152,1,0,0:0:0:45:soft-hitclap.wav
182,192,5152,128,0,5413:0:0:0:0:
402,192,5413,128,0,5674:0:0:0:15:soft-hitwhistle.wav
329,192,5674,128,0,5934:0:0:0:0:
36,192,5934,1,0,0:0:0:45:soft-hitclap.wav
256,192,5934,128,0,6195:0:0:0:0:
475,192,6195,128,0,6456:0:0:0:15:soft-hitwhistle.wav
402,192,6456,128,0,6717:0:0:0:0:
36,192,6717,1,0,0:0:0:45:soft-hitclap.wav
329,192,6717,128,0,6978:0:0:0:0:
109,192,6978,128,0,8543:0:0:0:15:soft-hitwhistle.wav
329,192,7500,1,0,0:0:0:45:soft-hitclap.wav
475,192,7500,1,0,0:0:0:0:
329,192,8282,1,0,0:0:0:45:soft-hitclap.wav
475,192,8282,1,0,0:0:0:0:
109,192,9065,1,0,0:0:0:45:soft-hitclap.wav
402,192,9065,1,0,0:0:0:0:
109,192,9847,1,0,0:0:0:45:soft-hitclap.wav
402,192,9847,1,0,0:0:0:0:
329,192,10108,128,0,10630:0:0:0:15:soft-hitwhistle.wav
36,192,10630,1,0,0:0:0:45:soft-hitclap.wav
475,192,10630,1,0,0:0:0:0:
182,192,10891,128,0,11152:0:0:0:15:soft-hitwhistle.wav
256,192,11152,128,0,11413:0:0:0:0:
329,192,11413,128,0,11674:0:0:0:45:soft-hitclap.wav
475,192,11413,1,0,0:0:0:0:
109,192,11674,128,0,11934:0:0:0:15:soft-hitwhistle.wav
182,192,11934,128,0,12195:0:0:0:0:
256,192,12195,128,0,12456:0:0:0:45:soft-hitclap.wav
475,192,12195,1,0,0:0:0:0:
36,192,12456,128,0,12717:0:0:0:15:soft-hitwhistle.wav
109,192,12717,128,0,12978:0:0:0:0:
182,192,12978,128,0,13239:0:0:0:45:soft-hitclap.wav
475,192,12978,1,0,0:0:0:0:
402,192,13239,128,0,14804:0:0:0:15:soft-hitwhistle.wav
36,192,13674,1,0,0:0:0:45:soft-hitclap.wav
182,192,13674,1,0,0:0:0:0:
36,192,14021,1,0,0:0:0:45:soft-hitclap.wav
182,192,14021,1,0,0:0:0:0:
182,192,14804,1,0,0:0:0:15:soft-hitwhistle.wav
475,192,14804,1,0,0:0:0:25:CrashR.wav
109,192,15587,1,0,0:0:0:15:soft-hitwhistle.wav
402,192,15587,1,0,0:0:0:25:CrashR.wav
36,192,16369,1,0,0:0:0:15:soft-hitwhistle.wav
329,192,16369,128,0,16630:0:0:0:25:CrashR.wav
475,192,16804,1,0,0:0:0:0:
329,192,16891,1,0,0:0:0:45:soft-hitclap.wav
182,192,17152,128,0,17413:0:0:0:15:soft-hitwhistle.wav
329,192,17587,1,0,0:0:0:15:soft-hitwhistle.wav
182,192,17674,1,0,0:0:0:45:soft-hitclap.wav
36,192,17934,128,0,18195:0:0:0:15:soft-hitwhistle.wav
182,192,18369,1,0,0:0:0:15:soft-hitwhistle.wav
36,192,18456,1,0,0:0:0:45:soft-hitclap.wav
256,192,18717,128,0,18978:0:0:0:15:soft-hitwhistle.wav
109,192,19152,1,0,0:0:0:15:soft-hitwhistle.wav
256,192,19239,1,0,0:0:0:45:soft-hitclap.wav
402,192,19500,128,0,19761:0:0:0:15:soft-hitwhistle.wav
256,192,19934,1,0,0:0:0:15:soft-hitwhistle.wav
475,192,20021,1,0,0:0:0:45:soft-hitclap.wav
329,192,20282,128,0,20543:0:0:0:15:soft-hitwhistle.wav
182,192,20717,1,0,0:0:0:15:soft-hitwhistle.wav
402,192,20804,1,0,0:0:0:15:soft-hitwhistle.wav
256,192,21065,128,0,21326:0:0:0:15:soft-hitwhistle.wav
109,192,21500,1,0,0:0:0:15:soft-hitwhistle.wav
329,192,21587,1,0,0:0:0:45:soft-hitclap.wav
182,192,21847,128,0,22108:0:0:0:45:soft-hitclap.wav
256,192,22108,128,0,22369:0:0:0:15:soft-hitwhistle.wav
329,192,22369,128,0,22630:0:0:0:15:soft-hitwhistle.wav
36,192,22630,1,0,0:0:0:15:soft-hitwhistle.wav
475,192,22630,1,0,0:0:0:25:CrashR.wav
109,192,23152,1,0,0:0:0:0:
182,192,23413,1,0,0:0:0:0:
256,192,23674,1,0,0:0:0:0:
329,192,23934,1,0,0:0:0:0:
402,192,24195,1,0,0:0:0:0:
256,192,24456,1,0,0:0:0:0:
109,192,24717,1,0,0:0:0:0:
329,192,24978,128,0,25239:0:0:0:0:
182,192,25239,128,0,25500:0:0:0:0:
36,192,25500,128,0,25761:0:0:0:0:
475,192,25761,128,0,26543:0:0:0:0:
182,192,26021,1,0,0:0:0:0:
182,192,26282,1,0,0:0:0:0:
36,192,26543,128,0,27326:0:0:0:0:
329,192,26804,1,0,0:0:0:0:
329,192,27065,1,0,0:0:0:0:
475,192,27326,1,0,0:0:0:25:LR_Kick Drum Fast.wav
256,192,27587,1,0,0:0:0:25:LR_Kick Drum Fast.wav
36,192,27847,1,0,0:0:0:25:LR_Kick Drum Fast.wav
329,192,28108,128,0,28891:0:0:0:25:LR_Kick Drum Fast.wav
36,192,28891,1,0,0:0:0:15:soft-hitwhistle.wav
475,192,28891,1,0,0:0:0:25:CrashR.wav
36,192,29152,1,0,0:0:0:15:soft-hitwhistle.wav
182,192,29674,1,0,0:0:0:15:soft-hitwhistle.wav
329,192,29934,1,0,0:0:0:15:soft-hitwhistle.wav
182,192,30195,1,0,0:0:0:15:soft-hitwhistle.wav
475,192,30456,1,0,0:0:0:15:soft-hitwhistle.wav
475,192,30717,1,0,0:0:0:15:soft-hitwhistle.wav
109,192,31239,1,0,0:0:0:15:soft-hitwhistle.wav
402,192,31500,1,0,0:0:0:15:soft-hitwhistle.wav
109,192,31761,1,0,0:0:0:15:soft-hitwhistle.wav
256,192,32021,1,0,0:0:0:15:soft-hitwhistle.wav
256,192,32282,1,0,0:0:0:15:soft-hitwhistle.wav
36,192,32804,1,0,0:0:0:15:soft-hitwhistle.wav
182,192,33065,1,0,0:0:0:15:soft-hitwhistle.wav
329,192,33326,1,0,0:0:0:15:soft-hitwhistle.wav
109,192,33587,1,0,0:0:0:15:soft-hitwhistle.wav
109,192,33847,1,0,0:0:0:15:soft-hitwhistle.wav
256,192,34108,1,0,0:0:0:15:soft-hitwhistle.wav
475,192,34369,1,0,0:0:0:15:soft-hitwhistle.wav
329,192,34630,1,0,0:0:0:15:soft-hitwhistle.wav
182,192,34891,1,0,0:0:0:15:soft-hitwhistle.wav
36,192,35152,128,0,35413:0:0:0:15:soft-hitwhistle.wav
475,192,35152,1,0,0:0:0:25:CrashR.wav
109,192,35413,128,0,35674:0:0:0:0:
182,192,35674,128,0,35934:0:0:0:0:
475,192,35934,128,0,36195:0:0:0:0:
402,192,36195,128,0,36456:0:0:0:0:
329,192,36456,128,0,36717:0:0:0:0:
182,192,36717,128,0,36978:0:0:0:0:
109,192,36978,128,0,37239:0:0:0:0:
36,192,37239,128,0,37500:0:0:0:0:
329,192,37500,128,0,37761:0:0:0:0:
402,192,37761,128,0,38021:0:0:0:0:
475,192,38021,128,0,38282:0:0:0:0:
36,192,38282,1,0,0:0:0:25:CrashR.wav
256,192,38282,128,0,40630:0:0:0:0:
109,192,41413,1,0,0:0:0:25:CrashR.wav
402,192,41413,1,0,0:0:0:0:
36,192,42195,1,0,0:0:0:0:
329,192,42456,1,0,0:0:0:0:
182,192,42717,1,0,0:0:0:0:
36,192,42978,1,0,0:0:0:0:
475,192,43761,1,0,0:0:0:0:
182,192,44021,1,0,0:0:0:0:
329,192,44282,1,0,0:0:0:0:
475,192,44543,1,0,0:0:0:0:
256,192,44804,1,0,0:0:0:0:
36,192,45065,1,0,0:0:0:0:
329,192,45326,1,0,0:0:0:0:
109,192,45587,1,0,0:0:0:0:
402,192,45847,1,0,0:0:0:0:
182,192,46108,1,0,0:0:0:0:
475,192,46369,1,0,0:0:0:0:
256,192,46630,1,0,0:0:0:0:
36,192,46891,128,0,47152:0:0:0:0:
182,192,47152,128,0,47413:0:0:0:0:
329,192,47413,128,0,47674:0:0:0:0:
36,192,47674,1,0,0:0:0:25:LR_Kick Drum Fast.wav
475,192,47674,1,0,0:0:0:25:CrashR.wav
109,192,48195,1,0,0:0:0:25:LR_Kick Drum Fast.wav
182,192,48195,1,0,0:0:0:0:
329,192,48456,1,0,0:0:0:25:LR_Kick Drum Fast.wav
402,192,48456,1,0,0:0:0:0:
36,192,48978,1,0,0:0:0:25:LR_Kick Drum Fast.wav
182,192,48978,1,0,0:0:0:0:
329,192,49239,1,0,0:0:0:25:LR_Kick Drum Fast.wav
475,192,49239,1,0,0:0:0:0:
36,192,49761,1,0,0:0:0:25:LR_Kick Drum Fast.wav
109,192,49761,1,0,0:0:0:0:
402,192,50021,1,0,0:0:0:25:LR_Kick Drum Fast.wav
475,192,50021,1,0,0:0:0:0:
182,192,50543,1,0,0:0:0:25:LR_Kick Drum Fast.wav
329,192,50543,1,0,0:0:0:0:
36,192,50804,128,0,51587:0:0:0:15:soft-hitwhistle.wav
475,192,50804,1,0,0:0:0:25:CrashR.wav
182,192,51587,128,0,52369:0:0:0:15:soft-hitwhistle.wav
475,192,51587,1,0,0:0:0:25:CrashR.wav
329,192,52369,128,0,53152:0:0:0:15:soft-hitwhistle.wav
475,192,52369,1,0,0:0:0:25:CrashR.wav
36,192,53152,1,0,0:0:0:15:soft-hitwhistle.wav
182,192,53413,1,0,0:0:0:45:soft-hitclap.wav
329,192,53674,1,0,0:0:0:15:soft-hitwhistle.wav
36,192,53934,128,0,54195:0:0:0:15:soft-hitwhistle.wav
475,192,53934,1,0,0:0:0:25:CrashR.wav
109,192,54195,128,0,54456:0:0:0:0:
182,192,54456,128,0,54717:0:0:0:45:soft-hitclap.wav
329,192,54456,1,0,0:0:0:0:
475,192,54717,128,0,54978:0:0:0:15:soft-hitwhistle.wav
402,192,54978,128,0,55239:0:0:0:0:
182,192,55239,1,0,0:0:0:45:soft-hitclap.wav
329,192,55239,128,0,55500:0:0:0:0:
36,192,55500,128,0,55761:0:0:0:15:soft-hitwhistle.wav
182,192,55761,128,0,56021:0:0:0:0:
329,192,56021,128,0,56282:0:0:0:45:soft-hitclap.wav
475,192,56021,1,0,0:0:0:0:
109,192,56282,128,0,56543:0:0:0:15:soft-hitwhistle.wav
256,192,56543,128,0,56804:0:0:0:0:
36,192,56804,1,0,0:0:0:45:soft-hitclap.wav
402,192,56804,128,0,57065:0:0:0:0:
475,192,57065,128,0,58630:0:0:0:15:soft-hitwhistle.wav
36,192,57587,1,0,0:0:0:45:soft-hitclap.wav
182,192,57587,1,0,0:0:0:0:
36,192,58369,1,0,0:0:0:45:soft-hitclap.wav
182,192,58369,1,0,0:0:0:0:
329,192,58630,128,0,58891:0:0:0:15:soft-hitwhistle.wav
402,192,58891,128,0,59152:0:0:0:0:
36,192,59152,1,0,0:0:0:45:soft-hitclap.wav
475,192,59152,128,0,59413:0:0:0:0:
182,192,59413,128,0,59674:0:0:0:15:soft-hitwhistle.wav
109,192,59674,128,0,59934:0:0:0:15:soft-hitwhistle.wav
36,192,59934,128,0,60195:0:0:0:45:soft-hitclap.wav
475,192,59934,1,0,0:0:0:0:
182,192,60195,1,0,0:0:0:15:soft-hitwhistle.wav
329,192,60195,1,0,0:0:0:25:CrashR.wav
182,192,60717,128,0,60978:0:0:0:45:soft-hitclap.wav
475,192,60717,1,0,0:0:0:0:
329,192,60978,128,0,61239:0:0:0:15:soft-hitwhistle.wav
109,192,61239,128,0,61500:0:0:0:0:
256,192,61500,128,0,61761:0:0:0:45:soft-hitclap.wav
475,192,61500,1,0,0:0:0:0:
36,192,61761,128,0,62021:0:0:0:15:soft-hitwhistle.wav
182,192,62021,128,0,62282:0:0:0:0:
329,192,62282,1,0,0:0:0:45:soft-hitclap.wav
475,192,62282,1,0,0:0:0:0:
36,192,62543,128,0,62804:0:0:0:15:soft-hitwhistle.wav
182,192,62804,128,0,63065:0:0:0:45:soft-hitclap.wav
329,192,63065,128,0,63326:0:0:0:15:soft-hitwhistle.wav
475,192,63065,1,0,0:0:0:0:
109,192,63326,128,0,64108:0:0:0:15:soft-hitwhistle.wav
402,192,63847,1,0,0:0:0:45:soft-hitclap.wav
475,192,63847,1,0,0:0:0:0:
256,192,64108,128,0,64891:0:0:0:15:soft-hitwhistle.wav
36,192,64630,1,0,0:0:0:45:soft-hitclap.wav
475,192,64630,1,0,0:0:0:0:
402,192,64891,128,0,65674:0:0:0:15:soft-hitwhistle.wav
36,192,65413,1,0,0:0:0:45:soft-hitclap.wav
109,192,65413,1,0,0:0:0:0:
182,192,65674,1,0,0:0:0:25:LR_Kick Drum Fast.wav
256,192,65934,1,0,0:0:0:25:LR_Kick Drum Fast.wav
329,192,66195,1,0,0:0:0:45:soft-hitclap.wav
36,192,66456,1,0,0:0:0:15:soft-hitwhistle.wav
475,192,66456,1,0,0:0:0:25:LR_Kick Drum Fast.wav
36,192,67239,1,0,0:0:0:15:soft-hitwhistle.wav
256,192,67239,1,0,0:0:0:0:
109,192,67500,1,0,0:0:0:15:soft-hitwhistle.wav
329,192,67500,1,0,0:0:0:0:
182,192,67761,1,0,0:0:0:45:soft-hitclap.wav
402,192,67761,1,0,0:0:0:0:
256,192,68021,1,0,0:0:0:15:soft-hitwhistle.wav
475,192,68021,1,0,0:0:0:0:
109,192,68543,1,0,0:0:0:45:soft-hitclap.wav
402,192,68543,1,0,0:0:0:0:
256,192,68804,1,0,0:0:0:15:soft-hitwhistle.wav
475,192,68804,1,0,0:0:0:0:
182,192,69065,1,0,0:0:0:15:soft-hitwhistle.wav
402,192,69065,1,0,0:0:0:0:
109,192,69326,1,0,0:0:0:45:soft-hitclap.wav
329,192,69326,1,0,0:0:0:0:
36,192,69587,128,0,70369:0:0:0:15:soft-hitwhistle.wav
256,192,69587,1,0,0:0:0:0:
329,192,70108,1,0,0:0:0:45:soft-hitclap.wav
475,192,70108,1,0,0:0:0:0:
109,192,70369,128,0,71152:0:0:0:15:soft-hitwhistle.wav
329,192,70891,1,0,0:0:0:45:soft-hitclap.wav
475,192,70891,1,0,0:0:0:0:
182,192,71152,128,0,71934:0:0:0:15:soft-hitwhistle.wav
329,192,71674,1,0,0:0:0:45:soft-hitclap.wav
475,192,71674,1,0,0:0:0:0:
36,192,71934,1,0,0:0:0:15:soft-hitwhistle.wav
256,192,71934,1,0,0:0:0:45:soft-hitclap.wav
109,192,72195,1,0,0:0:0:15:soft-hitwhistle.wav
329,192,72195,1,0,0:0:0:45:soft-hitclap.wav
182,192,72456,1,0,0:0:0:15:soft-hitwhistle.wav
402,192,72456,1,0,0:0:0:45:soft-hitclap.wav
256,192,72717,1,0,0:0:0:15:soft-hitwhistle.wav
475,192,72717,1,0,0:0:0:45:soft-hitclap.wav
36,192,73500,1,0,0:0:0:0:
182,192,73761,1,0,0:0:0:0:
329,192,74021,1,0,0:0:0:0:
475,192,74282,1,0,0:0:0:0:
402,192,74543,1,0,0:0:0:0:
329,192,74804,1,0,0:0:0:0:
256,192,75065,128,0,75326:0:0:0:0:
182,192,75326,128,0,75587:0:0:0:0:
109,192,75587,128,0,75847:0:0:0:0:
36,192,75847,128,0,76630:0:0:0:15:soft-hitwhistle.wav
475,192,75847,1,0,0:0:0:25:CrashR.wav
182,192,76630,128,0,77152:0:0:0:15:soft-hitwhistle.wav
402,192,76630,1,0,0:0:0:0:
329,192,77152,1,0,0:0:0:15:soft-hitwhistle.wav
36,192,77413,1,0,0:0:0:15:soft-hitwhistle.wav
475,192,77413,128,0,78195:0:0:0:0:
182,192,78195,1,0,0:0:0:45:soft-hitclap.wav
329,192,78195,128,0,78978:0:0:0:0:
36,192,78978,1,0,0:0:0:15:soft-hitwhistle.wav
475,192,78978,1,0,0:0:0:25:CrashR.wav
256,192,79239,1,0,0:0:0:15:soft-hitwhistle.wav
402,192,79500,1,0,0:0:0:15:soft-hitwhistle.wav
182,192,79761,1,0,0:0:0:15:soft-hitwhistle.wav
329,192,80021,1,0,0:0:0:15:soft-hitwhistle.wav
109,192,80282,1,0,0:0:0:15:soft-hitwhistle.wav
256,192,80543,1,0,0:0:0:15:soft-hitwhistle.wav
475,192,80543,1,0,0:0:0:0:
36,192,80804,1,0,0:0:0:15:soft-hitwhistle.wav
329,192,81065,1,0,0:0:0:15:soft-hitwhistle.wav
109,192,81326,1,0,0:0:0:15:soft-hitwhistle.wav
402,192,81587,1,0,0:0:0:15:soft-hitwhistle.wav
182,192,81847,1,0,0:0:0:15:soft-hitwhistle.wav
36,192,82108,1,0,0:0:0:15:soft-hitwhistle.wav
475,192,82108,1,0,0:0:0:0:
329,192,82369,1,0,0:0:0:15:soft-hitwhistle.wav
182,192,82630,1,0,0:0:0:15:soft-hitwhistle.wav
36,192,82891,1,0,0:0:0:15:soft-hitwhistle.wav
475,192,82891,1,0,0:0:0:0:
182,192,83152,1,0,0:0:0:15:soft-hitwhistle.wav
329,192,83413,1,0,0:0:0:15:soft-hitwhistle.wav
36,192,83674,1,0,0:0:0:15:soft-hitwhistle.wav
475,192,83674,1,0,0:0:0:0:
402,192,83934,1,0,0:0:0:15:soft-hitwhistle.wav
329,192,84195,1,0,0:0:0:15:soft-hitwhistle.wav
36,192,84456,1,0,0:0:0:15:soft-hitwhistle.wav
475,192,84456,1,0,0:0:0:0:
109,192,84717,1,0,0:0:0:15:soft-hitwhistle.wav
182,192,84978,1,0,0:0:0:15:soft-hitwhistle.wav
329,192,85239,1,0,0:0:0:15:soft-hitwhistle.wav
475,192,85239,1,0,0:0:0:0:
36,192,85500,1,0,0:0:0:15:soft-hitwhistle.wav
182,192,85761,1,0,0:0:0:15:soft-hitwhistle.wav
329,192,86021,1,0,0:0:0:15:soft-hitwhistle.wav
475,192,86021,1,0,0:0:0:0:
109,192,86282,1,0,0:0:0:15:soft-hitwhistle.wav
256,192,86543,1,0,0:0:0:15:soft-hitwhistle.wav
36,192,86804,1,0,0:0:0:15:soft-hitwhistle.wav
402,192,86804,1,0,0:0:0:0:
182,192,87065,1,0,0:0:0:15:soft-hitwhistle.wav
329,192,87326,1,0,0:0:0:15:soft-hitwhistle.wav
109,192,87587,1,0,0:0:0:15:soft-hitwhistle.wav
475,192,87587,1,0,0:0:0:0:
256,192,87847,1,0,0:0:0:15:soft-hitwhistle.wav
402,192,88108,1,0,0:0:0:15:soft-hitwhistle.wav
36,192,88369,1,0,0:0:0:15:soft-hitwhistle.wav
182,192,88369,1,0,0:0:0:25:CrashR.wav
329,192,88630,1,0,0:0:0:15:soft-hitwhistle.wav
109,192,88891,1,0,0:0:0:15:soft-hitwhistle.wav
256,192,89152,1,0,0:0:0:15:soft-hitwhistle.wav
475,192,89152,1,0,0:0:0:0:
36,192,89413,1,0,0:0:0:15:soft-hitwhistle.wav
182,192,89674,1,0,0:0:0:15:soft-hitwhistle.wav
329,192,89934,1,0,0:0:0:15:soft-hitwhistle.wav
475,192,89934,1,0,0:0:0:25:CrashR.wav
109,192,90195,1,0,0:0:0:15:soft-hitwhistle.wav
402,192,90456,1,0,0:0:0:15:soft-hitwhistle.wav
36,192,90717,1,0,0:0:0:45:soft-hitclap.wav
182,192,90717,1,0,0:0:0:25:CrashR.wav
329,192,90978,1,0,0:0:0:0:
182,192,91239,1,0,0:0:0:15:soft-hitwhistle.wav
36,192,91500,128,0,93065:0:0:0:15:soft-hitwhistle.wav
475,192,91500,1,0,0:0:0:45:soft-hitclap.wav
256,192,91761,1,0,0:0:0:15:soft-hitwhistle.wav
329,192,92021,1,0,0:0:0:15:soft-hitwhistle.wav
402,192,92282,1,0,0:0:0:15:soft-hitwhistle.wav
182,192,92543,1,0,0:0:0:15:soft-hitwhistle.wav
256,192,92804,1,0,0:0:0:15:soft-hitwhistle.wav
329,192,93065,1,0,0:0:0:15:soft-hitwhistle.wav
475,192,93065,128,0,94630:0:0:0:0:
182,192,93326,1,0,0:0:0:15:soft-hitwhistle.wav
109,192,93587,1,0,0:0:0:15:soft-hitwhistle.wav
36,192,93847,1,0,0:0:0:15:soft-hitwhistle.wav
256,192,94108,1,0,0:0:0:15:soft-hitwhistle.wav
182,192,94369,1,0,0:0:0:15:soft-hitwhistle.wav
109,192,94630,1,0,0:0:0:15:soft-hitwhistle.wav
329,192,94630,128,0,95413:0:0:0:0:
256,192,94891,1,0,0:0:0:15:soft-hitwhistle.wav
475,192,95152,1,0,0:0:0:15:soft-hitwhistle.wav
36,192,95413,1,0,0:0:0:15:soft-hitwhistle.wav
182,192,95413,128,0,96195:0:0:0:0:
256,192,95674,1,0,0:0:0:15:soft-hitwhistle.wav
402,192,95934,1,0,0:0:0:15:soft-hitwhistle.wav
36,192,96195,128,0,96978:0:0:0:15:soft-hitwhistle.wav
475,192,96195,1,0,0:0:0:25:CrashR.wav
402,192,96456,1,0,0:0:0:15:soft-hitwhistle.wav
329,192,96717,1,0,0:0:0:15:soft-hitwhistle.wav
182,192,96978,1,0,0:0:0:45:soft-hitclap.wav
475,192,96978,128,0,97761:0:0:0:25:CrashR.wav
256,192,97239,1,0,0:0:0:45:soft-hitclap.wav
329,192,97500,1,0,0:0:0:45:soft-hitclap.wav
36,192,97761,128,0,98543:0:0:0:15:soft-hitwhistle.wav
182,192,97761,1,0,0:0:0:25:CrashR.wav
256,192,98021,1,0,0:0:0:15:soft-hitwhistle.wav
329,192,98282,1,0,0:0:0:15:soft-hitwhistle.wav
182,192,98543,128,0,99326:0:0:0:15:soft-hitwhistle.wav
475,192,98543,1,0,0:0:0:0:
402,192,98804,1,0,0:0:0:15:soft-hitwhistle.wav
329,192,99065,1,0,0:0:0:15:soft-hitwhistle.wav
36,192,99326,1,0,0:0:0:45:soft-hitclap.wav
109,192,99326,1,0,0:0:0:25:CrashR.wav
402,192,99761,1,0,0:0:0:45:soft-hitclap.wav
475,192,99761,1,0,0:0:0:25:CrashR.wav
109,192,100108,1,0,0:0:0:45:soft-hitclap.wav
182,192,100108,1,0,0:0:0:25:CrashR.wav
329,192,100543,1,0,0:0:0:45:soft-hitclap.wav
402,192,100543,1,0,0:0:0:25:CrashR.wav
36,192,100891,128,0,101674:0:0:0:15:soft-hitwhistle.wav
256,192,100891,1,0,0:0:0:25:CrashR.wav
402,192,101152,1,0,0:0:0:15:soft-hitwhistle.wav
329,192,101413,1,0,0:0:0:15:soft-hitwhistle.wav
109,192,101674,128,0,102456:0:0:0:15:soft-hitwhistle.wav
256,192,101674,1,0,0:0:0:0:
475,192,101934,1,0,0:0:0:15:soft-hitwhistle.wav
402,192,102195,1,0,0:0:0:15:soft-hitwhistle.wav
182,192,102456,128,0,103239:0:0:0:15:soft-hitwhistle.wav
329,192,102456,1,0,0:0:0:45:soft-hitclap.wav
36,192,102717,1,0,0:0:0:15:soft-hitwhistle.wav
329,192,102978,1,0,0:0:0:15:soft-hitwhistle.wav
256,192,103239,128,0,104021:0:0:0:15:soft-hitwhistle.wav
475,192,103239,1,0,0:0:0:45:soft-hitclap.wav
109,192,103500,1,0,0:0:0:15:soft-hitwhistle.wav
402,192,103761,1,0,0:0:0:15:soft-hitwhistle.wav
36,192,104021,1,0,0:0:0:15:soft-hitwhistle.wav
475,192,104021,1,0,0:0:0:45:soft-hitclap.wav
36,192,104804,1,0,0:0:0:0:
182,192,105065,1,0,0:0:0:0:
329,192,105326,1,0,0:0:0:0:
475,192,105587,1,0,0:0:0:0:
402,192,105847,1,0,0:0:0:0:
329,192,106108,1,0,0:0:0:0:
36,192,106369,1,0,0:0:0:0:
109,192,106630,1,0,0:0:0:0:
182,192,106891,128,0,107152:0:0:0:0:
329,192,107152,128,0,107413:0:0:0:0:
475,192,107413,1,0,0:0:0:0:
36,192,107674,1,0,0:0:0:0:
182,192,107934,128,0,108195:0:0:0:0:
256,192,108195,128,0,108456:0:0:0:0:
329,192,108456,128,0,108717:0:0:0:0:
475,192,108717,128,0,108978:0:0:0:0:
256,192,108978,128,0,109239:0:0:0:0:
36,192,109239,128,0,109500:0:0:0:0:
402,192,109500,128,0,109761:0:0:0:0:
329,192,109761,128,0,110021:0:0:0:0:
256,192,110021,128,0,110282:0:0:0:0:
36,192,110282,128,0,110543:0:0:0:25:CrashR.wav
475,192,110282,1,0,0:0:0:0:
109,192,110543,128,0,110804:0:0:0:0:
182,192,110804,128,0,111065:0:0:0:0:
329,192,111065,128,0,111326:0:0:0:0:
402,192,111326,128,0,111587:0:0:0:0:
475,192,111587,128,0,111847:0:0:0:0:
256,192,111847,128,0,112282:0:0:0:0:
36,192,112282,128,0,112630:0:0:0:0:
329,192,112630,1,0,0:0:0:25:LR_Kick Drum Fast.wav
182,192,112891,1,0,0:0:0:25:LR_Kick Drum Fast.wav
329,192,113152,1,0,0:0:0:15:soft-hitwhistle.wav
36,192,113413,128,0,114456:0:0:0:45:soft-hitclap.wav
475,192,113413,1,0,0:0:0:25:CrashR.wav
256,192,113674,1,0,0:0:0:15:soft-hitwhistle.wav
329,192,113934,1,0,0:0:0:15:soft-hitwhistle.wav
402,192,114195,1,0,0:0:0:45:soft-hitclap.wav
182,192,114456,128,0,114717:0:0:0:15:soft-hitwhistle.wav
329,192,114717,128,0,114978:0:0:0:15:soft-hitwhistle.wav
475,192,114978,128,0,115761:0:0:0:15:soft-hitwhistle.wav
36,192,115239,1,0,0:0:0:15:soft-hitwhistle.wav
182,192,115500,1,0,0:0:0:15:soft-hitwhistle.wav
402,192,115761,128,0,116021:0:0:0:45:soft-hitclap.wav
256,192,116021,128,0,116282:0:0:0:15:soft-hitwhistle.wav
109,192,116282,128,0,116543:0:0:0:15:soft-hitwhistle.wav
36,192,116543,128,0,118108:0:0:0:15:soft-hitwhistle.wav
475,192,116804,1,0,0:0:0:15:soft-hitwhistle.wav
182,192,117065,1,0,0:0:0:15:soft-hitwhistle.wav
256,192,117326,1,0,0:0:0:45:soft-hitclap.wav
329,192,117587,1,0,0:0:0:15:soft-hitwhistle.wav
402,192,117847,1,0,0:0:0:15:soft-hitwhistle.wav
475,192,118108,128,0,118891:0:0:0:15:soft-hitwhistle.wav
182,192,118369,1,0,0:0:0:15:soft-hitwhistle.wav
182,192,118630,1,0,0:0:0:15:soft-hitwhistle.wav
36,192,118891,128,0,119674:0:0:0:15:soft-hitwhistle.wav
329,192,119152,1,0,0:0:0:15:soft-hitwhistle.wav
329,192,119413,1,0,0:0:0:15:soft-hitwhistle.wav
256,192,119674,1,0,0:0:0:45:soft-hitclap.wav
475,192,119674,1,0,0:0:0:25:LR_Kick Drum Fast.wav
182,192,119934,1,0,0:0:0:25:LR_Kick Drum Fast.wav
109,192,120195,1,0,0:0:0:25:LR_Kick Drum Fast.wav
402,192,120369,1,0,0:0:0:25:LR_Kick Drum Fast.wav
36,192,120717,1,0,0:0:0:45:soft-hitclap.wav
256,192,120717,128,0,125413:0:0:0:25:CrashR.wav
475,192,120717,1,0,0:0:0:0:
36,192,125413,1,0,0:0:0:60:soft-hitclap.wav
475,192,125413,1,0,0:0:0:0:
109,192,125934,128,0,126195:0:0:0:15:soft-hitwhistle.wav
256,192,125934,128,0,126195:0:0:0:60:soft-hitclap.wav
402,192,125934,128,0,126195:0:0:0:25:CrashR.wav
