osu file format v14

[General]
AudioFilename: audio.mp3
AudioLeadIn: 0
PreviewTime: 66195
Countdown: 0
SampleSet: Normal
StackLeniency: 0.7
Mode: 1
LetterboxInBreaks: 0
WidescreenStoryboard: 1

[Editor]
DistanceSpacing: 0.8
BeatDivisor: 2
GridSize: 32
TimelineZoom: 2

[Metadata]
Title:Rainbow Magic!!
TitleUnicode:Rainbow Magic!!
Artist:ARForest
ArtistUnicode:ARForest
Creator:Antti
Version:Kantan
Source:
Tags:boaz electronic instrumental artcore featured artist fa mappers' guild mpg mg happy hardcore happycore waltz jazz
BeatmapID:3998046
BeatmapSetID:1934686

[Difficulty]
HPDrainRate:9
CircleSize:2
OverallDifficulty:3
ApproachRate:10
SliderMultiplier:1
SliderTickRate:3

[Events]
//Background and Video events
0,0,"magiccats.png",0,0
//Break Periods
//Storyboard Layer 0 (Background)
//Storyboard Layer 1 (Fail)
//Storyboard Layer 2 (Pass)
//Storyboard Layer 3 (Foreground)
//Storyboard Layer 4 (Overlay)
//Storyboard Sound Samples

[TimingPoints]
718,260.869565217391,3,1,0,40,1,8
2978,-100,3,1,0,80,0,8
3584,-100,3,1,0,80,0,8
3848,260.869565217391,3,1,0,85,1,0
3848,-100,3,1,0,85,0,0
22717,-100,3,1,0,80,0,0
28978,-100,3,1,0,85,0,0
38369,-100,3,1,0,78,0,0
39847,-100,3,1,0,70,0,0
47326,-100,3,1,0,80,0,0
50804,-100,3,1,0,85,0,0
66456,-100,3,1,0,90,0,1
72717,-100,3,1,0,90,0,0
72804,-100,3,1,0,80,0,0
75847,-100,3,1,0,85,0,0
78195,-100,3,1,0,90,0,0
78978,-100,3,1,0,90,0,1
104021,-100,3,1,0,80,0,0
113413,-100,3,1,0,85,0,1
120717,-100,3,1,0,85,0,0

[HitObjects]
256,192,913,5,8,0:0:0:0:
256,192,1696,1,8,0:0:0:0:
256,192,2217,1,8,0:0:0:0:
256,192,3065,1,8,0:0:0:0:
256,192,3587,1,0,0:0:0:0:
256,192,3848,1,12,0:0:0:0:
256,192,4630,1,8,0:0:0:0:
256,192,4891,1,8,0:0:0:0:
256,192,5152,1,0,0:0:0:0:
256,192,5413,1,8,0:0:0:0:
256,192,6195,1,0,0:0:0:0:
256,192,6717,1,8,0:0:0:0:
256,192,6978,1,0,0:0:0:0:
256,192,7761,1,8,0:0:0:0:
256,192,8543,1,0,0:0:0:0:
256,192,9065,1,8,0:0:0:0:
256,192,9326,1,0,0:0:0:0:
256,192,9847,1,0,0:0:0:0:
256,192,10108,1,12,0:0:0:0:
256,192,10891,1,0,0:0:0:0:
256,192,11413,1,8,0:0:0:0:
256,192,11674,1,0,0:0:0:0:
256,192,12456,1,0,0:0:0:0:
256,192,12717,1,8,0:0:0:0:
256,192,12978,1,0,0:0:0:0:
256,192,13239,1,8,0:0:0:0:
256,192,13761,1,8,0:0:0:0:
256,192,14021,1,8,0:0:0:0:
256,192,14804,1,4,0:0:0:0:
256,192,15587,1,8,0:0:0:0:
256,192,16369,1,4,0:0:0:0:
256,192,16891,1,8,0:0:0:0:
256,192,17152,1,0,0:0:0:0:
256,192,17934,1,8,0:0:0:0:
256,192,18456,1,8,0:0:0:0:
256,192,18717,1,0,0:0:0:0:
256,192,19500,1,8,0:0:0:0:
256,192,20021,1,0,0:0:0:0:
256,192,20282,1,8,0:0:0:0:
256,192,21065,1,0,0:0:0:0:
256,192,21587,1,8,0:0:0:0:
256,192,21847,1,0,0:0:0:0:
256,192,22108,1,8,0:0:0:0:
256,192,22369,1,8,0:0:0:0:
256,192,22630,1,4,0:0:0:0:
256,192,23413,1,8,0:0:0:0:
256,192,23934,1,0,0:0:0:0:
256,192,24195,1,8,0:0:0:0:
256,192,24978,1,8,0:0:0:0:
256,192,25761,1,0,0:0:0:0:
256,192,26282,1,8,0:0:0:0:
256,192,26543,1,8,0:0:0:0:
256,192,27326,1,0,0:0:0:0:
256,192,27587,1,8,0:0:0:0:
256,192,27847,1,0,0:0:0:0:
256,192,28108,1,8,0:0:0:0:
256,192,28891,1,12,0:0:0:0:
256,192,29413,1,0,0:0:0:0:
256,192,29674,1,8,0:0:0:0:
256,192,29934,1,8,0:0:0:0:
256,192,30456,1,8,0:0:0:0:
256,192,30717,1,0,0:0:0:0:
256,192,31239,1,0,0:0:0:0:
256,192,32021,1,8,0:0:0:0:
256,192,32804,1,8,0:0:0:0:
256,192,33065,1,0,0:0:0:0:
256,192,33587,1,8,0:0:0:0:
256,192,34108,1,8,0:0:0:0:
256,192,34369,1,0,0:0:0:0:
256,192,35152,1,12,0:0:0:0:
256,192,35934,1,0,0:0:0:0:
256,192,36195,1,8,0:0:0:0:
256,192,36717,1,8,0:0:0:0:
256,192,36978,1,0,0:0:0:0:
256,192,37500,1,8,0:0:0:0:
256,192,38021,1,8,0:0:0:0:
256,192,38282,1,4,0:0:0:0:
256,192,38413,12,0,39761,0:0:0:0:
256,192,39847,12,0,40891,0:0:0:0:
256,192,41152,5,0,0:0:0:0:
256,192,41413,1,12,0:0:0:0:
256,192,42195,1,8,0:0:0:0:
256,192,42717,1,0,0:0:0:0:
256,192,42978,1,8,0:0:0:0:
256,192,43761,1,8,0:0:0:0:
256,192,44282,1,8,0:0:0:0:
256,192,44543,1,0,0:0:0:0:
256,192,45326,1,8,0:0:0:0:
256,192,46108,1,0,0:0:0:0:
256,192,46891,1,8,0:0:0:0:
256,192,47413,1,0,0:0:0:0:
256,192,47674,1,8,0:0:0:0:
256,192,48195,1,8,0:0:0:0:
256,192,48456,1,8,0:0:0:0:
256,192,49239,1,8,0:0:0:0:
256,192,49761,1,8,0:0:0:0:
256,192,50021,1,8,0:0:0:0:
256,192,50804,1,4,0:0:0:0:
256,192,51587,1,4,0:0:0:0:
256,192,52369,1,12,0:0:0:0:
256,192,53152,1,8,0:0:0:0:
256,192,53674,1,0,0:0:0:0:
256,192,53934,1,12,0:0:0:0:
256,192,54717,1,0,0:0:0:0:
256,192,55500,1,8,0:0:0:0:
256,192,55761,1,8,0:0:0:0:
256,192,56021,1,8,0:0:0:0:
256,192,56282,1,0,0:0:0:0:
256,192,56804,1,0,0:0:0:0:
256,192,57065,1,8,0:0:0:0:
256,192,57587,1,0,0:0:0:0:
256,192,57847,1,0,0:0:0:0:
256,192,58630,1,0,0:0:0:0:
256,192,59152,1,8,0:0:0:0:
256,192,59413,1,8,0:0:0:0:
256,192,59934,1,8,0:0:0:0:
256,192,60195,1,4,0:0:0:0:
256,192,60978,1,0,0:0:0:0:
256,192,61239,1,8,0:0:0:0:
256,192,61500,1,8,0:0:0:0:
256,192,61761,1,0,0:0:0:0:
256,192,62282,1,8,0:0:0:0:
256,192,62543,1,0,0:0:0:0:
256,192,63326,1,12,0:0:0:0:
256,192,64108,1,0,0:0:0:0:
256,192,64891,1,0,0:0:0:0:
256,192,65152,1,0,0:0:0:0:
256,192,65413,1,8,0:0:0:0:
256,192,65674,1,0,0:0:0:0:
256,192,66195,1,0,0:0:0:0:
256,192,66456,1,12,0:0:0:0:
256,192,67239,1,8,0:0:0:0:
256,192,67500,1,8,0:0:0:0:
256,192,67761,1,8,0:0:0:0:
256,192,68021,1,0,0:0:0:0:
256,192,68804,1,8,0:0:0:0:
256,192,69065,1,0,0:0:0:0:
256,192,69326,1,8,0:0:0:0:
256,192,69587,1,8,0:0:0:0:
256,192,70108,1,8,0:0:0:0:
256,192,70369,1,8,0:0:0:0:
256,192,71152,1,8,0:0:0:0:
256,192,71674,1,0,0:0:0:0:
256,192,71934,1,8,0:0:0:0:
256,192,72195,1,0,0:0:0:0:
256,192,72456,1,8,0:0:0:0:
256,192,72717,1,12,0:0:0:0:
256,192,73500,1,8,0:0:0:0:
256,192,74021,1,8,0:0:0:0:
256,192,74282,1,8,0:0:0:0:
256,192,75065,1,0,0:0:0:0:
256,192,75326,1,8,0:0:0:0:
256,192,75587,1,8,0:0:0:0:
256,192,75847,1,8,0:0:0:0:
256,192,76369,1,0,0:0:0:0:
256,192,76630,1,8,0:0:0:0:
256,192,77413,1,8,0:0:0:0:
256,192,77934,1,0,0:0:0:0:
256,192,78195,1,8,0:0:0:0:
256,192,78978,1,12,0:0:0:0:
256,192,79761,1,8,0:0:0:0:
256,192,80021,1,8,0:0:0:0:
256,192,80282,1,0,0:0:0:0:
256,192,80543,1,8,0:0:0:0:
256,192,81065,1,8,0:0:0:0:
256,192,81326,1,0,0:0:0:0:
256,192,81847,1,8,0:0:0:0:
256,192,82108,1,0,0:0:0:0:
256,192,82891,1,0,0:0:0:0:
256,192,83152,1,8,0:0:0:0:
256,192,83413,1,0,0:0:0:0:
256,192,83674,1,8,0:0:0:0:
256,192,84195,1,8,0:0:0:0:
256,192,84456,1,0,0:0:0:0:
256,192,84978,1,8,0:0:0:0:
256,192,85239,1,0,0:0:0:0:
256,192,86021,1,8,0:0:0:0:
256,192,86543,1,0,0:0:0:0:
256,192,86804,1,8,0:0:0:0:
256,192,87587,1,8,0:0:0:0:
256,192,88108,1,0,0:0:0:0:
256,192,88369,1,12,0:0:0:0:
256,192,88891,1,8,0:0:0:0:
256,192,89152,1,8,0:0:0:0:
256,192,89674,1,8,0:0:0:0:
256,192,89934,1,4,0:0:0:0:
256,192,90456,1,8,0:0:0:0:
256,192,90717,1,12,0:0:0:0:
256,192,91500,1,12,0:0:0:0:
256,192,92021,1,0,0:0:0:0:
256,192,92282,1,8,0:0:0:0:
256,192,92804,1,8,0:0:0:0:
256,192,93065,1,0,0:0:0:0:
256,192,93847,1,0,0:0:0:0:
256,192,94108,1,8,0:0:0:0:
256,192,94369,1,0,0:0:0:0:
256,192,94630,1,8,0:0:0:0:
256,192,95152,1,8,0:0:0:0:
256,192,95413,1,0,0:0:0:0:
256,192,95934,1,0,0:0:0:0:
256,192,96195,1,12,0:0:0:0:
256,192,96978,1,12,0:0:0:0:
256,192,97500,1,0,0:0:0:0:
256,192,97761,1,12,0:0:0:0:
256,192,98543,1,8,0:0:0:0:
256,192,98804,1,8,0:0:0:0:
256,192,99065,1,0,0:0:0:0:
256,192,99326,1,12,0:0:0:0:
256,192,100108,1,4,0:0:0:0:
256,192,100891,1,4,0:0:0:0:
256,192,101413,1,0,0:0:0:0:
256,192,101674,1,8,0:0:0:0:
256,192,102195,1,0,0:0:0:0:
256,192,102456,1,12,0:0:0:0:
256,192,102978,1,0,0:0:0:0:
256,192,103239,1,8,0:0:0:0:
256,192,103761,1,8,0:0:0:0:
256,192,104021,1,4,0:0:0:0:
256,192,104804,1,8,0:0:0:0:
256,192,105326,1,8,0:0:0:0:
256,192,105587,1,0,0:0:0:0:
256,192,106369,1,0,0:0:0:0:
256,192,106891,1,0,0:0:0:0:
256,192,107152,1,8,0:0:0:0:
256,192,107674,1,8,0:0:0:0:
256,192,107934,1,0,0:0:0:0:
256,192,108717,1,0,0:0:0:0:
256,192,109239,1,8,0:0:0:0:
256,192,109500,1,0,0:0:0:0:
256,192,110282,1,12,0:0:0:0:
256,192,110804,1,8,0:0:0:0:
256,192,111065,1,0,0:0:0:0:
256,192,111587,1,8,0:0:0:0:
256,192,111847,1,8,0:0:0:0:
256,192,112630,1,0,0:0:0:0:
256,192,112891,1,8,0:0:0:0:
256,192,113152,1,0,0:0:0:0:
256,192,113413,1,12,0:0:0:0:
256,192,114195,1,8,0:0:0:0:
256,192,114456,1,8,0:0:0:0:
256,192,114717,1,0,0:0:0:0:
256,192,114978,1,8,0:0:0:0:
256,192,115761,1,8,0:0:0:0:
256,192,116021,1,8,0:0:0:0:
256,192,116282,1,0,0:0:0:0:
256,192,116543,1,8,0:0:0:0:
256,192,117065,1,8,0:0:0:0:
256,192,117326,1,0,0:0:0:0:
256,192,117847,1,0,0:0:0:0:
256,192,118108,1,8,0:0:0:0:
256,192,118891,1,0,0:0:0:0:
256,192,119413,1,8,0:0:0:0:
256,192,119674,1,4,0:0:0:0:
256,192,120717,1,12,0:0:0:0:
256,192,120847,12,0,125587,0:0:0:0:
256,192,125934,5,12,0:0:0:0:
