osu file format v14

[General]
AudioFilename: audio.mp3
AudioLeadIn: 0
PreviewTime: 20179
Countdown: 0
SampleSet: Soft
StackLeniency: 0.4
Mode: 0
LetterboxInBreaks: 0
WidescreenStoryboard: 1

[Editor]
Bookmarks: 20256,39948,59640,79318,94087,116241,121025
DistanceSpacing: 1.2
BeatDivisor: 4
GridSize: 4
TimelineZoom: 1

[Metadata]
Title:Qesia
TitleUnicode:Qesia
Artist:ARForest
ArtistUnicode:ARForest
Creator:Log Off Now
Version:Hard
Source:osu!
Tags:musync video game electronic instrumental featured artist fa mappers' guild mg
BeatmapID:2659945
BeatmapSetID:1279020

[Difficulty]
HPDrainRate:4.5
CircleSize:3.4
OverallDifficulty:6.5
ApproachRate:8
SliderMultiplier:1.3
SliderTickRate:1

[Events]
//Background and Video events
0,0,"qesia.jpg",0,0
//Break Periods
2,40148,49044
//Storyboard Layer 0 (Background)
//Storyboard Layer 1 (Fail)
//Storyboard Layer 2 (Pass)
//Storyboard Layer 3 (Foreground)
//Storyboard Layer 4 (Overlay)
//Storyboard Sound Samples

[TimingPoints]
564,307.692307692308,4,2,1,45,1,0
564,-111.111111111111,4,2,1,45,0,0
19025,-100,4,2,2,60,0,0
20256,-90.9090909090909,4,2,1,75,0,0
49794,-111.111111111111,4,2,1,55,0,0
58410,-100,4,2,2,60,0,0
59640,-90.9090909090909,4,2,1,75,0,0
79333,307.692307692308,3,2,1,55,1,0
79333,-125,3,2,1,55,0,0
91333,-100,3,2,1,60,0,0
92256,-100,3,2,1,65,0,0
93179,-100,3,2,1,65,0,0
94102,307.692307692308,6,2,1,75,1,0
94102,-90.9090909090909,6,2,1,75,0,0
116256,307.692307692308,4,2,1,75,1,0
116256,-90.9090909090909,4,2,1,75,0,0
118717,-100,4,2,1,65,0,0
119948,-100,4,2,1,70,0,0
120871,-100,4,2,1,75,0,0

[Colours]
Combo1 : 130,186,255
Combo2 : 44,108,32
Combo3 : 141,240,136
Combo4 : 39,121,165

[HitObjects]
203,260,564,5,2,0:0:0:0:
266,208,717,2,0,L|393:226,1,116.999996429443,2|2,0:0|0:0,0:0:0:0:
468,84,1333,1,2,0:0:0:0:
402,133,1487,2,0,L|326:122,1,58.4999982147217,2|2,0:0|0:0,0:0:0:0:
297,57,1794,2,0,L|219:68,1,58.4999982147217,2|0,0:0|0:0,0:0:0:0:
182,124,2102,1,0,0:0:0:0:
182,124,2256,1,2,0:0:0:0:
107,90,2410,2,0,P|64:102|24:101,1,58.4999982147217,0|2,0:0|0:0,0:0:0:0:
4,171,2717,2,0,P|18:206|21:231,1,58.4999982147217,2|0,0:0|0:0,0:0:0:0:
4,307,3025,5,2,0:0:0:0:
66,360,3179,2,0,P|123:331|189:337,1,116.999996429443,2|2,0:0|0:0,0:0:0:0:
278,205,3794,1,0,0:0:0:0:
342,256,3948,2,0,L|413:242,1,58.4999982147217,2|0,0:0|0:0,0:0:0:0:
438,171,4256,2,0,L|506:185,2,58.4999982147217,0|0|0,0:0|0:0|0:0,0:0:0:0:
395,107,4717,1,2,0:0:0:0:
395,107,4871,2,0,L|333:120,2,58.4999982147217,0|0|2,0:0|0:0|0:0,0:0:0:0:
354,207,5333,1,0,0:0:0:0:
278,174,5487,5,2,0:0:0:0:
212,221,5640,2,0,L|229:347,1,116.999996429443,2|2,0:0|0:0,0:0:0:0:
83,257,6256,1,0,0:0:0:0:
134,193,6410,2,0,L|125:112,1,58.4999982147217,2|0,0:0|0:0,0:0:0:0:
53,99,6717,2,0,L|63:20,1,58.4999982147217,0|0,0:0|0:0,0:0:0:0:
137,6,7025,1,0,0:0:0:0:
137,6,7179,1,2,0:0:0:0:
191,66,7333,2,0,P|236:53|262:52,1,58.4999982147217,0|2,0:0|0:0,0:0:0:0:
305,110,7640,2,0,P|350:123|373:122,1,58.4999982147217,2|0,0:0|0:0,0:0:0:0:
424,69,7948,5,2,0:0:0:0:
424,69,8102,1,2,0:0:0:0:
484,124,8256,1,0,0:0:0:0:
438,192,8410,1,2,0:0:0:0:
490,346,8717,1,0,0:0:0:0:
414,378,8871,2,0,L|342:367,1,58.4999982147217,2|2,0:0|0:0,0:0:0:0:
307,302,9179,2,0,L|235:313,2,58.4999982147217,0|2|0,0:0|0:0|0:0,0:0:0:0:
351,233,9640,1,2,0:0:0:0:
306,164,9794,2,0,P|290:111|291:93,1,58.4999982147217,2|2,0:0|0:0,0:0:0:0:
314,11,10102,2,0,P|276:23|236:29,1,58.4999982147217,0|2,0:0|0:0,0:0:0:0:
191,81,10410,5,2,3:2:0:0:
120,39,10564,2,0,B|143:97|143:97|121:162,1,116.999996429443,2|0,0:0|0:0,0:0:0:0:
61,199,11025,2,0,P|114:189|162:230,1,116.999996429443,2|2,0:3|0:0,0:0:0:0:
275,110,11640,1,2,0:0:0:0:
334,166,11794,2,0,L|323:240,1,58.4999982147217,2|2,0:3|0:0,0:0:0:0:
256,268,12102,2,0,L|273:384,1,116.999996429443,2|2,0:3|0:0,0:0:0:0:
349,318,12564,1,2,0:3:0:0:
502,373,12871,5,2,3:2:0:0:
465,299,13025,2,0,L|482:183,1,116.999996429443,2|0,3:2|0:0,0:0:0:0:
425,122,13487,2,0,P|379:152|314:155,1,116.999996429443,2|2,0:3|0:0,0:0:0:0:
243,121,13948,2,0,P|248:80|243:47,1,58.4999982147217,2|2,0:3|0:0,0:0:0:0:
179,15,14256,1,2,0:3:0:0:
179,15,14410,2,0,P|142:33|109:40,1,58.4999982147217,2|2,0:0|0:3,0:0:0:0:
44,25,14717,2,0,P|85:75|87:130,1,116.999996429443,2|2,0:0|0:3,0:0:0:0:
33,280,15333,5,2,3:2:0:0:
95,333,15487,2,0,L|211:315,1,116.999996429443,2|2,0:0|0:0,0:0:0:0:
255,246,15948,2,0,L|371:264,1,116.999996429443,2|2,0:3|0:0,0:0:0:0:
494,155,16564,1,2,0:0:0:0:
428,106,16717,2,0,L|365:117,1,58.4999982147217,2|2,0:3|0:0,0:0:0:0:
306,167,17025,2,0,L|190:149,1,116.999996429443,2|2,0:3|0:0,0:0:0:0:
135,87,17487,2,0,L|72:98,1,58.4999982147217,2|0,0:3|0:0,0:0:0:0:
25,160,17794,5,2,0:0:0:0:
25,160,17948,1,2,0:3:0:0:
84,216,18102,1,0,0:0:0:0:
48,289,18256,1,2,0:3:0:0:
192,366,18564,1,0,0:0:0:0:
251,310,18717,2,0,L|331:322,1,58.4999982147217,2|2,0:3|0:0,0:0:0:0:
372,252,19025,5,0,3:0:0:0:
372,252,19179,1,0,3:0:0:0:
324,174,19333,1,8,0:0:0:0:
383,104,19487,2,0,L|437:115,2,32.5,0|8|0,3:0|0:0|3:0,0:0:0:0:
251,19,19948,2,0,L|216:26,3,32.5,8|8|8|8,0:0|0:0|0:0|0:0,0:0:0:0:
188,54,20256,6,0,L|36:29,1,143.000004364014,4|8,1:0|0:0,0:0:0:0:
1,103,20717,2,0,P|29:142|18:242,1,143.000004364014,2|0,1:2|1:0,0:0:0:0:
126,297,21179,2,0,L|112:219,1,71.5000021820069,10|0,0:0|0:0,0:0:0:0:
179,170,21487,2,0,L|197:57,2,107.25000327301,0|0|8,1:0|1:2|0:0,0:0:0:0:
240,230,22102,1,2,0:0:0:0:
311,182,22256,1,2,1:2:0:0:
374,239,22410,2,0,P|404:229|449:228,1,71.5000021820069,10|0,0:0|0:0,0:0:0:0:
479,149,22717,6,0,P|494:107|514:77,2,71.5000021820069,2|0|10,1:2|0:0|0:0,0:0:0:0:
402,110,23179,2,0,P|349:88|320:84,2,71.5000021820069,2|0|2,1:2|0:0|1:2,0:0:0:0:
364,187,23640,1,10,0:0:0:0:
283,156,23794,2,0,L|205:169,1,71.5000021820069,2|0,0:0|1:0,0:0:0:0:
155,232,24102,1,2,1:2:0:0:
155,232,24256,1,0,1:2:0:0:
78,192,24410,1,10,0:0:0:0:
116,25,24717,1,2,1:2:0:0:
198,2,24871,1,10,0:0:0:0:
267,70,25025,1,0,1:0:0:0:
267,70,25102,1,0,1:0:0:0:
267,70,25179,6,0,B|343:67|319:111|411:100,1,143.000004364014,2|10,1:2|0:0,0:0:0:0:
471,153,25640,2,0,P|459:201|456:230,1,71.5000021820069,2|0,1:2|0:0,0:0:0:0:
370,296,25948,2,0,P|364:260|355:226,1,71.5000021820069,2|8,1:2|0:0,0:0:0:0:
284,175,26256,2,0,P|257:199|135:205,1,143.000004364014,2|2,0:0|0:0,0:0:0:0:
126,180,26640,1,0,1:0:0:0:
126,180,26717,1,0,1:2:0:0:
55,228,26871,2,0,L|66:298,1,71.5000021820069,8|2,0:0|0:2,0:0:0:0:
135,359,27179,1,0,1:2:0:0:
135,359,27333,1,10,0:0:0:0:
203,307,27487,1,2,0:0:0:0:
271,357,27640,6,0,L|356:372,2,71.5000021820069,2|0|10,1:2|0:2|0:2,0:0:0:0:
190,269,28102,2,0,L|119:281,2,71.5000021820069,2|0|2,1:2|0:2|1:2,0:0:0:0:
239,180,28564,2,0,L|324:195,1,71.5000021820069,10|2,0:2|0:2,0:0:0:0:
369,254,28871,1,0,1:0:0:0:
438,201,29025,2,0,L|483:191,2,35.7500010910034,0|0|0,1:0|1:0|1:0,0:0:0:0:
389,129,29333,2,0,L|405:42,1,71.5000021820069,8|0,0:0|0:0,0:0:0:0:
333,6,29640,1,0,1:0:0:0:
264,57,29794,1,8,0:0:0:0:
188,15,29948,1,0,1:0:0:0:
188,15,30025,1,0,1:0:0:0:
188,15,30102,6,0,B|153:47|153:47|171:158,1,143.000004364014,4|8,1:2|0:0,0:0:0:0:
238,192,30564,2,0,L|210:337,1,143.000004364014,2|0,1:2|1:0,0:0:0:0:
130,361,31025,2,0,L|116:283,1,71.5000021820069,10|0,0:0|0:0,0:0:0:0:
110,204,31333,2,0,P|42:211|-2:179,2,107.25000327301,0|0|8,1:0|1:2|0:0,0:0:0:0:
175,148,31948,1,2,0:0:0:0:
238,205,32102,1,2,1:2:0:0:
195,279,32256,2,0,P|225:289|272:309,1,71.5000021820069,10|0,0:0|0:0,0:0:0:0:
335,259,32563,6,0,L|321:185,2,71.5000021820069,2|0|10,1:2|0:0|0:0,0:0:0:0:
409,303,33025,2,0,L|395:377,2,71.5000021820069,2|0|2,1:2|0:0|1:2,0:0:0:0:
475,248,33486,1,10,0:0:0:0:
433,173,33640,1,2,0:0:0:0:
494,12,33948,1,2,1:2:0:0:
421,57,34102,1,0,1:2:0:0:
349,8,34256,1,10,0:0:0:0:
287,68,34410,2,0,L|199:49,1,71.5000021820069,2|2,0:0|1:2,0:0:0:0:
159,116,34717,1,10,0:0:0:0:
159,116,34871,1,0,1:0:0:0:
210,184,35025,6,0,P|218:226|216:266,1,71.5000021820069,2|0,1:2|0:0,0:0:0:0:
147,306,35333,1,8,0:0:0:0:
70,266,35487,1,2,1:2:0:0:
93,174,35640,2,0,L|-2:188,1,71.5000021820069,2|0,0:0|1:2,0:0:0:0:
159,116,35948,2,0,L|229:126,1,71.5000021820069,10|2,0:0|0:0,0:0:0:0:
283,193,36256,1,0,1:0:0:0:
362,153,36410,1,2,1:2:0:0:
362,153,36486,1,0,1:0:0:0:
362,153,36563,1,0,1:0:0:0:
424,211,36717,2,0,L|400:61,1,143.000004364014,10|2,0:0|1:2,0:0:0:0:
334,15,37179,2,0,P|291:34|254:36,1,71.5000021820069,8|2,0:0|0:0,0:0:0:0:
202,93,37487,6,0,L|120:79,1,71.5000021820069,2|0,1:2|0:0,0:0:0:0:
58,126,37794,2,0,P|75:172|73:198,1,71.5000021820069,10|0,0:0|1:0,0:0:0:0:
20,261,38102,1,2,0:0:0:0:
20,261,38256,1,2,1:2:0:0:
78,323,38410,1,10,0:0:0:0:
78,323,38564,1,2,0:0:0:0:
149,275,38717,6,0,L|194:265,3,35.7500010910034,2|2|2|2,1:2|0:2|1:2|1:2,0:0:0:0:
216,295,39025,2,0,L|261:305,3,35.7500010910034,10|10|2|10,0:2|0:2|1:2|0:2,0:0:0:0:
286,277,39333,1,2,0:2:0:0:
362,337,39487,1,10,0:2:0:0:
362,337,39564,1,10,0:2:0:0:
362,337,39640,2,0,L|407:327,3,35.7500010910034,10|2|10|10,0:2|1:2|0:2|0:2,0:0:0:0:
432,354,39948,1,6,0:2:0:0:
86,46,49794,6,0,P|110:80|65:200,1,175.499994644165,6|2,1:2|0:0,0:0:0:0:
1,239,50410,1,8,0:0:0:0:
141,322,50717,2,0,B|190:283|190:283|303:299,1,175.499994644165,2|0,0:0|0:0,0:0:0:0:
367,248,51333,1,0,1:0:0:0:
294,101,51640,2,0,B|357:97|334:138|418:126,1,116.999996429443,10|2,0:0|0:0,0:0:0:0:
455,284,52256,6,0,L|519:272,2,58.4999982147217,2|2|0,1:2|0:0|0:0,0:0:0:0:
403,347,52717,2,0,L|280:330,1,116.999996429443,2|2,0:0|0:0,0:0:0:0:
207,187,53333,2,0,P|266:195|306:147,1,116.999996429443,2|0,1:2|0:0,0:0:0:0:
297,75,53794,2,0,L|289:7,1,58.4999982147217,2|0,1:2|0:0,0:0:0:0:
210,37,54102,2,0,L|216:95,1,58.4999982147217,10|0,0:0|0:0,0:0:0:0:
135,109,54410,1,2,0:0:0:0:
135,109,54564,1,2,0:0:0:0:
69,60,54717,6,0,L|81:183,1,116.999996429443,2|2,1:2|0:0,0:0:0:0:
22,234,55179,1,2,0:0:0:0:
82,289,55333,2,0,L|70:354,2,58.4999982147217,10|0|2,0:0|0:0|1:2,0:0:0:0:
153,249,55794,2,0,B|216:245|193:286|277:274,1,116.999996429443,2|2,1:2|1:2,0:0:0:0:
324,122,56410,2,0,P|378:133|442:157,1,116.999996429443,2|2,0:0|0:0,0:0:0:0:
386,361,57025,1,2,0:0:0:0:
318,314,57179,6,0,B|342:265|342:265|327:193,1,116.999996429443,2|2,1:2|0:2,0:0:0:0:
267,150,57640,1,0,0:0:0:0:
320,87,57794,2,0,L|384:98,1,58.4999982147217,10|0,0:0|0:0,0:0:0:0:
274,18,58102,2,0,L|216:27,1,58.4999982147217,2|8,1:2|0:0,0:0:0:0:
158,90,58410,5,0,3:0:0:0:
158,90,58564,1,0,3:0:0:0:
206,159,58718,1,8,0:0:0:0:
153,225,58871,1,0,0:0:0:0:
153,225,58948,1,8,0:0:0:0:
153,225,59025,2,0,L|99:214,2,32.5,0|0|8,3:0|3:0|0:0,0:0:0:0:
205,291,59333,2,0,L|236:284,3,32.5,0|8|0|8,3:0|0:0|3:0|0:0,0:0:0:0:
268,256,59640,6,0,B|315:262|315:262|349:289|349:289|408:295,1,143.000004364014,6|8,1:2|0:0,0:0:0:0:
466,237,60102,2,0,P|438:198|449:98,1,143.000004364014,2|0,1:2|1:0,0:0:0:0:
382,45,60564,2,0,L|304:59,1,71.5000021820069,10|0,0:0|0:0,0:0:0:0:
251,119,60872,2,0,L|138:101,2,107.25000327301,0|0|8,1:0|1:0|0:0,0:0:0:0:
297,191,61487,2,0,P|279:233|276:261,1,71.5000021820069,0|2,0:0|1:2,0:0:0:0:
349,302,61794,1,10,0:0:0:0:
192,373,62102,6,0,L|45:352,1,143.000004364014,2|10,1:2|0:0,0:0:0:0:
11,275,62564,2,0,P|26:229|22:192,1,71.5000021820069,2|0,1:2|0:0,0:0:0:0:
104,172,62871,2,0,P|89:126|93:89,1,71.5000021820069,2|8,1:2|0:0,0:0:0:0:
154,44,63179,2,0,P|198:56|228:58,1,71.5000021820069,2|0,0:0|1:0,0:0:0:0:
296,10,63487,1,0,1:0:0:0:
296,10,63641,1,0,1:0:0:0:
371,49,63794,2,0,P|360:109|351:207,1,143.000004364014,8|0,0:0|1:0,0:0:0:0:
397,264,64256,1,8,0:0:0:0:
351,339,64410,1,0,1:0:0:0:
351,339,64487,1,0,1:0:0:0:
351,339,64564,6,0,B|275:336|299:380|207:369,1,143.000004364014,2|8,1:2|0:0,0:0:0:0:
169,296,65025,2,0,P|181:248|184:219,1,71.5000021820069,2|0,1:2|0:0,0:0:0:0:
142,150,65333,1,0,1:0:0:0:
205,92,65487,2,0,P|232:116|354:122,1,143.000004364014,10|0,0:0|1:0,0:0:0:0:
406,80,65948,5,0,1:0:0:0:
406,80,66025,1,0,1:0:0:0:
406,80,66102,1,0,1:0:0:0:
355,10,66256,2,0,L|285:21,1,71.5000021820069,8|0,0:0|0:0,0:0:0:0:
223,82,66564,1,2,1:2:0:0:
164,19,66718,1,10,0:0:0:0:
70,162,67025,6,0,L|-1:149,2,71.5000021820069,2|2|8,1:2|0:0|0:0,0:0:0:0:
153,182,67487,2,0,L|139:262,1,71.5000021820069,2|0,1:2|0:0,0:0:0:0:
60,282,67794,2,0,L|74:362,1,71.5000021820069,2|8,1:2|0:0,0:0:0:0:
154,380,68102,2,0,P|196:358|227:358,1,71.5000021820069,2|0,0:0|1:2,0:0:0:0:
289,305,68410,2,0,L|334:315,2,35.7500010910034,0|0|0,1:0|1:0|1:0,0:0:0:0:
234,238,68718,2,0,L|250:151,1,71.5000021820069,8|2,0:0|0:0,0:0:0:0:
318,119,69025,1,2,1:2:0:0:
384,173,69179,1,10,0:0:0:0:
455,123,69333,1,2,1:2:0:0:
455,123,69410,1,0,1:0:0:0:
455,123,69487,6,0,B|490:155|490:155|472:266,1,143.000004364014,6|8,1:2|0:0,0:0:0:0:
409,305,69949,2,0,P|358:265|261:274,1,143.000004364014,2|0,1:2|1:0,0:0:0:0:
212,335,70410,2,0,L|198:257,1,71.5000021820069,10|0,0:0|0:0,0:0:0:0:
214,179,70718,2,0,P|268:169|299:128,2,107.25000327301,0|0|8,1:0|1:0|0:0,0:0:0:0:
162,110,71333,2,0,P|129:123|90:129,1,71.5000021820069,0|2,0:0|1:2,0:0:0:0:
30,186,71640,1,10,0:0:0:0:
104,340,71948,6,0,B|178:335|153:374|257:366,1,143.000004364014,2|10,1:2|0:0,0:0:0:0:
335,305,72410,2,0,L|321:379,1,71.5000021820069,2|0,1:2|0:0,0:0:0:0:
407,261,72717,2,0,L|393:190,1,71.5000021820069,2|8,1:2|0:0,0:0:0:0:
315,159,73025,2,0,L|328:88,1,71.5000021820069,2|0,0:0|1:2,0:0:0:0:
265,37,73333,1,0,1:2:0:0:
265,37,73487,1,0,1:2:0:0:
190,80,73641,1,10,0:0:0:0:
115,38,73794,2,0,P|75:44|44:56,1,71.5000021820069,2|0,0:0|1:0,0:0:0:0:
85,132,74102,1,10,0:0:0:0:
33,200,74256,1,0,1:2:0:0:
33,200,74333,1,0,1:0:0:0:
33,200,74410,6,0,L|42:280,1,71.5000021820069,6|0,1:2|0:0,0:0:0:0:
91,341,74718,1,8,0:0:0:0:
145,273,74871,2,0,P|189:251|295:266,1,143.000004364014,2|0,1:2|1:0,0:0:0:0:
320,334,75333,2,0,L|393:321,1,71.5000021820069,10|2,0:0|0:0,0:0:0:0:
459,267,75641,1,2,1:2:0:0:
405,206,75795,1,0,1:0:0:0:
405,206,75871,1,0,1:0:0:0:
405,206,75948,1,2,1:2:0:0:
465,144,76102,2,0,L|441:-6,1,143.000004364014,10|2,0:0|1:2,0:0:0:0:
368,48,76564,2,0,P|325:67|288:69,1,71.5000021820069,10|2,0:0|0:0,0:0:0:0:
236,126,76871,6,0,L|243:166,3,35.7500010910034,6|2|2|2,1:2|0:2|1:2|0:2,0:0:0:0:
268,195,77179,2,0,L|261:235,3,35.7500010910034,10|2|2|2,0:2|0:2|1:2|0:2,0:0:0:0:
229,259,77487,1,10,0:2:0:0:
156,213,77640,1,2,1:2:0:0:
156,213,77717,1,2,1:2:0:0:
156,213,77794,2,0,L|84:227,1,71.5000021820069,10|2,0:2|1:2,0:0:0:0:
25,288,78102,6,0,L|35:333,3,35.7500010910034,12|2|2|2,0:0|0:0|0:0|0:0,0:0:0:0:
56,359,78410,2,0,L|101:369,3,35.7500010910034,2|2|2|2,0:0|0:0|0:0|0:0,0:0:0:0:
128,345,78717,2,0,L|173:335,3,35.7500010910034,2|0|0|0,0:0|0:0|0:0|0:0,0:0:0:0:
198,362,79025,2,0,L|240:380,3,35.7500010910034,2|0|0|0,0:0|0:0|0:0|0:0,0:0:0:0:
263,353,79333,6,0,P|331:300|454:334,1,208,6|0,0:0|0:0,0:0:0:0:
494,221,80256,2,0,P|480:174|483:106,1,104,0|2,0:0|0:0,0:0:0:0:
401,36,80871,1,2,0:0:0:0:
299,89,81179,2,0,L|178:69,2,104,2|2|2,0:0|0:0|0:0,0:0:0:0:
364,182,82102,2,0,B|319:178|294:195|294:195|277:224|248:236|248:236|209:215|176:227,1,208,2|2,0:0|0:0,0:0:0:0:
72,181,83025,6,0,P|61:227|76:288,2,104,2|2|2,0:0|0:0|0:0,0:0:0:0:
150,93,83948,1,2,0:0:0:0:
242,160,84256,1,2,0:0:0:0:
307,66,84563,1,2,0:0:0:0:
411,111,84871,2,0,L|396:-1,2,104,2|2|2,0:0|0:0|0:0,0:0:0:0:
502,179,85794,1,2,0:0:0:0:
416,266,86102,2,0,P|370:241|274:274,1,156,2|2,0:0|0:0,0:0:0:0:
215,214,86717,5,2,0:0:0:0:
158,348,87025,2,0,P|89:312|44:308,1,104,2|0,0:0|0:0,0:0:0:0:
18,238,87486,1,2,0:0:0:0:
18,238,87640,2,0,P|42:194|54:131,1,104,2|2,0:0|0:0,0:0:0:0:
15,66,88102,1,0,0:0:0:0:
15,66,88256,1,2,0:0:0:0:
154,24,88563,6,0,L|134:151,1,104,2|2,0:0|0:0,0:0:0:0:
187,194,89025,1,0,0:0:0:0:
255,146,89179,2,0,P|296:160|324:163,1,52,2|0,0:0|0:0,0:0:0:0:
364,218,89486,2,0,P|409:202|479:202,1,104,2|0,0:0|0:0,0:0:0:0:
498,57,90102,1,2,0:0:0:0:
361,19,90409,6,0,P|375:60|378:88,1,52,2|0,0:0|0:0,0:0:0:0:
279,130,90717,2,0,P|288:105|294:80,1,52,2|0,0:0|0:0,0:0:0:0:
199,18,91025,2,0,P|213:59|216:87,1,52,2|0,0:0|0:0,0:0:0:0:
131,137,91333,2,0,L|204:151,1,65,2|0,0:0|0:0,0:0:0:0:
257,222,91640,2,0,L|184:236,1,65,2|0,0:0|0:0,0:0:0:0:
121,305,91948,2,0,L|194:319,1,65,2|0,0:0|0:0,0:0:0:0:
261,367,92256,6,0,B|296:336|340:327|340:327|366:357|406:368|406:368|438:332|500:338,1,260,2|0,0:0|0:0,0:0:0:0:
451,254,93025,1,2,0:0:0:0:
500,176,93179,5,2,0:0:0:0:
394,28,93486,1,2,0:0:0:0:
350,204,93794,1,2,0:0:0:0:
213,57,94102,6,0,B|163:64|163:64|129:98|129:98|61:108,1,143.000004364014,4|8,1:1|0:0,0:0:0:0:
8,51,94563,2,0,B|42:90|42:90|24:201,1,143.000004364014,2|0,1:2|1:0,0:0:0:0:
82,256,95025,2,0,P|127:237|164:235,1,71.5000021820069,10|0,0:0|1:0,0:0:0:0:
207,162,95332,2,0,P|252:181|289:183,1,71.5000021820069,2|0,0:0|1:0,0:0:0:0:
322,254,95640,2,0,P|367:235|404:233,1,71.5000021820069,10|0,0:0|0:0,0:0:0:0:
450,171,95948,5,2,1:2:0:0:
501,239,96102,2,0,P|484:283|476:382,2,143.000004364014,8|2|0,0:0|1:2|1:0,0:0:0:0:
430,287,96871,1,10,0:0:0:0:
359,237,97025,1,0,1:0:0:0:
359,237,97102,1,0,1:0:0:0:
359,237,97179,2,0,L|280:253,1,71.5000021820069,10|0,0:0|1:2,0:0:0:0:
237,320,97486,1,2,1:2:0:0:
237,320,97640,1,8,0:0:0:0:
163,275,97794,6,0,P|178:221|129:144,1,143.000004364014,2|8,1:2|0:0,0:0:0:0:
55,174,98255,2,0,B|9:144|9:144|30:26,1,143.000004364014,2|0,1:2|1:0,0:0:0:0:
100,17,98717,2,0,P|137:35|183:39,1,71.5000021820069,10|0,0:0|1:0,0:0:0:0:
228,99,99025,2,0,P|265:81|311:77,1,71.5000021820069,2|0,0:0|1:0,0:0:0:0:
357,18,99332,2,0,P|394:36|440:40,1,71.5000021820069,10|0,0:0|0:0,0:0:0:0:
485,101,99640,5,2,1:2:0:0:
426,164,99794,2,0,L|332:148,1,71.5000021820069,8|0,0:0|0:0,0:0:0:0:
290,95,100102,2,0,L|148:119,1,143.000004364014,2|0,1:2|1:0,0:0:0:0:
98,188,100563,1,10,0:0:0:0:
153,253,100717,2,0,L|201:244,2,35.7500010910034,0|0|8,1:0|1:0|0:0,0:0:0:0:
95,317,101025,1,0,1:0:0:0:
95,317,101178,1,2,1:2:0:0:
154,378,101332,1,10,0:0:0:0:
225,330,101486,6,0,B|298:323|263:373|379:355,1,143.000004364014,2|8,1:2|0:0,0:0:0:0:
431,306,101948,2,0,P|405:252|443:153,1,143.000004364014,2|0,1:2|1:0,0:0:0:0:
366,109,102409,2,0,P|311:131|288:136,1,71.5000021820069,10|0,0:0|1:0,0:0:0:0:
244,200,102717,2,0,P|189:178|166:173,1,71.5000021820069,2|0,0:0|1:0,0:0:0:0:
138,98,103025,2,0,P|83:120|60:125,1,71.5000021820069,10|2,0:0|0:0,0:0:0:0:
18,190,103332,5,2,1:2:0:0:
80,249,103486,2,0,L|64:333,1,71.5000021820069,8|0,0:0|0:0,0:0:0:0:
143,357,103794,2,0,L|173:195,1,143.000004364014,2|0,1:2|1:0,0:0:0:0:
116,148,104255,1,10,0:0:0:0:
181,92,104409,1,0,1:0:0:0:
181,92,104486,1,0,1:0:0:0:
181,92,104563,2,0,L|273:108,1,71.5000021820069,10|0,0:0|1:0,0:0:0:0:
303,173,104871,1,2,1:2:0:0:
303,173,105025,1,8,0:0:0:0:
374,126,105178,6,0,P|360:78|419:4,1,143.000004364014,2|8,1:2|0:0,0:0:0:0:
486,47,105640,2,0,B|478:97|478:97|503:133|503:133|492:198,1,143.000004364014,2|0,1:2|1:0,0:0:0:0:
436,244,106102,2,0,P|404:225|360:222,1,71.5000021820069,10|0,0:0|1:0,0:0:0:0:
320,290,106409,2,0,P|288:309|244:312,1,71.5000021820069,2|0,0:0|1:0,0:0:0:0:
188,257,106717,1,10,0:0:0:0:
224,179,106871,5,2,1:2:0:0:
224,179,106948,1,2,0:0:0:0:
224,179,107025,2,0,L|284:190,2,35.7500010910034,10|2|2,0:0|0:2|1:2,0:0:0:0:
324,129,107332,5,2,1:2:0:0:
324,129,107409,1,2,0:2:0:0:
324,129,107486,2,0,L|384:118,2,35.7500010910034,10|2|2,0:2|0:2|1:2,0:0:0:0:
399,206,107794,5,2,0:2:0:0:
399,206,107871,1,2,0:2:0:0:
399,206,107948,1,10,0:2:0:0:
470,152,108102,6,0,L|528:161,2,35.7500010910034,2|2|10,1:2|1:2|0:2,0:0:0:0:
426,79,108409,5,2,1:2:0:0:
426,79,108486,1,2,1:2:0:0:
426,79,108563,2,0,L|437:19,3,35.7500010910034,10|10|10|10,0:2|0:2|3:2|0:2,0:0:0:0:
395,21,108871,6,0,P|334:42|308:44,1,71.5000021820069,4|2,1:1|0:0,0:0:0:0:
258,96,109179,2,0,P|197:75|171:73,1,71.5000021820069,10|2,0:0|1:2,0:0:0:0:
129,21,109486,1,2,0:0:0:0:
129,21,109640,1,2,1:2:0:0:
55,64,109794,2,0,L|68:139,1,71.5000021820069,10|2,0:0|1:2,0:0:0:0:
132,191,110102,2,0,L|119:266,2,71.5000021820069,2|2|10,0:0|1:2|0:0,0:0:0:0:
206,148,110563,1,2,1:2:0:0:
269,206,110717,6,0,P|316:195|347:197,1,71.5000021820069,10|0,0:0|1:0,0:0:0:0:
415,235,111025,2,0,P|409:293|409:328,1,71.5000021820069,10|2,0:0|1:2,0:0:0:0:
339,356,111332,2,0,L|292:348,3,35.7500010910034,2|2|2|2,0:2|0:2|1:2|0:2,0:0:0:0:
279,313,111640,2,0,L|232:321,3,35.7500010910034,10|2|2|2,0:0|0:0|1:2|1:2,0:0:0:0:
216,352,111948,1,10,0:0:0:0:
152,294,112102,1,2,1:2:0:0:
152,294,112178,1,2,1:2:0:0:
152,294,112255,2,0,P|164:252|168:214,1,71.5000021820069,10|10,0:0|0:0,0:0:0:0:
127,147,112563,6,0,P|154:181|259:183,1,143.000004364014,2|8,1:2|0:0,0:0:0:0:
311,131,113025,2,0,B|338:172|338:172|316:290,1,143.000004364014,2|2,1:2|1:2,0:0:0:0:
367,336,113486,2,0,L|445:319,1,71.5000021820069,10|0,0:0|1:0,0:0:0:0:
494,256,113794,2,0,P|464:209|461:172,1,71.5000021820069,2|2,1:2|1:2,0:0:0:0:
497,115,114102,1,10,0:0:0:0:
440,51,114256,5,2,1:2:0:0:
440,51,114332,1,10,0:0:0:0:
440,51,114409,2,0,L|378:68,3,35.7500010910034,6|10|2|2,1:2|0:0|1:2|1:2,0:0:0:0:
367,38,114717,5,2,1:2:0:0:
315,108,114871,1,10,0:2:0:0:
315,108,114948,1,10,0:0:0:0:
315,108,115025,2,0,L|253:91,3,35.7500010910034,2|2|2|10,1:2|1:2|1:2|0:0,0:0:0:0:
245,122,115333,5,12,0:0:0:0:
107,19,115640,1,12,0:0:0:0:
25,170,115948,1,12,0:0:0:0:
150,287,116256,6,0,L|239:271,2,71.5000021820069,4|2|10,1:0|0:0|0:0,0:0:0:0:
95,353,116717,1,2,1:2:0:0:
24,303,116871,2,0,P|37:243|36:224,1,71.5000021820069,0|2,0:0|1:2,0:0:0:0:
6,152,117179,1,10,0:0:0:0:
6,152,117332,1,2,0:0:0:0:
73,99,117486,6,0,L|57:-10,2,107.25000327301,2|0|10,1:2|1:0|0:2,0:0:0:0:
131,162,118102,1,2,0:0:0:0:
208,120,118255,1,2,1:2:0:0:
208,120,118332,1,0,1:0:0:0:
208,120,118409,2,0,L|273:105,3,35.7500010910034,10|8|10|8,0:0|0:0|0:0|0:0,0:0:0:0:
272,138,118717,6,0,L|347:152,2,65,14|0|2,0:0|0:0|0:0,0:0:0:0:
239,216,119179,1,2,0:0:0:0:
284,286,119332,2,0,L|359:272,1,65,2|2,0:0|0:0,0:0:0:0:
413,220,119640,2,0,L|488:234,1,65,2|2,0:0|0:0,0:0:0:0:
505,151,119948,6,0,P|493:117|491:76,1,65,2|2,0:0|0:0,0:0:0:0:
427,30,120256,2,0,P|381:53|358:55,1,65,0|2,0:0|0:0,0:0:0:0:
299,5,120563,1,2,0:0:0:0:
299,5,120717,1,0,0:0:0:0:
224,51,120871,1,2,0:0:0:0:
256,149,121025,1,2,0:0:0:0:
