osu file format v14

[General]
AudioFilename: audio.mp3
AudioLeadIn: 0
PreviewTime: 20179
Countdown: 0
SampleSet: Soft
StackLeniency: 0.4
Mode: 0
LetterboxInBreaks: 0
WidescreenStoryboard: 0

[Editor]
Bookmarks: 20256,39948,59640,79318,94087,116241,121025
DistanceSpacing: 1.1
BeatDivisor: 4
GridSize: 4
TimelineZoom: 1

[Metadata]
Title:Qesia
TitleUnicode:Qesia
Artist:ARForest
ArtistUnicode:ARForest
Creator:Log Off Now
Version:Extra
Source:osu!
Tags:musync video game electronic instrumental featured artist fa mappers' guild mg
BeatmapID:2656918
BeatmapSetID:1279020

[Difficulty]
HPDrainRate:5.5
CircleSize:3.8
OverallDifficulty:9
ApproachRate:9.2
SliderMultiplier:1.4
SliderTickRate:1

[Events]
//Background and Video events
0,0,"qesia.jpg",0,0
//Break Periods
2,40148,49224
//Storyboard Layer 0 (Background)
//Storyboard Layer 1 (Fail)
//Storyboard Layer 2 (Pass)
//Storyboard Layer 3 (Foreground)
//Storyboard Layer 4 (Overlay)
//Storyboard Sound Samples

[TimingPoints]
564,307.692307692308,4,2,1,45,1,0
564,-166.666666666667,4,2,1,45,0,0
10410,-125,4,2,1,45,0,0
19025,-100,4,2,2,60,0,0
20256,-76.9230769230769,4,2,1,75,0,0
49794,-100,4,2,1,55,0,0
58410,-100,4,2,2,60,0,0
59640,-76.9230769230769,4,2,1,75,0,0
79333,307.692307692308,3,2,1,55,1,0
91333,-83.3333333333333,3,2,1,60,0,0
92256,-83.3333333333333,3,2,1,65,0,0
93179,-71.4285714285714,3,2,1,65,0,0
94102,307.692307692308,6,2,1,75,1,0
94102,-66.6666666666667,6,2,1,75,0,0
116256,307.692307692308,4,2,1,75,1,0
116256,-66.6666666666667,4,2,1,75,0,0
118717,-100,4,2,1,65,0,0
119948,-100,4,2,1,70,0,0
120871,-100,4,2,1,75,0,0

[Colours]
Combo1 : 130,186,255
Combo2 : 44,108,32
Combo3 : 141,240,136
Combo4 : 39,121,165

[HitObjects]
143,93,564,5,2,0:0:0:0:
163,110,717,1,2,0:0:0:0:
245,67,1025,1,2,0:0:0:0:
312,122,1333,5,2,0:0:0:0:
350,102,1486,1,2,0:0:0:0:
379,112,1640,1,2,0:0:0:0:
396,130,1794,2,0,P|389:163|389:183,1,41.9999987182618,2|0,0:0|0:0,0:0:0:0:
326,234,2102,5,0,0:0:0:0:
366,264,2256,1,2,0:0:0:0:
408,260,2409,1,0,0:0:0:0:
436,248,2564,1,2,0:0:0:0:
468,227,2717,2,0,P|474:196|481:174,1,41.9999987182618,2|0,0:0|0:0,0:0:0:0:
408,122,3025,5,2,0:0:0:0:
388,139,3178,1,2,0:0:0:0:
306,96,3486,1,2,0:0:0:0:
237,145,3794,5,0,0:0:0:0:
206,128,3948,1,2,0:0:0:0:
183,136,4101,1,0,0:0:0:0:
169,151,4256,2,0,P|174:177|174:193,1,41.9999987182618
161,275,4563,5,0,0:0:0:0:
135,293,4716,1,2,0:0:0:0:
109,291,4870,1,0,0:0:0:0:
91,284,5025,1,0,0:0:0:0:
71,271,5179,2,0,P|67:251|64:230,1,41.9999987182618,2|0,0:0|0:0,0:0:0:0:
129,171,5487,5,2,0:0:0:0:
149,188,5640,1,2,0:0:0:0:
231,145,5948,1,2,0:0:0:0:
298,200,6256,5,0,0:0:0:0:
336,180,6409,1,2,0:0:0:0:
365,190,6563,1,0,0:0:0:0:
382,208,6717,2,0,P|375:241|375:261,1,41.9999987182618
312,312,7025,5,0,0:0:0:0:
352,342,7179,1,2,0:0:0:0:
394,338,7332,1,0,0:0:0:0:
422,326,7487,1,2,0:0:0:0:
454,305,7640,2,0,P|460:274|467:252,1,41.9999987182618,2|0,0:0|0:0,0:0:0:0:
394,200,7948,5,2,0:0:0:0:
325,237,8101,1,2,0:0:0:0:
285,166,8256,1,0,0:0:0:0:
354,129,8409,1,2,0:0:0:0:
285,166,8717,5,0,0:0:0:0:
354,129,8871,1,2,0:0:0:0:
394,200,9025,1,2,0:0:0:0:
325,237,9179,5,0,0:0:0:0:
298,316,9333,1,2,0:0:0:0:
358,378,9487,1,0,0:0:0:0:
465,247,9640,5,2,0:0:0:0:
391,301,9794,1,2,0:0:0:0:
444,370,9948,1,2,0:0:0:0:
465,247,10102,2,0,L|472:198,1,41.9999987182618,0|2,0:0|0:0,0:0:0:0:
376,122,10410,5,2,3:2:0:0:
382,156,10564,2,0,P|332:137|272:150,1,112,2|0,0:0|0:0,0:0:0:0:
186,193,11025,2,0,L|197:111,1,56,2|0,0:3|0:0,0:0:0:0:
133,66,11333,1,2,0:0:0:0:
114,78,11487,1,0,0:0:0:0:
24,9,11640,6,0,L|35:91,1,56,2|2,0:0|0:3,0:0:0:0:
44,145,11948,1,2,0:0:0:0:
60,225,12102,1,2,0:3:0:0:
131,162,12256,1,2,0:0:0:0:
135,192,12410,1,2,0:0:0:0:
147,270,12564,2,0,L|158:352,1,56,2|0,0:3|0:0,0:0:0:0:
214,171,12871,5,2,3:2:0:0:
349,265,13025,2,0,P|299:246|239:259,1,112,2|0,3:2|0:0,0:0:0:0:
283,384,13486,2,0,L|294:302,1,56,2|0,0:3|0:0,0:0:0:0:
381,233,13794,1,2,0:0:0:0:
362,245,13948,1,2,0:3:0:0:
429,361,14102,6,0,L|418:279,1,56,2|2,0:0|0:3,0:0:0:0:
481,240,14410,2,0,L|492:158,1,56,2|2,0:0|0:3,0:0:0:0:
408,126,14717,1,2,0:0:0:0:
383,150,14871,1,2,0:0:0:0:
349,141,15025,2,0,P|317:125|279:118,1,56,2|0,0:3|0:0,0:0:0:0:
229,167,15333,5,2,3:2:0:0:
261,44,15487,2,0,P|211:63|151:50,1,112,2|2,0:0|0:0,0:0:0:0:
90,156,15948,2,0,L|79:74,1,56,2|0,0:3|0:0,0:0:0:0:
188,184,16256,1,2,0:0:0:0:
169,196,16410,1,0,0:0:0:0:
225,316,16563,6,0,L|236:234,1,56,2|2,0:0|0:3,0:0:0:0:
302,186,16871,1,2,0:0:0:0:
318,266,17025,1,2,0:3:0:0:
387,204,17179,1,2,0:0:0:0:
393,233,17333,1,2,0:0:0:0:
461,137,17487,2,0,L|472:219,1,56,2|0,0:3|0:0,0:0:0:0:
306,98,17794,5,2,0:0:0:0:
375,135,17947,1,2,0:3:0:0:
415,64,18102,1,0,0:0:0:0:
346,27,18255,1,2,0:3:0:0:
306,98,18563,5,0,0:0:0:0:
346,27,18717,1,2,0:3:0:0:
415,64,18871,1,2,0:0:0:0:
383,204,19025,6,0,L|372:119,1,70,0|0,3:0|3:0,0:0:0:0:
435,55,19333,1,8,0:0:0:0:
263,35,19487,1,0,3:0:0:0:
263,35,19564,1,8,0:0:0:0:
263,35,19640,2,0,L|255:-21,2,35,0|0|2,3:0|3:0|3:0,0:0:0:0:
355,141,19948,2,0,L|351:176,1,35,8|8,0:0|0:0,0:0:0:0:
281,256,20102,2,0,L|276:221,1,35,8|8,0:0|0:0,0:0:0:0:
188,91,20256,6,0,P|239:126|303:112,1,90.9999958343508,4|0,1:0|0:0,0:0:0:0:
420,71,20564,1,8,0:0:0:0:
368,276,20717,2,0,P|363:208|354:140,1,136.499993751526,2|0,1:2|0:0,0:0:0:0:
328,64,21025,1,0,1:0:0:0:
272,223,21179,2,0,B|205:198|187:199|190:202|185:199|187:202|184:199|180:202,1,90.9999958343508,10|0,0:0|0:0,0:0:0:0:
57,281,21487,1,0,1:0:0:0:
162,360,21640,5,2,1:2:0:0:
162,360,21717,1,0,1:2:0:0:
162,360,21794,1,0,1:0:0:0:
38,270,21948,1,8,0:0:0:0:
186,183,22102,1,2,0:0:0:0:
143,262,22256,5,2,1:2:0:0:
104,136,22410,1,10,0:0:0:0:
230,97,22564,1,0,0:0:0:0:
269,223,22717,5,2,1:2:0:0:
186,183,22871,1,0,0:0:0:0:
230,97,23025,1,10,0:0:0:0:
269,223,23179,5,2,1:2:0:0:
186,183,23333,1,0,0:0:0:0:
230,97,23487,1,2,1:2:0:0:
312,137,23640,1,10,0:0:0:0:
399,16,23794,2,0,L|298:42,1,90.9999958343508,2|0,0:0|1:0,0:0:0:0:
395,175,24102,5,2,1:2:0:0:
479,209,24256,1,0,1:2:0:0:
445,293,24410,1,10,0:0:0:0:
361,259,24564,5,2,0:0:0:0:
479,209,24717,1,2,1:2:0:0:
327,110,24871,1,10,0:0:0:0:
359,290,25025,1,0,1:0:0:0:
359,290,25102,1,0,1:0:0:0:
359,290,25179,6,0,L|371:192,1,90.9999958343508,2|0,1:2|0:0,0:0:0:0:
241,89,25487,1,10,0:0:0:0:
408,47,25640,2,0,P|345:80|296:84,1,90.9999958343508,2|0,1:2|0:0,0:0:0:0:
284,206,25948,2,0,P|221:173|162:186,1,90.9999958343508,2|8,1:2|0:0,0:0:0:0:
59,74,26256,1,2,0:0:0:0:
153,15,26410,6,0,L|137:111,1,90.9999958343508,0|2,1:0|0:0,0:0:0:0:
80,159,26640,1,0,1:0:0:0:
80,159,26717,2,0,L|96:255,1,90.9999958343508,0|8,1:2|0:0,0:0:0:0:
253,266,27025,5,2,0:2:0:0:
169,300,27179,1,0,1:2:0:0:
185,180,27333,1,10,0:0:0:0:
241,353,27487,1,2,0:0:0:0:
371,216,27640,5,2,1:2:0:0:
287,182,27794,1,0,0:2:0:0:
253,266,27948,1,10,0:2:0:0:
371,216,28102,5,2,1:2:0:0:
287,182,28256,1,0,0:2:0:0:
253,266,28410,1,2,1:2:0:0:
362,125,28564,5,10,0:2:0:0:
336,303,28717,1,2,0:2:0:0:
201,188,28871,5,0,1:0:0:0:
384,110,29025,1,0,1:0:0:0:
384,110,29102,1,0,1:0:0:0:
384,110,29179,1,0,1:0:0:0:
490,268,29333,2,0,L|372:251,1,90.9999958343508,8|0,0:0|0:0,0:0:0:0:
263,91,29640,5,0,1:0:0:0:
192,304,29794,1,8,0:0:0:0:
379,170,29948,1,0,1:0:0:0:
379,170,30025,1,0,1:0:0:0:
379,170,30102,6,0,L|261:187,1,90.9999958343508,4|0,1:2|0:0,0:0:0:0:
420,71,30410,1,8,0:0:0:0:
472,273,30563,2,0,P|477:205|486:137,1,136.499993751526,2|0,1:2|0:0,0:0:0:0:
512,61,30871,1,0,1:0:0:0:
393,155,31025,2,0,B|326:130|308:131|311:134|306:131|308:134|305:131|301:134,1,90.9999958343508,10|0,0:0|0:0,0:0:0:0:
173,213,31333,1,0,1:0:0:0:
205,91,31486,5,2,1:2:0:0:
205,91,31563,1,0,1:2:0:0:
205,91,31640,1,0,1:0:0:0:
283,254,31794,1,8,0:0:0:0:
305,132,31948,1,2,0:0:0:0:
173,213,32102,5,2,1:2:0:0:
212,87,32256,1,10,0:0:0:0:
86,48,32410,1,0,0:0:0:0:
47,174,32563,5,2,1:2:0:0:
130,134,32717,1,0,0:0:0:0:
86,48,32871,1,10,0:0:0:0:
47,174,33025,5,2,1:2:0:0:
130,134,33179,1,0,0:0:0:0:
86,48,33333,1,2,1:2:0:0:
174,17,33486,1,10,0:0:0:0:
307,126,33640,2,0,L|206:100,1,90.9999958343508,2|0,0:0|1:0,0:0:0:0:
442,18,33948,5,2,1:2:0:0:
358,52,34102,1,0,1:2:0:0:
392,136,34256,1,10,0:0:0:0:
476,102,34410,5,2,0:0:0:0:
358,52,34563,1,2,1:2:0:0:
329,210,34717,1,10,0:0:0:0:
139,105,34871,1,0,1:0:0:0:
139,105,34948,1,0,1:0:0:0:
139,105,35025,6,0,L|237:117,1,90.9999958343508,2|0,1:2|0:0,0:0:0:0:
340,242,35333,1,8,0:0:0:0:
192,365,35487,1,2,1:2:0:0:
246,196,35640,1,2,0:0:0:0:
289,382,35794,1,0,1:2:0:0:
352,154,35948,1,10,0:0:0:0:
257,299,36102,6,0,P|208:278|151:278,1,90.9999958343508,2|0,0:0|1:0,0:0:0:0:
32,200,36410,1,2,1:2:0:0:
32,200,36487,1,0,1:0:0:0:
32,200,36564,1,0,1:0:0:0:
142,95,36717,2,0,L|123:204,1,90.9999958343508,10|0,0:0|0:0,0:0:0:0:
103,345,37025,1,2,1:2:0:0:
19,334,37179,1,8,0:0:0:0:
30,249,37333,1,2,0:0:0:0:
203,262,37487,6,0,L|184:371,1,90.9999958343508,2|0,1:2|0:0,0:0:0:0:
100,162,37794,2,0,L|119:271,1,90.9999958343508,10|0,0:0|1:0,0:0:0:0:
290,200,38102,1,2,0:0:0:0:
204,165,38256,1,2,1:2:0:0:
362,269,38410,1,10,0:0:0:0:
274,307,38564,1,2,0:0:0:0:
377,174,38717,5,2,1:2:0:0:
401,182,38794,1,2,0:2:0:0:
423,196,38870,1,2,1:2:0:0:
440,215,38947,1,2,1:2:0:0:
451,239,39025,1,10,0:2:0:0:
456,264,39101,1,10,0:2:0:0:
454,290,39178,1,2,1:2:0:0:
445,314,39255,1,10,0:2:0:0:
427,339,39333,6,2,L|370:329,3,45.4999979171754,2|2|10|10,0:2|1:2|0:2|0:2,0:2:0:0:
318,262,39640,2,2,L|264:271,1,45.4999979171754,10|2,0:2|1:2,0:2:0:0:
220,348,39794,2,2,L|166:339,1,45.4999979171754,10|10,0:2|0:2,0:2:0:0:
120,261,39948,1,6,0:2:0:0:
121,306,49794,6,0,B|143:238|143:238|114:169,1,140,6|0,1:2|0:0,0:0:0:0:
171,104,50256,1,2,0:0:0:0:
118,30,50410,2,0,P|152:59|243:55,1,140,8|2,0:0|0:0,0:0:0:0:
358,161,51025,1,0,0:0:0:0:
264,273,51333,2,0,L|281:123,2,140,0|10|2,1:0|0:0|0:0,0:0:0:0:
450,333,52256,5,2,1:2:0:0:
381,370,52409,1,2,0:0:0:0:
341,299,52564,1,0,0:0:0:0:
410,262,52717,2,0,L|394:161,1,70,2|8,0:0|0:0,0:0:0:0:
319,165,53025,2,0,L|335:64,1,70,2|0,0:0|0:0,0:0:0:0:
386,27,53333,6,0,P|342:60|243:39,1,140,2|0,1:2|0:0,0:0:0:0:
192,154,53794,2,0,L|176:53,1,70,2|0,1:2|0:0,0:0:0:0:
109,36,54102,1,10,0:0:0:0:
109,36,54256,1,0,0:0:0:0:
74,67,54410,1,2,0:0:0:0:
8,24,54564,1,2,0:0:0:0:
5,126,54717,6,0,P|40:157|41:258,1,140,2|2,1:2|0:0,0:0:0:0:
103,313,55179,1,2,0:0:0:0:
204,221,55333,2,0,L|116:236,1,70,10|0,0:0|0:0,0:0:0:0:
19,322,55640,1,2,1:2:0:0:
183,382,55794,6,0,L|198:294,1,70,2|0,1:2|0:0,0:0:0:0:
35,176,56102,1,2,1:2:0:0:
35,176,56256,2,0,L|46:245,1,70,0|2,1:2|0:0,0:0:0:0:
198,90,56564,2,0,L|128:101,1,70,10|0,0:0|0:0,0:0:0:0:
153,247,56870,1,2,0:0:0:0:
153,247,57025,1,2,0:0:0:0:
256,229,57179,6,0,L|271:141,1,70,2|0,1:2|0:0,0:0:0:0:
186,20,57487,2,0,L|201:108,1,70,2|0,0:2|0:0,0:0:0:0:
363,137,57794,1,10,0:0:0:0:
289,76,57948,1,0,0:0:0:0:
456,5,58102,1,2,1:2:0:0:
440,106,58256,1,8,0:0:0:0:
373,48,58410,5,0,3:0:0:0:
373,48,58564,1,0,3:0:0:0:
318,207,58717,2,0,P|274:198|239:196,1,70,8|0,0:0|0:0,0:0:0:0:
224,225,58948,1,8,0:0:0:0:
224,225,59025,2,0,L|178:236,2,35,0|0|8,3:0|3:0|0:0,0:0:0:0:
65,171,59333,1,0,3:0:0:0:
80,147,59409,1,8,0:0:0:0:
87,119,59486,1,0,3:0:0:0:
84,91,59564,1,8,0:0:0:0:
72,65,59640,6,0,P|121:83|171:82,1,90.9999958343508,6|0,1:2|0:0,0:0:0:0:
312,29,59948,1,8,0:0:0:0:
271,252,60102,2,0,P|271:177|236:92,1,136.499993751526,2|0,1:2|0:0,0:0:0:0:
186,75,60410,1,0,1:0:0:0:
342,133,60564,2,0,P|403:120|433:122,1,90.9999958343508,10|0,0:0|0:0,0:0:0:0:
508,36,60871,5,0,1:0:0:0:
475,204,61025,1,0,1:0:0:0:
475,204,61102,1,0,1:0:0:0:
475,204,61179,1,0,1:0:0:0:
339,27,61333,2,0,L|438:40,1,90.9999958343508,8|0,0:0|0:0,0:0:0:0:
285,184,61640,5,2,1:2:0:0:
333,112,61794,1,10,0:0:0:0:
369,194,61948,1,2,0:0:0:0:
327,353,62102,6,0,L|312:264,1,90.9999958343508,2|0,1:2|0:0,0:0:0:0:
447,165,62410,1,10,0:0:0:0:
481,303,62564,2,0,P|425:275|384:271,1,90.9999958343508,2|0,1:2|0:0,0:0:0:0:
212,239,62871,2,0,P|257:195|263:153,1,90.9999958343508,2|8,1:2|0:0,0:0:0:0:
167,72,63179,1,2,0:0:0:0:
23,120,63333,5,0,1:0:0:0:
103,140,63487,1,0,1:0:0:0:
183,160,63640,1,0,1:0:0:0:
158,302,63794,1,8,0:0:0:0:
296,266,63948,2,0,P|252:242|194:242,1,90.9999958343508,2|0,0:0|1:0,0:0:0:0:
85,363,64256,2,0,L|71:270,1,90.9999958343508,8|0,0:0|1:0,0:0:0:0:
132,212,64487,1,0,1:0:0:0:
132,212,64564,6,0,L|146:119,1,90.9999958343508,2|0,1:2|0:0,0:0:0:0:
78,51,64871,1,8,0:0:0:0:
215,2,65025,2,0,L|236:149,1,136.499993751526,2|0,1:2|0:0,0:0:0:0:
246,216,65333,1,0,1:0:0:0:
393,65,65487,2,0,P|346:91|294:92,1,90.9999958343508,10|0,0:0|0:0,0:0:0:0:
143,54,65794,5,0,1:0:0:0:
320,8,65948,1,0,1:0:0:0:
320,8,66025,1,0,1:0:0:0:
320,8,66102,1,0,1:0:0:0:
246,216,66256,2,0,L|231:117,1,90.9999958343508,8|0,0:0|0:0,0:0:0:0:
157,234,66564,5,2,1:2:0:0:
261,299,66717,1,10,0:0:0:0:
329,193,66871,1,2,0:0:0:0:
173,326,67025,5,2,1:2:0:0:
279,384,67179,1,2,0:0:0:0:
362,282,67333,1,8,0:0:0:0:
247,209,67487,2,0,L|261:299,1,90.9999958343508,2|0,1:2|0:0,0:0:0:0:
440,384,67794,2,0,L|453:294,1,90.9999958343508,2|8,1:2|0:0,0:0:0:0:
344,181,68102,1,2,0:0:0:0:
362,282,68256,5,0,1:2:0:0:
434,101,68410,1,0,1:0:0:0:
434,101,68487,1,0,1:0:0:0:
434,101,68564,1,0,1:0:0:0:
231,24,68717,1,8,0:0:0:0:
243,116,68871,5,2,0:0:0:0:
332,97,69025,1,2,1:2:0:0:
153,134,69179,1,10,0:0:0:0:
272,299,69333,1,2,1:2:0:0:
272,299,69410,1,0,1:0:0:0:
272,299,69487,6,0,L|258:209,1,90.9999958343508,6|0,1:2|0:0,0:0:0:0:
231,24,69794,1,8,0:0:0:0:
144,163,69948,2,0,P|79:143|-2:153,1,136.499993751526,2|0,1:2|0:0,0:0:0:0:
56,62,70256,1,0,1:0:0:0:
120,241,70410,2,0,P|73:224|6:235,1,90.9999958343508,10|0,0:0|0:0,0:0:0:0:
62,311,70717,5,0,1:0:0:0:
206,210,70871,1,0,1:0:0:0:
206,210,70948,1,0,1:0:0:0:
206,210,71025,1,0,1:0:0:0:
223,379,71179,2,0,L|123:364,1,90.9999958343508,8|0,0:0|0:0,0:0:0:0:
290,233,71487,5,2,1:2:0:0:
362,281,71641,1,10,0:0:0:0:
280,317,71795,1,2,0:0:0:0:
209,261,71949,6,0,L|194:172,1,90.9999958343508,2|0,1:2|0:0,0:0:0:0:
250,100,72257,1,10,0:0:0:0:
184,32,72411,2,0,P|128:60|87:64,1,90.9999958343508,2|0,1:2|0:0,0:0:0:0:
277,0,72717,2,0,P|321:9|360:32,1,90.9999958343508,2|8,1:2|0:0,0:0:0:0:
400,112,73026,1,2,0:0:0:0:
249,254,73180,5,0,1:2:0:0:
269,174,73334,1,0,1:2:0:0:
289,94,73487,1,0,1:2:0:0:
177,197,73640,1,10,0:0:0:0:
327,294,73794,2,0,L|422:277,1,90.9999958343508,2|0,0:0|1:0,0:0:0:0:
464,152,74102,1,10,0:0:0:0:
504,382,74256,1,0,1:2:0:0:
504,382,74333,1,0,1:0:0:0:
504,382,74410,6,0,L|414:365,1,90.9999958343508,6|0,1:2|0:0,0:0:0:0:
331,209,74717,1,8,0:0:0:0:
213,383,74871,2,0,P|259:314|227:229,1,136.499993751526,2|0,1:2|0:0,0:0:0:0:
216,189,75179,1,0,1:0:0:0:
97,276,75333,1,10,0:0:0:0:
174,301,75487,1,2,0:0:0:0:
278,91,75640,6,0,L|188:108,1,90.9999958343508,2|0,1:2|0:0,0:0:0:0:
133,171,75871,1,0,1:0:0:0:
133,171,75948,1,2,1:2:0:0:
15,14,76102,2,0,L|179:35,1,136.499993751526,10|0,0:0|0:0,0:0:0:0:
227,41,76410,1,2,1:2:0:0:
188,240,76564,1,10,0:0:0:0:
51,142,76717,1,2,0:0:0:0:
301,99,76871,5,6,1:2:0:0:
345,85,76947,1,2,0:2:0:0:
386,103,77025,1,2,1:2:0:0:
420,133,77101,1,2,0:2:0:0:
459,146,77178,1,10,0:2:0:0:
498,118,77255,1,2,0:2:0:0:
512,82,77332,1,2,1:2:0:0:
491,35,77409,1,2,0:2:0:0:
445,26,77487,5,10,0:2:0:0:
407,55,77564,1,2,0:2:0:0:
386,103,77640,1,2,1:2:0:0:
392,150,77717,1,2,1:2:0:0:
407,190,77794,1,10,0:2:0:0:
429,231,77871,1,2,0:2:0:0:
435,277,77947,1,2,1:2:0:0:
425,319,78024,1,10,0:2:0:0:
401,358,78102,6,0,L|356:350,1,45.4999979171754,12|2,0:0|0:0,0:0:0:0:
354,268,78256,2,0,L|309:260,1,45.4999979171754,2|2,0:0|0:0,0:0:0:0:
274,336,78410,2,0,L|229:328,1,45.4999979171754,2|2,0:0|0:0,0:0:0:0:
227,246,78564,2,0,L|182:238,1,45.4999979171754,2|2,0:0|0:0,0:0:0:0:
141,364,78717,6,0,L|96:356,3,45.4999979171754,2|0|0|0,0:0|0:0|0:0|0:0,0:0:0:0:
57,279,79025,2,0,L|12:271,3,45.4999979171754,2|0|0|0,0:0|0:0|0:0|0:0,0:0:0:0:
108,204,79333,5,6,0:0:0:0:
56,120,79640,1,0,0:0:0:0:
114,40,79948,1,0,0:0:0:0:
197,91,80256,5,0,0:0:0:0:
272,29,80563,1,2,0:0:0:0:
357,77,80871,1,2,0:0:0:0:
284,143,81179,5,2,0:0:0:0:
328,230,81486,1,2,0:0:0:0:
414,183,81794,1,2,0:0:0:0:
494,239,82102,2,0,L|471:384,1,140,2|0,0:0|0:0,0:0:0:0:
395,315,82717,1,2,0:0:0:0:
313,370,83025,5,2,0:0:0:0:
244,299,83333,1,2,0:0:0:0:
293,214,83640,1,2,0:0:0:0:
381,256,83948,5,2,0:0:0:0:
454,191,84256,1,2,0:0:0:0:
416,100,84563,1,2,0:0:0:0:
324,135,84871,5,2,0:0:0:0:
233,96,85179,1,2,0:0:0:0:
140,126,85486,1,2,0:0:0:0:
76,51,85794,5,2,0:0:0:0:
3,117,86102,2,0,L|26:257,1,140,2|0,0:0|0:0,0:0:0:0:
84,308,86563,1,2,0:0:0:0:
148,256,86717,1,2,0:0:0:0:
278,381,87025,6,0,P|235:340|151:341,1,140,2|0,0:0|0:0,0:0:0:0:
96,384,87486,1,2,0:0:0:0:
84,308,87640,1,2,0:0:0:0:
237,180,87948,6,0,P|221:221|226:264,1,70,2|0,0:0|0:0,0:0:0:0:
123,130,88256,2,0,P|166:123|201:97,1,70,2|0,0:0|0:0,0:0:0:0:
142,258,88563,2,0,P|114:223|74:206,1,70,2|0,0:0|0:0,0:0:0:0:
188,110,88871,2,0,P|157:126|123:130,1,70,2|0,0:0|0:0,0:0:0:0:
221,246,89179,2,0,P|222:211|237:180,1,70,2|0,0:0|0:0,0:0:0:0:
92,211,89486,6,0,P|127:235|140:327,1,140,2|0,0:0|0:0,0:0:0:0:
70,384,89948,1,2,0:0:0:0:
60,293,90102,1,2,0:0:0:0:
328,189,90409,6,0,P|375:207|425:201,1,70,2|0,0:0|0:0,0:0:0:0:
269,321,90717,2,0,P|261:270|231:230,1,70,2|0,0:0|0:0,0:0:0:0:
418,299,91025,2,0,P|378:330|358:377,1,70,2|0,0:0|0:0,0:0:0:0:
229,256,91333,6,0,P|247:291|244:356,1,83.9999974365235,2|0,0:0|0:0,0:0:0:0:
407,189,91640,2,0,P|366:187|309:153,1,83.9999974365235,2|0,0:0|0:0,0:0:0:0:
381,368,91948,2,0,P|402:333|444:309,1,83.9999974365235,2|0,0:0|0:0,0:0:0:0:
235,231,92256,6,0,P|217:173|277:69,1,167.999994873047,2|0,0:0|0:0,0:0:0:0:
333,46,92717,1,2,0:0:0:0:
356,66,92871,1,0,0:0:0:0:
427,29,93025,1,2,0:0:0:0:
508,106,93179,5,2,0:0:0:0:
485,241,93486,1,2,0:0:0:0:
463,376,93794,1,2,0:0:0:0:
368,367,94102,6,0,L|388:196,1,157.500006008148,4|0,1:1|0:0,0:0:0:0:
329,154,94409,1,8,0:0:0:0:
231,311,94563,2,0,P|177:265|85:271,1,157.500006008148,2|0,1:2|0:0,0:0:0:0:
45,336,94871,1,0,1:0:0:0:
0,129,95025,6,0,P|47:137|97:186,1,105.000004005432,10|0,0:0|1:0,0:0:0:0:
27,318,95332,2,0,L|11:197,1,105.000004005432,2|0,0:0|1:0,0:0:0:0:
176,130,95640,2,0,L|160:251,1,105.000004005432,10|0,0:0|0:0,0:0:0:0:
143,375,95948,5,2,1:2:0:0:
306,285,96102,2,0,P|248:287|203:314,1,105.000004005432,8|0,0:0|0:0,0:0:0:0:
402,379,96409,2,0,L|386:258,1,105.000004005432,2|0,1:2|0:0,0:0:0:0:
281,163,96717,1,0,1:0:0:0:
438,18,96871,6,0,P|404:76|412:129,1,105.000004005432,10|0,0:0|1:0,0:0:0:0:
467,178,97102,1,0,1:0:0:0:
467,178,97178,1,10,0:0:0:0:
296,244,97332,1,0,1:2:0:0:
315,333,97486,1,2,1:2:0:0:
487,262,97640,1,8,0:0:0:0:
324,164,97794,6,0,B|274:158|274:158|217:186|217:186|123:181,1,157.500006008148,2|0,1:2|0:0,0:0:0:0:
113,121,98102,1,8,0:0:0:0:
38,267,98255,2,0,P|53:198|-35:131,1,157.500006008148,2|0,1:2|0:0,0:0:0:0:
49,69,98563,1,0,1:0:0:0:
141,200,98717,6,0,L|268:185,1,105.000004005432,10|0,0:0|1:0,0:0:0:0:
323,17,99025,2,0,P|295:71|316:139,1,105.000004005432,2|0,0:0|1:0,0:0:0:0:
488,93,99332,2,0,L|361:78,1,105.000004005432,10|0,0:0|0:0,0:0:0:0:
284,270,99640,5,2,1:2:0:0:
211,94,99794,1,8,0:0:0:0:
381,172,99948,1,0,0:0:0:0:
210,327,100102,2,0,P|195:261|217:210,1,105.000004005432,2|0,1:2|0:0,0:0:0:0:
300,86,100409,1,0,1:0:0:0:
96,13,100563,6,0,L|112:120,1,105.000004005432,10|0,0:0|1:0,0:0:0:0:
128,200,100794,1,0,1:0:0:0:
128,200,100871,1,8,0:0:0:0:
184,33,101025,1,0,1:0:0:0:
41,173,101178,1,2,1:2:0:0:
13,2,101332,1,10,0:0:0:0:
192,136,101486,6,0,B|236:108|236:108|355:136,1,157.500006008148,2|0,1:2|0:0,0:0:0:0:
415,151,101794,1,8,0:0:0:0:
389,350,101948,2,0,P|329:292|236:309,1,157.500006008148,2|0,1:2|0:0,0:0:0:0:
192,339,102255,1,0,1:0:0:0:
352,213,102409,5,10,0:0:0:0:
306,375,102563,1,0,1:0:0:0:
259,190,102717,1,2,0:0:0:0:
442,248,102871,1,0,1:0:0:0:
377,111,103025,1,10,0:0:0:0:
331,297,103178,1,2,0:0:0:0:
331,297,103255,1,2,0:0:0:0:
331,297,103332,1,2,1:2:0:0:
177,174,103486,6,0,L|158:54,1,105.000004005432,8|0,0:0|0:0,0:0:0:0:
369,7,103794,2,0,L|350:127,1,105.000004005432,2|0,1:2|0:0,0:0:0:0:
322,281,104102,1,0,1:0:0:0:
266,71,104255,5,10,0:0:0:0:
417,180,104409,1,0,1:0:0:0:
417,180,104486,1,0,1:0:0:0:
417,180,104563,1,10,0:0:0:0:
453,14,104717,1,0,1:0:0:0:
311,183,104871,1,2,1:2:0:0:
494,102,105025,1,8,0:0:0:0:
328,16,105178,6,0,B|229:3|257:69|159:43,1,157.500006008148,2|0,1:2|0:0,0:0:0:0:
107,11,105486,1,8,0:0:0:0:
15,233,105640,2,0,B|55:192|55:192|36:75,1,157.500006008148,2|0,1:2|0:0,0:0:0:0:
29,17,105948,1,0,1:0:0:0:
217,122,106102,6,0,P|169:95|117:103,1,105.000004005432,10|0,0:0|1:0,0:0:0:0:
141,282,106409,2,0,L|155:171,1,105.000004005432,2|0,0:0|1:0,0:0:0:0:
179,16,106717,1,10,0:0:0:0:
234,209,106871,1,2,1:2:0:0:
234,209,106948,1,2,0:0:0:0:
234,209,107025,5,10,0:0:0:0:
267,183,107102,1,2,0:2:0:0:
307,173,107178,1,2,1:2:0:0:
348,181,107255,1,2,0:2:0:0:
382,204,107332,1,2,1:2:0:0:
410,234,107409,1,2,0:2:0:0:
450,243,107486,5,10,0:2:0:0:
490,231,107563,1,2,0:2:0:0:
508,193,107640,1,2,1:2:0:0:
500,151,107717,1,2,0:2:0:0:
460,128,107794,1,2,0:2:0:0:
420,146,107871,1,2,0:2:0:0:
402,187,107948,5,10,0:2:0:0:
410,234,108025,1,2,0:2:0:0:
442,261,108102,1,2,1:2:0:0:
462,297,108178,1,2,1:2:0:0:
461,339,108255,5,10,0:2:0:0:
434,373,108332,1,2,0:2:0:0:
389,383,108409,1,2,1:2:0:0:
349,364,108486,1,2,1:2:0:0:
330,331,108563,6,2,P|328:296|336:269,1,52.5000020027161,10|10,0:2|0:2,0:2:0:0:
402,187,108717,2,2,P|370:201|341:203,1,52.5000020027161,10|10,3:2|0:2,0:2:0:0:
156,66,108871,5,4,1:1:0:0:
210,262,109025,1,2,0:0:0:0:
350,117,109178,1,10,0:0:0:0:
114,239,109332,5,2,1:2:0:0:
254,94,109486,1,2,0:0:0:0:
308,290,109640,1,2,1:2:0:0:
130,152,109794,5,10,0:0:0:0:
219,221,109948,1,2,1:2:0:0:
150,310,110102,1,2,0:0:0:0:
61,241,110255,1,2,1:2:0:0:
136,184,110409,5,10,0:0:0:0:
41,46,110563,1,2,1:2:0:0:
41,46,110640,1,2,0:0:0:0:
41,46,110717,2,0,L|55:166,1,105.000004005432,10|0,0:0|1:0,0:0:0:0:
150,271,111025,1,10,0:0:0:0:
311,133,111178,1,2,1:2:0:0:
211,54,111332,5,2,0:2:0:0:
214,81,111408,1,2,0:2:0:0:
217,109,111486,1,2,1:2:0:0:
220,136,111562,1,2,0:2:0:0:
223,164,111640,2,0,L|230:232,1,52.5000020027161,10|2,0:0|0:0,0:0:0:0:
309,299,111794,5,2,1:2:0:0:
309,299,111871,1,2,1:2:0:0:
309,299,111948,2,0,L|302:367,1,52.5000020027161,10|2,0:0|0:0,0:0:0:0:
398,262,112102,5,2,1:2:0:0:
398,262,112179,1,2,1:2:0:0:
398,262,112256,2,0,L|391:330,1,52.5000020027161,10|0,0:0|0:0,0:0:0:0:
316,209,112409,2,10,L|310:156,1,52.5000020027161,10|2,0:0|0:0,0:0:0:0:
394,101,112563,6,0,P|315:116|234:56,1,157.500006008148,2|0,1:2|0:0,0:0:0:0:
193,152,112871,1,8,0:0:0:0:
105,8,113025,2,0,L|116:132,1,105.000004005432,2|0,1:2|0:0,0:0:0:0:
0,190,113332,1,2,1:2:0:0:
226,332,113486,5,10,0:0:0:0:
206,235,113640,1,0,1:0:0:0:
12,269,113794,1,2,1:2:0:0:
32,366,113948,1,2,1:2:0:0:
114,205,114102,1,10,0:0:0:0:
241,351,114255,1,2,1:2:0:0:
241,351,114332,1,10,0:0:0:0:
241,351,114409,5,6,1:2:0:0:
268,322,114486,1,10,0:0:0:0:
303,306,114562,1,2,1:2:0:0:
342,302,114639,1,2,1:2:0:0:
380,313,114717,2,0,P|411:328|430:349,1,52.5000020027161,2|2,1:2|0:0,0:0:0:0:
451,259,114871,5,10,0:2:0:0:
435,221,114948,1,10,0:0:0:0:
434,183,115024,1,2,1:2:0:0:
445,145,115101,1,2,1:2:0:0:
470,115,115179,2,0,P|495:92|522:83,1,52.5000020027161,2|10,1:2|0:0,0:0:0:0:
432,10,115332,5,12,0:0:0:0:
341,264,115640,1,12,0:0:0:0:
80,10,115948,1,12,0:0:0:0:
171,264,116256,5,4,1:0:0:0:
351,179,116409,1,2,0:0:0:0:
263,346,116563,1,10,0:0:0:0:
117,166,116717,2,0,L|231:182,1,105.000004005432,2|0,1:2|0:0,0:0:0:0:
338,284,117025,1,2,1:2:0:0:
404,110,117179,1,10,0:0:0:0:
314,200,117332,1,2,0:0:0:0:
292,32,117486,5,2,1:2:0:0:
443,211,117640,1,2,1:2:0:0:
443,211,117717,1,0,1:0:0:0:
443,211,117794,1,0,1:2:0:0:
503,11,117948,2,0,L|394:28,1,105.000004005432,10|2,0:2|0:0,0:0:0:0:
364,170,118256,5,2,1:2:0:0:
376,134,118332,1,0,1:0:0:0:
362,97,118409,1,10,0:0:0:0:
326,82,118486,1,8,0:0:0:0:
292,100,118563,1,10,0:0:0:0:
254,109,118640,1,8,0:0:0:0:
216,99,118717,1,14,0:0:0:0:
144,54,118871,5,0,0:0:0:0:
95,123,119025,1,2,0:0:0:0:
167,176,119179,1,2,0:0:0:0:
71,322,119332,5,2,0:0:0:0:
120,253,119486,1,2,0:0:0:0:
48,200,119640,1,2,0:0:0:0:
144,54,119794,1,2,0:0:0:0:
267,237,119948,5,2,0:0:0:0:
195,184,120102,1,2,0:0:0:0:
244,115,120256,1,0,0:0:0:0:
313,164,120409,1,2,0:0:0:0:
285,316,120563,5,2,0:0:0:0:
117,197,120717,1,0,0:0:0:0:
391,151,120871,1,2,0:0:0:0:
229,31,121024,1,2,0:0:0:0:
