osu file format v14

[General]
AudioFilename: audio.mp3
AudioLeadIn: 0
PreviewTime: 92207
Countdown: 0
SampleSet: Normal
StackLeniency: 0.7
Mode: 1
LetterboxInBreaks: 0
WidescreenStoryboard: 1

[Editor]
Bookmarks: 25164,30087,35087,94087,99010,103856,108856,112549,116241,118702
DistanceSpacing: 0.8
BeatDivisor: 8
GridSize: 32
TimelineZoom: 1.9

[Metadata]
Title:Qesia
TitleUnicode:Qesia
Artist:ARForest
ArtistUnicode:ARForest
Creator:HEAVENLY MOON
Version:Oni
Source:MUSYNX
Tags:musync artcore video game electronic instrumental featured artist fa mappers' guild mg mpg #ffffff Records ginjani
BeatmapID:3976857
BeatmapSetID:1925928

[Difficulty]
HPDrainRate:5.5
CircleSize:5
OverallDifficulty:5.5
ApproachRate:5
SliderMultiplier:1.4
SliderTickRate:1

[Events]
//Background and Video events
0,0,"qesiaqesia.jpg",0,30
//Break Periods
//Storyboard Layer 0 (Background)
//Storyboard Layer 1 (Fail)
//Storyboard Layer 2 (Pass)
//Storyboard Layer 3 (Foreground)
//Storyboard Layer 4 (Overlay)
//Storyboard Sound Samples

[TimingPoints]
563,307.692307692308,4,1,0,20,1,0
563,-133.333333333333,4,1,0,20,0,0
19010,-133.333333333333,4,1,0,40,0,0
19164,-129.87012987013,4,1,0,40,0,0
19318,-126.582278481013,4,1,0,40,0,0
19472,-123.456790123457,4,1,0,40,0,0
19549,-120.481927710843,4,1,0,40,0,0
19625,-117.647058823529,4,1,0,40,0,0
19933,-108.695652173913,4,1,0,40,0,0
20010,-106.382978723404,4,1,0,40,0,0
20087,-104.166666666667,4,1,0,40,0,0
20164,-102.040816326531,4,1,0,40,0,0
20241,-100,4,1,0,90,0,0
38856,-99.5024875621891,4,1,0,90,0,0
38907,-98.8275104164196,4,1,0,90,0,0
38959,-98.1616290118658,4,1,0,90,0,0
39010,-97.5046607227825,4,1,0,90,0,0
39087,-96.5355327989126,4,1,0,90,0,0
39164,-95.5855715491458,4,1,0,90,0,0
39241,-94.6540347702131,4,1,0,90,0,0
39318,-93.7404794825525,4,1,0,90,0,0
39395,-92.8443900169998,4,1,0,90,0,0
39471,-91.9652702353483,4,1,0,90,0,0
39549,-91.1026426143543,4,1,0,90,0,0
39625,-90.2560473808146,4,1,0,90,0,0
39702,-89.425121662878,4,1,0,90,0,0
39779,-88.6092773913429,4,1,0,90,0,0
39831,-88.0736013471738,4,1,0,90,0,0
39882,-87.544363106004,4,1,0,90,0,0
39933,-87.021447305903,4,1,0,90,0,0
40241,-133.333333333333,4,1,0,60,0,0
49702,-117.647058823529,4,1,0,70,0,0
58702,-114.942528735632,4,1,0,70,0,0
58856,-112.359550561798,4,1,0,70,0,0
58933,-110.987791342952,4,1,0,70,0,0
59010,-109.649122807018,4,1,0,70,0,0
59164,-107.066381156317,4,1,0,70,0,0
59318,-104.602510460251,4,1,0,70,0,0
59395,-103.412616339193,4,1,0,70,0,0
59472,-102.249488752556,4,1,0,70,0,0
59549,-100,4,1,0,90,0,0
59625,-100,4,1,0,70,0,0
77447,-101.010101010101,4,1,0,70,0,0
77524,-102.040816326531,4,1,0,70,0,0
77601,-103.092783505155,4,1,0,70,0,0
77678,-104.166666666667,4,1,0,70,0,0
77755,-105.263157894737,4,1,0,70,0,0
77909,-108.108108108108,4,1,0,70,0,0
77986,-111.111111111111,4,1,0,70,0,0
78409,-107.52688172043,4,1,0,70,0,0
78524,-106.382978723404,4,1,0,70,0,0
78639,-105.263157894737,4,1,0,70,0,0
78793,-104.166666666667,4,1,0,70,0,0
78986,-103.092783505155,4,1,0,70,0,0
79063,-102.040816326531,4,1,0,70,0,0
79139,-101.010101010101,4,1,0,70,0,0
79332,307.692307692308,3,1,0,78,1,0
79332,-100,4,1,0,78,0,0
79472,-133.333333333333,4,1,0,70,0,0
86625,-117.647058823529,4,1,0,76,0,0
92241,-116.279069767442,4,1,0,76,0,0
92395,-114.942528735632,4,1,0,76,0,0
92549,-113.636363636364,4,1,0,76,0,0
92702,-112.359550561798,4,1,0,76,0,0
92856,-111.111111111111,4,1,0,76,0,0
93010,-109.89010989011,4,1,0,76,0,0
93164,-108.695652173913,4,1,0,76,0,0
93472,-106.382978723404,4,1,0,76,0,0
93779,-103.092783505155,4,1,0,76,0,0
94101,307.692307692308,6,1,0,90,1,1
94101,-90.9090909090909,4,1,0,90,0,1
114856,-91.743119266055,4,1,0,90,0,1
114933,-92.5925925925926,4,1,0,90,0,1
115010,-93.4579439252336,4,1,0,90,0,1
115087,-94.3396226415094,4,1,0,90,0,1
115164,-95.2380952380952,4,1,0,90,0,1
115241,-96.1538461538461,4,1,0,90,0,1
115331,-97.0873786407767,4,1,0,90,0,0
115625,-95.2380952380952,4,1,0,90,0,0
115933,-93.0232558139535,4,1,0,90,0,0
116254,307.692307692308,4,1,0,90,1,8
116255,307.692307692308,4,1,0,90,1,1
116255,-90.9090909090909,4,1,0,90,0,1
118241,-90.0900900900901,4,1,0,90,0,1
118318,-89.2857142857143,4,1,0,90,0,1
118395,-88.4955752212389,4,1,0,90,0,1
118472,-87.719298245614,4,1,0,90,0,1
118549,-86.9565217391304,4,1,0,90,0,1
118625,-86.2068965517241,4,1,0,90,0,1
118716,-85.4700854700855,4,1,0,90,0,0
118741,-111.111111111111,4,1,0,77,0,0
119010,-109.89010989011,4,1,0,77,0,0
119164,-108.695652173913,4,1,0,77,0,0
119318,-107.52688172043,4,1,0,77,0,0
119472,-106.382978723404,4,1,0,77,0,0
119625,-105.263157894737,4,1,0,77,0,0
119779,-104.166666666667,4,1,0,77,0,0
119933,-103.092783505155,4,1,0,77,0,0
120087,-102.040816326531,4,1,0,77,0,0
120241,-101.010101010101,4,1,0,77,0,0
120395,-100,4,1,0,77,0,0
120549,-99.009900990099,4,1,0,77,0,0
120702,-98.0392156862745,4,1,0,77,0,0
120856,-97.0873786407767,4,1,0,77,0,0
121010,-96.1538461538461,4,1,0,77,0,0
121164,-95.2380952380952,4,1,0,77,0,0
121202,-83.3333333333333,4,1,0,50,0,0

[HitObjects]
256,192,563,5,2,0:0:0:0:
256,192,716,1,0,0:0:0:0:
256,192,1024,1,2,0:0:0:0:
256,192,1486,1,0,0:0:0:0:
256,192,1793,1,2,0:0:0:0:
256,192,1947,1,0,0:0:0:0:
256,192,2101,1,0,0:0:0:0:
256,192,2255,1,2,0:0:0:0:
256,192,2563,1,0,0:0:0:0:
256,192,2716,1,2,0:0:0:0:
256,192,3024,1,0,0:0:0:0:
256,192,3486,1,2,0:0:0:0:
256,192,3947,1,0,0:0:0:0:
256,192,4101,1,0,0:0:0:0:
256,192,4255,1,2,0:0:0:0:
256,192,4563,1,2,0:0:0:0:
256,192,4716,1,0,0:0:0:0:
256,192,5178,1,0,0:0:0:0:
256,192,5486,1,2,0:0:0:0:
256,192,5639,1,0,0:0:0:0:
256,192,5947,1,2,0:0:0:0:
256,192,6409,1,0,0:0:0:0:
256,192,6716,1,2,0:0:0:0:
256,192,6870,1,0,0:0:0:0:
256,192,7024,1,2,0:0:0:0:
256,192,7178,1,2,0:0:0:0:
256,192,7486,1,0,0:0:0:0:
256,192,7639,1,2,0:0:0:0:
256,192,7947,1,2,0:0:0:0:
256,192,8101,1,0,0:0:0:0:
256,192,8409,1,2,0:0:0:0:
256,192,8870,1,2,0:0:0:0:
256,192,9178,1,0,0:0:0:0:
256,192,9332,1,0,0:0:0:0:
256,192,9486,1,0,0:0:0:0:
256,192,9639,1,2,0:0:0:0:
256,192,10101,1,2,0:0:0:0:
256,192,10409,1,0,0:0:0:0:
256,192,10870,1,0,0:0:0:0:
256,192,11024,1,2,0:0:0:0:
256,192,11332,1,0,0:0:0:0:
256,192,11639,1,2,0:0:0:0:
256,192,11793,1,2,0:0:0:0:
256,192,11947,1,0,0:0:0:0:
256,192,12101,1,2,0:0:0:0:
256,192,12409,1,0,0:0:0:0:
256,192,12563,1,2,0:0:0:0:
256,192,12870,1,2,0:0:0:0:
256,192,13024,1,0,0:0:0:0:
256,192,13332,1,0,0:0:0:0:
256,192,13486,1,2,0:0:0:0:
256,192,13793,1,0,0:0:0:0:
256,192,14101,1,2,0:0:0:0:
256,192,14255,1,0,0:0:0:0:
256,192,14409,1,0,0:0:0:0:
256,192,14716,1,2,0:0:0:0:
256,192,15024,1,0,0:0:0:0:
256,192,15332,1,2,0:0:0:0:
256,192,15486,1,0,0:0:0:0:
256,192,15793,1,0,0:0:0:0:
256,192,15947,1,2,0:0:0:0:
256,192,16255,1,0,0:0:0:0:
256,192,16563,1,2,0:0:0:0:
256,192,16716,1,0,0:0:0:0:
256,192,16870,1,0,0:0:0:0:
256,192,17024,1,2,0:0:0:0:
256,192,17486,1,0,0:0:0:0:
256,192,17793,1,2,0:0:0:0:
256,192,17947,1,2,0:0:0:0:
256,192,18255,1,0,0:0:0:0:
256,192,18563,1,0,0:0:0:0:
256,192,18716,1,2,0:0:0:0:
256,192,19024,5,0,0:0:0:0:
256,192,19178,1,0,0:0:0:0:
256,192,19332,1,2,0:0:0:0:
256,192,19486,1,0,0:0:0:0:
256,192,19563,1,0,0:0:0:0:
256,192,19639,1,0,0:0:0:0:
256,192,19947,1,0,0:0:0:0:
256,192,20024,1,0,0:0:0:0:
256,192,20101,1,0,0:0:0:0:
256,192,20255,1,6,0:0:0:0:
256,192,20409,1,0,0:0:0:0:
256,192,20563,1,2,0:0:0:0:
256,192,20716,1,2,0:0:0:0:
256,192,20793,1,0,0:0:0:0:
256,192,20870,1,0,0:0:0:0:
256,192,21024,1,0,0:0:0:0:
256,192,21178,1,2,0:0:0:0:
256,192,21332,1,0,0:0:0:0:
256,192,21409,1,0,0:0:0:0:
256,192,21486,1,2,0:0:0:0:
256,192,21639,1,2,0:0:0:0:
256,192,21716,1,0,0:0:0:0:
256,192,21947,1,2,0:0:0:0:
256,192,22101,1,2,0:0:0:0:
256,192,22255,1,0,0:0:0:0:
256,192,22409,1,2,0:0:0:0:
256,192,22563,1,2,0:0:0:0:
256,192,22716,1,0,0:0:0:0:
256,192,22870,1,0,0:0:0:0:
256,192,22947,1,0,0:0:0:0:
256,192,23024,1,2,0:0:0:0:
256,192,23178,1,0,0:0:0:0:
256,192,23332,1,0,0:0:0:0:
256,192,23409,1,0,0:0:0:0:
256,192,23486,1,0,0:0:0:0:
256,192,23563,1,0,0:0:0:0:
256,192,23639,1,2,0:0:0:0:
256,192,23793,1,2,0:0:0:0:
256,192,24101,1,2,0:0:0:0:
256,192,24255,1,2,0:0:0:0:
256,192,24409,1,0,0:0:0:0:
256,192,24563,1,2,0:0:0:0:
256,192,24639,1,2,0:0:0:0:
256,192,24716,1,0,0:0:0:0:
256,192,24870,1,2,0:0:0:0:
256,192,25024,1,0,0:0:0:0:
256,192,25101,1,0,0:0:0:0:
256,192,25178,1,2,0:0:0:0:
256,192,25486,1,2,0:0:0:0:
256,192,25563,1,0,0:0:0:0:
256,192,25639,1,2,0:0:0:0:
256,192,25793,1,0,0:0:0:0:
256,192,25947,1,2,0:0:0:0:
256,192,26101,1,2,0:0:0:0:
256,192,26255,1,0,0:0:0:0:
256,192,26332,1,0,0:0:0:0:
256,192,26409,1,2,0:0:0:0:
256,192,26563,1,0,0:0:0:0:
256,192,26639,1,0,0:0:0:0:
256,192,26870,1,2,0:0:0:0:
256,192,27024,1,0,0:0:0:0:
256,192,27178,1,0,0:0:0:0:
256,192,27332,1,2,0:0:0:0:
256,192,27486,1,2,0:0:0:0:
256,192,27639,1,0,0:0:0:0:
256,192,27793,1,0,0:0:0:0:
256,192,27870,1,2,0:0:0:0:
256,192,27947,1,2,0:0:0:0:
256,192,28101,1,0,0:0:0:0:
256,192,28255,1,2,0:0:0:0:
256,192,28409,1,0,0:0:0:0:
256,192,28486,1,0,0:0:0:0:
256,192,28563,1,2,0:0:0:0:
256,192,28639,1,2,0:0:0:0:
256,192,28716,1,0,0:0:0:0:
256,192,28870,1,2,0:0:0:0:
256,192,29024,1,0,0:0:0:0:
256,192,29101,1,0,0:0:0:0:
256,192,29178,1,0,0:0:0:0:
256,192,29332,1,2,0:0:0:0:
256,192,29639,1,0,0:0:0:0:
256,192,29793,1,2,0:0:0:0:
256,192,29870,1,0,0:0:0:0:
256,192,29947,1,0,0:0:0:0:
256,192,30101,1,6,0:0:0:0:
256,192,30409,1,2,0:0:0:0:
256,192,30563,1,2,0:0:0:0:
256,192,30639,1,0,0:0:0:0:
256,192,30716,1,0,0:0:0:0:
256,192,30870,1,0,0:0:0:0:
256,192,31024,1,2,0:0:0:0:
256,192,31178,1,0,0:0:0:0:
256,192,31255,1,0,0:0:0:0:
256,192,31332,1,2,0:0:0:0:
256,192,31486,1,0,0:0:0:0:
256,192,31563,1,2,0:0:0:0:
256,192,31793,1,0,0:0:0:0:
256,192,31947,1,2,0:0:0:0:
256,192,32101,1,2,0:0:0:0:
256,192,32255,1,2,0:0:0:0:
256,192,32409,1,0,0:0:0:0:
256,192,32563,1,2,0:0:0:0:
256,192,32716,1,0,0:0:0:0:
256,192,32793,1,2,0:0:0:0:
256,192,32870,1,0,0:0:0:0:
256,192,33024,1,2,0:0:0:0:
256,192,33178,1,0,0:0:0:0:
256,192,33332,1,0,0:0:0:0:
256,192,33409,1,0,0:0:0:0:
256,192,33486,1,2,0:0:0:0:
256,192,33639,1,2,0:0:0:0:
256,192,33947,1,2,0:0:0:0:
256,192,34101,1,2,0:0:0:0:
256,192,34255,1,0,0:0:0:0:
256,192,34409,1,2,0:0:0:0:
256,192,34486,1,2,0:0:0:0:
256,192,34563,1,0,0:0:0:0:
256,192,34639,1,0,0:0:0:0:
256,192,34716,1,2,0:0:0:0:
256,192,34870,1,0,0:0:0:0:
256,192,35024,1,2,0:0:0:0:
256,192,35332,1,0,0:0:0:0:
256,192,35486,1,2,0:0:0:0:
256,192,35563,1,0,0:0:0:0:
256,192,35639,1,2,0:0:0:0:
256,192,35793,1,0,0:0:0:0:
256,192,35947,1,2,0:0:0:0:
256,192,36101,1,0,0:0:0:0:
256,192,36178,1,0,0:0:0:0:
256,192,36255,1,2,0:0:0:0:
256,192,36409,1,0,0:0:0:0:
256,192,36486,1,0,0:0:0:0:
256,192,36716,1,2,0:0:0:0:
256,192,36793,1,2,0:0:0:0:
256,192,36870,1,0,0:0:0:0:
256,192,37024,1,0,0:0:0:0:
256,192,37178,1,2,0:0:0:0:
256,192,37332,1,2,0:0:0:0:
256,192,37486,1,0,0:0:0:0:
256,192,37639,1,0,0:0:0:0:
256,192,37716,1,0,0:0:0:0:
256,192,37793,1,2,0:0:0:0:
256,192,37947,1,0,0:0:0:0:
256,192,38101,1,2,0:0:0:0:
256,192,38255,1,0,0:0:0:0:
256,192,38409,1,2,0:0:0:0:
256,192,38486,1,0,0:0:0:0:
256,192,38563,1,2,0:0:0:0:
256,192,38716,1,0,0:0:0:0:
256,192,38870,1,2,0:0:0:0:
256,192,38947,1,0,0:0:0:0:
256,192,39024,1,2,0:0:0:0:
256,192,39101,1,2,0:0:0:0:
256,192,39178,1,0,0:0:0:0:
256,192,39332,1,2,0:0:0:0:
256,192,39486,1,0,0:0:0:0:
256,192,39563,1,0,0:0:0:0:
256,192,39639,1,2,0:0:0:0:
256,192,39716,1,2,0:0:0:0:
256,192,39793,1,0,0:0:0:0:
256,192,39947,1,6,0:0:0:0:
256,192,40409,1,2,0:0:0:0:
256,192,40563,1,0,0:0:0:0:
256,192,40870,1,2,0:0:0:0:
256,192,41178,1,0,0:0:0:0:
256,192,41332,1,0,0:0:0:0:
256,192,41793,1,2,0:0:0:0:
256,192,42101,1,0,0:0:0:0:
256,192,42409,1,2,0:0:0:0:
256,192,42563,1,0,0:0:0:0:
256,192,42716,1,0,0:0:0:0:
256,192,42870,1,2,0:0:0:0:
256,192,43178,1,0,0:0:0:0:
256,192,43486,1,2,0:0:0:0:
256,192,43793,1,2,0:0:0:0:
256,192,43947,1,2,0:0:0:0:
256,192,44101,1,0,0:0:0:0:
256,192,44255,1,2,0:0:0:0:
256,192,44409,1,0,0:0:0:0:
256,192,44563,1,0,0:0:0:0:
256,192,44716,1,0,0:0:0:0:
256,192,44870,1,0,0:0:0:0:
256,192,45332,1,0,0:0:0:0:
256,192,45793,1,2,0:0:0:0:
256,192,46101,1,0,0:0:0:0:
256,192,46255,1,0,0:0:0:0:
256,192,46716,1,0,0:0:0:0:
256,192,47024,1,0,0:0:0:0:
256,192,47178,1,2,0:0:0:0:
256,192,47332,1,2,0:0:0:0:
256,192,47639,1,0,0:0:0:0:
256,192,47793,1,2,0:0:0:0:
256,192,48101,1,0,0:0:0:0:
256,192,48409,1,2,0:0:0:0:
256,192,48716,1,0,0:0:0:0:
256,192,48870,1,2,0:0:0:0:
256,192,49024,1,0,0:0:0:0:
256,192,49101,1,0,0:0:0:0:
256,192,49178,1,2,0:0:0:0:
256,192,49332,1,0,0:0:0:0:
256,192,49409,1,0,0:0:0:0:
256,192,49486,1,2,0:0:0:0:
256,192,49639,1,0,0:0:0:0:
256,192,49793,1,6,0:0:0:0:
256,192,50101,1,0,0:0:0:0:
256,192,50255,1,0,0:0:0:0:
256,192,50409,1,2,0:0:0:0:
256,192,50716,1,0,0:0:0:0:
256,192,51024,1,0,0:0:0:0:
256,192,51178,1,2,0:0:0:0:
256,192,51332,1,0,0:0:0:0:
256,192,51639,1,2,0:0:0:0:
256,192,51947,1,0,0:0:0:0:
256,192,52255,1,2,0:0:0:0:
256,192,52563,1,0,0:0:0:0:
256,192,52716,1,2,0:0:0:0:
256,192,53024,1,0,0:0:0:0:
256,192,53332,1,2,0:0:0:0:
256,192,53639,1,2,0:0:0:0:
256,192,53793,1,0,0:0:0:0:
256,192,54101,1,2,0:0:0:0:
256,192,54255,1,2,0:0:0:0:
256,192,54409,1,0,0:0:0:0:
256,192,54563,1,2,0:0:0:0:
256,192,54716,1,0,0:0:0:0:
256,192,55024,1,0,0:0:0:0:
256,192,55332,1,2,0:0:0:0:
256,192,55486,1,0,0:0:0:0:
256,192,55639,1,2,0:0:0:0:
256,192,55793,1,2,0:0:0:0:
256,192,56101,1,2,0:0:0:0:
256,192,56409,1,2,0:0:0:0:
256,192,56563,1,0,0:0:0:0:
256,192,56716,1,2,0:0:0:0:
256,192,57024,1,2,0:0:0:0:
256,192,57332,1,2,0:0:0:0:
256,192,57486,1,0,0:0:0:0:
256,192,57793,1,2,0:0:0:0:
256,192,58101,1,0,0:0:0:0:
256,192,58255,1,2,0:0:0:0:
256,192,58409,1,0,0:0:0:0:
256,192,58716,1,2,0:0:0:0:
256,192,58870,1,0,0:0:0:0:
256,192,58947,1,0,0:0:0:0:
256,192,59024,1,0,0:0:0:0:
256,192,59178,1,2,0:0:0:0:
256,192,59332,1,0,0:0:0:0:
256,192,59409,1,0,0:0:0:0:
256,192,59486,1,0,0:0:0:0:
256,192,59639,1,6,0:0:0:0:
256,192,59947,1,0,0:0:0:0:
256,192,60101,1,2,0:0:0:0:
256,192,60409,1,0,0:0:0:0:
256,192,60563,1,2,0:0:0:0:
256,192,60716,1,0,0:0:0:0:
256,192,60870,1,2,0:0:0:0:
256,192,61024,1,2,0:0:0:0:
256,192,61101,1,0,0:0:0:0:
256,192,61332,1,2,0:0:0:0:
256,192,61639,1,2,0:0:0:0:
256,192,61793,1,0,0:0:0:0:
256,192,61870,1,2,0:0:0:0:
256,192,61947,1,0,0:0:0:0:
256,192,62101,1,2,0:0:0:0:
256,192,62255,1,2,0:0:0:0:
256,192,62409,1,0,0:0:0:0:
256,192,62563,1,2,0:0:0:0:
256,192,62870,1,0,0:0:0:0:
256,192,63024,1,2,0:0:0:0:
256,192,63178,1,0,0:0:0:0:
256,192,63332,1,2,0:0:0:0:
256,192,63486,1,0,0:0:0:0:
256,192,63639,1,2,0:0:0:0:
256,192,63793,1,2,0:0:0:0:
256,192,64101,1,0,0:0:0:0:
256,192,64255,1,0,0:0:0:0:
256,192,64409,1,0,0:0:0:0:
256,192,64486,1,0,0:0:0:0:
256,192,64563,1,2,0:0:0:0:
256,192,64870,1,0,0:0:0:0:
256,192,65024,1,2,0:0:0:0:
256,192,65332,1,0,0:0:0:0:
256,192,65486,1,2,0:0:0:0:
256,192,65639,1,2,0:0:0:0:
256,192,65793,1,0,0:0:0:0:
256,192,65947,1,2,0:0:0:0:
256,192,66024,1,0,0:0:0:0:
256,192,66255,1,2,0:0:0:0:
256,192,66563,1,2,0:0:0:0:
256,192,66716,1,2,0:0:0:0:
256,192,66870,1,0,0:0:0:0:
256,192,67024,1,2,0:0:0:0:
256,192,67101,1,0,0:0:0:0:
256,192,67178,1,0,0:0:0:0:
256,192,67332,1,0,0:0:0:0:
256,192,67486,1,2,0:0:0:0:
256,192,67793,1,0,0:0:0:0:
256,192,67947,1,2,0:0:0:0:
256,192,68101,1,2,0:0:0:0:
256,192,68255,1,0,0:0:0:0:
256,192,68409,1,2,0:0:0:0:
256,192,68486,1,2,0:0:0:0:
256,192,68563,1,0,0:0:0:0:
256,192,68716,1,2,0:0:0:0:
256,192,69024,1,0,0:0:0:0:
256,192,69178,1,2,0:0:0:0:
256,192,69255,1,0,0:0:0:0:
256,192,69332,1,0,0:0:0:0:
256,192,69486,1,6,0:0:0:0:
256,192,69793,1,0,0:0:0:0:
256,192,69947,1,2,0:0:0:0:
256,192,70255,1,0,0:0:0:0:
256,192,70409,1,2,0:0:0:0:
256,192,70563,1,2,0:0:0:0:
256,192,70716,1,0,0:0:0:0:
256,192,70870,1,2,0:0:0:0:
256,192,70947,1,0,0:0:0:0:
256,192,71178,1,2,0:0:0:0:
256,192,71486,1,2,0:0:0:0:
256,192,71639,1,0,0:0:0:0:
256,192,71793,1,0,0:0:0:0:
256,192,71947,1,2,0:0:0:0:
256,192,72101,1,2,0:0:0:0:
256,192,72178,1,2,0:0:0:0:
256,192,72255,1,0,0:0:0:0:
256,192,72409,1,2,0:0:0:0:
256,192,72716,1,2,0:0:0:0:
256,192,72870,1,0,0:0:0:0:
256,192,73024,1,2,0:0:0:0:
256,192,73332,1,2,0:0:0:0:
256,192,73486,1,2,0:0:0:0:
256,192,73639,1,0,0:0:0:0:
256,192,73793,1,2,0:0:0:0:
256,192,73947,1,0,0:0:0:0:
256,192,74101,1,2,0:0:0:0:
256,192,74178,1,2,0:0:0:0:
256,192,74255,1,0,0:0:0:0:
256,192,74409,1,6,0:0:0:0:
256,192,74716,1,0,0:0:0:0:
256,192,74870,1,2,0:0:0:0:
256,192,75178,1,0,0:0:0:0:
256,192,75332,1,0,0:0:0:0:
256,192,75486,1,2,0:0:0:0:
256,192,75639,1,2,0:0:0:0:
256,192,75793,1,0,0:0:0:0:
256,192,75870,1,0,0:0:0:0:
256,192,76101,1,2,0:0:0:0:
256,192,76409,1,0,0:0:0:0:
256,192,76563,1,2,0:0:0:0:
256,192,76716,1,0,0:0:0:0:
256,192,76870,1,2,0:0:0:0:
256,192,76947,1,2,0:0:0:0:
256,192,77024,1,0,0:0:0:0:
256,192,77178,1,2,0:0:0:0:
256,192,77332,1,0,0:0:0:0:
256,192,77486,1,2,0:0:0:0:
256,192,77563,1,2,0:0:0:0:
256,192,77639,1,0,0:0:0:0:
256,192,77716,1,0,0:0:0:0:
256,192,77793,1,2,0:0:0:0:
256,192,77947,1,2,0:0:0:0:
256,192,78101,1,4,0:0:0:0:
256,192,78409,1,0,0:0:0:0:
256,192,78563,1,0,0:0:0:0:
256,192,78716,1,2,0:0:0:0:
256,192,78870,1,2,0:0:0:0:
256,192,79024,1,0,0:0:0:0:
256,192,79101,1,0,0:0:0:0:
256,192,79178,1,0,0:0:0:0:
256,192,79332,1,6,0:0:0:0:
256,192,79639,1,0,0:0:0:0:
256,192,79947,1,2,0:0:0:0:
256,192,80255,1,0,0:0:0:0:
256,192,80562,1,0,0:0:0:0:
256,192,80716,1,2,0:0:0:0:
256,192,80870,1,2,0:0:0:0:
256,192,81178,1,0,0:0:0:0:
256,192,81332,1,2,0:0:0:0:
256,192,81485,1,0,0:0:0:0:
256,192,81639,1,0,0:0:0:0:
256,192,81793,1,0,0:0:0:0:
256,192,81947,1,2,0:0:0:0:
256,192,82101,1,2,0:0:0:0:
256,192,82408,1,0,0:0:0:0:
256,192,82562,1,0,0:0:0:0:
256,192,82716,1,2,0:0:0:0:
256,192,83024,1,2,0:0:0:0:
256,192,83332,1,2,0:0:0:0:
256,192,83485,1,2,0:0:0:0:
256,192,83639,1,2,0:0:0:0:
256,192,83947,1,2,0:0:0:0:
256,192,84255,1,0,0:0:0:0:
256,192,84408,1,2,0:0:0:0:
256,192,84562,1,2,0:0:0:0:
256,192,84870,1,0,0:0:0:0:
256,192,85024,1,2,0:0:0:0:
256,192,85178,1,2,0:0:0:0:
256,192,85332,1,0,0:0:0:0:
256,192,85485,1,0,0:0:0:0:
256,192,85639,1,2,0:0:0:0:
256,192,85793,1,2,0:0:0:0:
256,192,86101,1,0,0:0:0:0:
256,192,86562,1,2,0:0:0:0:
256,192,86716,1,4,0:0:0:0:
256,192,87024,1,0,0:0:0:0:
256,192,87332,1,2,0:0:0:0:
256,192,87639,1,2,0:0:0:0:
256,192,88101,1,2,0:0:0:0:
256,192,88178,1,0,0:0:0:0:
256,192,88255,1,2,0:0:0:0:
256,192,88562,1,0,0:0:0:0:
256,192,88716,1,0,0:0:0:0:
256,192,88870,1,0,0:0:0:0:
256,192,89024,1,0,0:0:0:0:
256,192,89178,1,2,0:0:0:0:
256,192,89332,1,0,0:0:0:0:
256,192,89485,1,0,0:0:0:0:
256,192,89793,1,2,0:0:0:0:
256,192,89947,1,0,0:0:0:0:
256,192,90101,1,0,0:0:0:0:
256,192,90255,1,2,0:0:0:0:
256,192,90408,1,2,0:0:0:0:
256,192,90562,1,0,0:0:0:0:
256,192,90870,1,2,0:0:0:0:
256,192,90947,1,2,0:0:0:0:
256,192,91024,1,2,0:0:0:0:
256,192,91178,1,0,0:0:0:0:
256,192,91332,1,2,0:0:0:0:
256,192,91793,1,2,0:0:0:0:
256,192,91947,1,2,0:0:0:0:
256,192,92101,1,2,0:0:0:0:
256,192,92255,1,0,0:0:0:0:
256,192,92562,1,0,0:0:0:0:
256,192,92716,1,0,0:0:0:0:
256,192,92870,1,0,0:0:0:0:
256,192,93024,1,0,0:0:0:0:
256,192,93178,1,2,0:0:0:0:
256,192,93485,1,2,0:0:0:0:
256,192,93793,1,0,0:0:0:0:
256,192,94101,1,6,0:0:0:0:
256,192,94254,1,0,0:0:0:0:
256,192,94331,1,2,0:0:0:0:
256,192,94408,1,0,0:0:0:0:
256,192,94562,1,2,0:0:0:0:
256,192,94716,1,0,0:0:0:0:
256,192,94870,1,0,0:0:0:0:
256,192,94947,1,2,0:0:0:0:
256,192,95024,1,2,0:0:0:0:
256,192,95177,1,0,0:0:0:0:
256,192,95331,1,2,0:0:0:0:
256,192,95485,1,0,0:0:0:0:
256,192,95562,1,0,0:0:0:0:
256,192,95639,1,2,0:0:0:0:
256,192,95793,1,2,0:0:0:0:
256,192,95947,1,0,0:0:0:0:
256,192,96101,1,2,0:0:0:0:
256,192,96177,1,0,0:0:0:0:
256,192,96254,1,0,0:0:0:0:
256,192,96408,1,2,0:0:0:0:
256,192,96716,1,0,0:0:0:0:
256,192,96870,1,2,0:0:0:0:
256,192,97024,1,0,0:0:0:0:
256,192,97101,1,0,0:0:0:0:
256,192,97177,1,2,0:0:0:0:
256,192,97331,1,2,0:0:0:0:
256,192,97485,1,0,0:0:0:0:
256,192,97639,1,2,0:0:0:0:
256,192,97716,1,2,0:0:0:0:
256,192,97793,1,0,0:0:0:0:
256,192,98101,1,2,0:0:0:0:
256,192,98254,1,0,0:0:0:0:
256,192,98331,1,0,0:0:0:0:
256,192,98408,1,2,0:0:0:0:
256,192,98562,1,0,0:0:0:0:
256,192,98716,1,2,0:0:0:0:
256,192,98870,1,2,0:0:0:0:
256,192,99024,1,0,0:0:0:0:
256,192,99331,1,2,0:0:0:0:
256,192,99408,1,2,0:0:0:0:
256,192,99485,1,0,0:0:0:0:
256,192,99639,1,0,0:0:0:0:
256,192,99793,1,2,0:0:0:0:
256,192,99947,1,0,0:0:0:0:
256,192,100101,1,2,0:0:0:0:
256,192,100408,1,0,0:0:0:0:
256,192,100562,1,2,0:0:0:0:
256,192,100716,1,0,0:0:0:0:
256,192,100793,1,2,0:0:0:0:
256,192,100870,1,2,0:0:0:0:
256,192,101024,1,0,0:0:0:0:
256,192,101177,1,0,0:0:0:0:
256,192,101254,1,0,0:0:0:0:
256,192,101331,1,2,0:0:0:0:
256,192,101408,1,0,0:0:0:0:
256,192,101485,1,2,0:0:0:0:
256,192,101639,1,0,0:0:0:0:
256,192,101793,1,0,0:0:0:0:
256,192,101870,1,0,0:0:0:0:
256,192,101947,1,2,0:0:0:0:
256,192,102101,1,0,0:0:0:0:
256,192,102254,1,2,0:0:0:0:
256,192,102331,1,0,0:0:0:0:
256,192,102408,1,0,0:0:0:0:
256,192,102562,1,0,0:0:0:0:
256,192,102716,1,2,0:0:0:0:
256,192,102870,1,0,0:0:0:0:
256,192,102947,1,2,0:0:0:0:
256,192,103024,1,0,0:0:0:0:
256,192,103177,1,2,0:0:0:0:
256,192,103331,1,0,0:0:0:0:
256,192,103485,1,2,0:0:0:0:
256,192,103562,1,2,0:0:0:0:
256,192,103639,1,0,0:0:0:0:
256,192,103793,1,2,0:0:0:0:
256,192,104101,1,0,0:0:0:0:
256,192,104254,1,2,0:0:0:0:
256,192,104408,1,0,0:0:0:0:
256,192,104485,1,0,0:0:0:0:
256,192,104562,1,2,0:0:0:0:
256,192,104716,1,0,0:0:0:0:
256,192,104870,1,2,0:0:0:0:
256,192,104947,1,0,0:0:0:0:
256,192,105024,1,2,0:0:0:0:
256,192,105177,1,0,0:0:0:0:
256,192,105331,1,0,0:0:0:0:
256,192,105485,1,2,0:0:0:0:
256,192,105639,1,0,0:0:0:0:
256,192,105947,1,0,0:0:0:0:
256,192,106101,1,2,0:0:0:0:
256,192,106254,1,2,0:0:0:0:
256,192,106408,1,0,0:0:0:0:
256,192,106485,1,0,0:0:0:0:
256,192,106562,1,0,0:0:0:0:
256,192,106716,1,2,0:0:0:0:
256,192,107024,1,2,0:0:0:0:
256,192,107101,1,2,0:0:0:0:
256,192,107177,1,0,0:0:0:0:
256,192,107254,1,0,0:0:0:0:
256,192,107331,1,2,0:0:0:0:
256,192,107485,1,2,0:0:0:0:
256,192,107639,1,0,0:0:0:0:
256,192,107716,1,0,0:0:0:0:
256,192,107793,1,0,0:0:0:0:
256,192,107870,1,0,0:0:0:0:
256,192,107947,1,2,0:0:0:0:
256,192,108101,1,0,0:0:0:0:
256,192,108254,1,2,0:0:0:0:
256,192,108331,1,2,0:0:0:0:
256,192,108408,1,0,0:0:0:0:
256,192,108562,1,2,0:0:0:0:
256,192,108639,1,0,0:0:0:0:
256,192,108716,1,0,0:0:0:0:
256,192,108870,1,6,0:0:0:0:
256,192,109177,1,2,0:0:0:0:
256,192,109331,1,2,0:0:0:0:
256,192,109408,1,0,0:0:0:0:
256,192,109485,1,2,0:0:0:0:
256,192,109639,1,0,0:0:0:0:
256,192,109793,1,2,0:0:0:0:
256,192,109870,1,0,0:0:0:0:
256,192,109947,1,0,0:0:0:0:
256,192,110101,1,2,0:0:0:0:
256,192,110254,1,0,0:0:0:0:
256,192,110408,1,2,0:0:0:0:
256,192,110562,1,2,0:0:0:0:
256,192,110639,1,2,0:0:0:0:
256,192,110716,1,0,0:0:0:0:
256,192,110870,1,0,0:0:0:0:
256,192,111024,1,2,0:0:0:0:
256,192,111177,1,0,0:0:0:0:
256,192,111331,1,2,0:0:0:0:
256,192,111408,1,0,0:0:0:0:
256,192,111485,1,2,0:0:0:0:
256,192,111639,1,2,0:0:0:0:
256,192,111947,1,2,0:0:0:0:
256,192,112101,1,0,0:0:0:0:
256,192,112177,1,2,0:0:0:0:
256,192,112254,1,0,0:0:0:0:
256,192,112408,1,2,0:0:0:0:
256,192,112562,1,0,0:0:0:0:
256,192,112870,1,2,0:0:0:0:
256,192,113024,1,2,0:0:0:0:
256,192,113101,1,0,0:0:0:0:
256,192,113177,1,0,0:0:0:0:
256,192,113331,1,2,0:0:0:0:
256,192,113485,1,2,0:0:0:0:
256,192,113639,1,0,0:0:0:0:
256,192,113793,1,2,0:0:0:0:
256,192,113870,1,2,0:0:0:0:
256,192,113947,1,0,0:0:0:0:
256,192,114101,1,2,0:0:0:0:
256,192,114254,1,0,0:0:0:0:
256,192,114408,1,2,0:0:0:0:
256,192,114485,1,2,0:0:0:0:
256,192,114562,1,2,0:0:0:0:
256,192,114639,1,2,0:0:0:0:
256,192,114716,1,0,0:0:0:0:
256,192,114870,1,2,0:0:0:0:
256,192,115024,1,0,0:0:0:0:
256,192,115101,1,0,0:0:0:0:
256,192,115177,1,0,0:0:0:0:
256,192,115331,1,6,0:0:0:0:
256,192,115639,1,6,0:0:0:0:
256,192,115947,1,6,0:0:0:0:
256,192,116255,1,6,0:0:0:0:
256,192,116408,1,0,0:0:0:0:
256,192,116562,1,2,0:0:0:0:
256,192,116639,1,2,0:0:0:0:
256,192,116716,1,0,0:0:0:0:
256,192,116870,1,2,0:0:0:0:
256,192,117024,1,2,0:0:0:0:
256,192,117178,1,0,0:0:0:0:
256,192,117255,1,2,0:0:0:0:
256,192,117331,1,0,0:0:0:0:
256,192,117485,1,0,0:0:0:0:
256,192,117639,1,2,0:0:0:0:
256,192,117716,1,2,0:0:0:0:
256,192,117793,1,0,0:0:0:0:
256,192,117947,1,2,0:0:0:0:
256,192,118101,1,0,0:0:0:0:
256,192,118255,1,0,0:0:0:0:
256,192,118331,1,0,0:0:0:0:
256,192,118408,1,2,0:0:0:0:
256,192,118485,1,2,0:0:0:0:
256,192,118562,1,0,0:0:0:0:
256,192,118716,1,6,0:0:0:0:
256,192,119024,1,2,0:0:0:0:
256,192,119178,1,0,0:0:0:0:
256,192,119331,1,2,0:0:0:0:
256,192,119485,1,0,0:0:0:0:
256,192,119639,1,2,0:0:0:0:
256,192,119793,1,0,0:0:0:0:
256,192,119947,1,2,0:0:0:0:
256,192,120101,1,2,0:0:0:0:
256,192,120255,1,2,0:0:0:0:
256,192,120408,1,0,0:0:0:0:
256,192,120562,1,2,0:0:0:0:
256,192,120716,1,2,0:0:0:0:
256,192,120870,1,2,0:0:0:0:
256,192,121024,1,2,0:0:0:0:
256,192,121178,1,0,0:0:0:0:
256,192,121255,12,0,123024,0:0:0:0:
