osu file format v14

[General]
AudioFilename: audio.mp3
AudioLeadIn: 0
PreviewTime: 92207
Countdown: 0
SampleSet: Normal
StackLeniency: 0.7
Mode: 1
LetterboxInBreaks: 0
WidescreenStoryboard: 1

[Editor]
Bookmarks: 25164,30087,35087,39933,44856,49779,54702,59625,94087,99010,103856,108856,112549,116241,118702
DistanceSpacing: 0.8
BeatDivisor: 4
GridSize: 32
TimelineZoom: 1.9

[Metadata]
Title:Qesia
TitleUnicode:Qesia
Artist:ARForest
ArtistUnicode:ARForest
Creator:HEAVENLY MOON
Version:Futsuu
Source:MUSYNX
Tags:musync artcore video game electronic instrumental featured artist fa mappers' guild mg mpg #ffffff Records ginjani
BeatmapID:3976895
BeatmapSetID:1925928

[Difficulty]
HPDrainRate:7
CircleSize:5
OverallDifficulty:3.5
ApproachRate:5
SliderMultiplier:1.4
SliderTickRate:1

[Events]
//Background and Video events
0,0,"qesiaqesia.jpg",0,30
//Break Periods
//Storyboard Layer 0 (Background)
//Storyboard Layer 1 (Fail)
//Storyboard Layer 2 (Pass)
//Storyboard Layer 3 (Foreground)
//Storyboard Layer 4 (Overlay)
//Storyboard Sound Samples

[TimingPoints]
563,307.692307692308,4,1,0,20,1,0
563,-111.111111111111,4,1,0,20,0,0
17486,-109.89010989011,4,1,0,20,0,0
17793,-108.695652173913,4,1,0,20,0,0
18255,-107.52688172043,4,1,0,20,0,0
18563,-106.382978723404,4,1,0,20,0,0
18716,-105.263157894737,4,1,0,20,0,0
19010,-100,4,1,0,40,0,0
20241,-100,4,1,0,90,0,0
40241,-100,4,1,0,60,0,0
49702,-100,4,1,0,70,0,0
59625,-100,4,1,0,90,0,0
78010,-100,4,1,0,78,0,0
79332,307.692307692308,3,1,0,78,1,0
79472,-100,4,1,0,70,0,0
86625,-100,4,1,0,76,0,0
94101,307.692307692308,6,1,0,90,1,1
94101,-100,4,1,0,90,0,1
115331,-100,4,1,0,90,0,0
116254,307.692307692308,4,1,0,90,1,8
116255,307.692307692308,4,1,0,90,1,1
116255,-100,4,1,0,90,0,1
118716,-100,4,1,0,90,0,0
118741,-100,4,1,0,77,0,0
121202,-100,4,1,0,50,0,0

[HitObjects]
256,192,563,5,2,0:0:0:0:
256,192,1024,1,2,0:0:0:0:
256,192,1486,1,0,0:0:0:0:
256,192,1793,1,2,0:0:0:0:
256,192,1947,1,0,0:0:0:0:
256,192,2255,1,2,0:0:0:0:
256,192,2716,1,2,0:0:0:0:
256,192,3024,1,0,0:0:0:0:
256,192,3486,1,2,0:0:0:0:
256,192,3947,1,0,0:0:0:0:
256,192,4255,1,2,0:0:0:0:
256,192,4563,1,2,0:0:0:0:
256,192,4716,1,0,0:0:0:0:
256,192,5178,1,0,0:0:0:0:
256,192,5486,1,2,0:0:0:0:
256,192,5947,1,2,0:0:0:0:
256,192,6409,1,0,0:0:0:0:
256,192,6716,1,2,0:0:0:0:
256,192,6870,1,0,0:0:0:0:
256,192,7178,1,2,0:0:0:0:
256,192,7639,1,2,0:0:0:0:
256,192,7947,1,2,0:0:0:0:
256,192,8101,1,2,0:0:0:0:
256,192,8409,1,2,0:0:0:0:
256,192,8870,1,2,0:0:0:0:
256,192,9178,1,0,0:0:0:0:
256,192,9639,1,2,0:0:0:0:
256,192,10101,1,2,0:0:0:0:
256,192,10409,1,0,0:0:0:0:
256,192,11024,1,2,0:0:0:0:
256,192,11332,1,0,0:0:0:0:
256,192,11639,1,2,0:0:0:0:
256,192,11793,1,2,0:0:0:0:
256,192,12101,1,2,0:0:0:0:
256,192,12563,1,2,0:0:0:0:
256,192,12870,1,2,0:0:0:0:
256,192,13024,1,0,0:0:0:0:
256,192,13486,1,2,0:0:0:0:
256,192,13793,1,0,0:0:0:0:
256,192,14101,1,2,0:0:0:0:
256,192,14255,1,0,0:0:0:0:
256,192,14409,1,0,0:0:0:0:
256,192,14716,1,2,0:0:0:0:
256,192,15024,1,0,0:0:0:0:
256,192,15332,1,2,0:0:0:0:
256,192,15947,1,2,0:0:0:0:
256,192,16255,1,0,0:0:0:0:
256,192,16563,1,2,0:0:0:0:
256,192,16716,1,2,0:0:0:0:
256,192,17024,1,2,0:0:0:0:
256,192,17486,1,0,0:0:0:0:
256,192,17793,1,2,0:0:0:0:
256,192,18255,1,0,0:0:0:0:
256,192,18563,1,0,0:0:0:0:
256,192,18716,1,2,0:0:0:0:
256,192,19024,5,0,0:0:0:0:
256,192,19332,1,2,0:0:0:0:
256,192,19486,1,0,0:0:0:0:
256,192,19639,1,0,0:0:0:0:
256,192,20255,1,6,0:0:0:0:
256,192,20563,1,2,0:0:0:0:
256,192,20716,1,2,0:0:0:0:
256,192,21024,1,0,0:0:0:0:
256,192,21178,1,2,0:0:0:0:
256,192,21332,1,0,0:0:0:0:
256,192,21639,1,2,0:0:0:0:
256,192,22101,1,2,0:0:0:0:
256,192,22255,1,0,0:0:0:0:
256,192,22409,1,2,0:0:0:0:
256,192,22716,1,0,0:0:0:0:
256,192,23178,1,2,0:0:0:0:
256,192,23486,1,0,0:0:0:0:
256,192,23639,1,2,0:0:0:0:
256,192,23793,1,2,0:0:0:0:
256,192,24101,1,2,0:0:0:0:
256,192,24255,1,0,0:0:0:0:
256,192,24563,1,0,0:0:0:0:
256,192,24716,1,0,0:0:0:0:
256,192,24870,1,2,0:0:0:0:
256,192,25178,1,2,0:0:0:0:
256,192,25947,1,2,0:0:0:0:
256,192,26255,1,0,0:0:0:0:
256,192,26409,1,0,0:0:0:0:
256,192,26563,1,2,0:0:0:0:
256,192,26870,1,0,0:0:0:0:
256,192,27332,1,2,0:0:0:0:
256,192,27639,1,0,0:0:0:0:
256,192,27793,1,2,0:0:0:0:
256,192,27947,1,2,0:0:0:0:
256,192,28255,1,2,0:0:0:0:
256,192,28409,1,0,0:0:0:0:
256,192,28563,1,2,0:0:0:0:
256,192,28870,1,2,0:0:0:0:
256,192,29178,1,0,0:0:0:0:
256,192,29332,1,2,0:0:0:0:
256,192,29639,1,0,0:0:0:0:
256,192,29793,1,2,0:0:0:0:
256,192,29947,1,0,0:0:0:0:
256,192,30101,1,6,0:0:0:0:
256,192,30870,1,0,0:0:0:0:
256,192,31024,1,2,0:0:0:0:
256,192,31178,1,0,0:0:0:0:
256,192,31486,1,2,0:0:0:0:
256,192,31947,1,2,0:0:0:0:
256,192,32101,1,2,0:0:0:0:
256,192,32255,1,0,0:0:0:0:
256,192,32563,1,2,0:0:0:0:
256,192,33024,1,2,0:0:0:0:
256,192,33332,1,0,0:0:0:0:
256,192,33486,1,2,0:0:0:0:
256,192,33639,1,2,0:0:0:0:
256,192,33947,1,2,0:0:0:0:
256,192,34101,1,0,0:0:0:0:
256,192,34409,1,2,0:0:0:0:
256,192,34563,1,0,0:0:0:0:
256,192,34716,1,2,0:0:0:0:
256,192,35024,1,2,0:0:0:0:
256,192,35639,1,2,0:0:0:0:
256,192,35947,1,0,0:0:0:0:
256,192,36101,1,2,0:0:0:0:
256,192,36255,1,0,0:0:0:0:
256,192,36563,1,2,0:0:0:0:
256,192,36716,1,2,0:0:0:0:
256,192,37178,1,2,0:0:0:0:
256,192,37486,1,0,0:0:0:0:
256,192,37639,1,2,0:0:0:0:
256,192,37793,1,2,0:0:0:0:
256,192,38101,1,0,0:0:0:0:
256,192,38409,1,2,0:0:0:0:
256,192,38716,1,2,0:0:0:0:
256,192,38870,1,0,0:0:0:0:
256,192,39024,1,0,0:0:0:0:
256,192,39178,1,0,0:0:0:0:
256,192,39332,1,2,0:0:0:0:
256,192,39639,1,0,0:0:0:0:
256,192,39947,1,6,0:0:0:0:
256,192,40563,1,0,0:0:0:0:
256,192,40870,1,2,0:0:0:0:
256,192,41332,1,0,0:0:0:0:
256,192,41793,1,0,0:0:0:0:
256,192,42101,1,0,0:0:0:0:
256,192,42409,1,2,0:0:0:0:
256,192,42870,1,2,0:0:0:0:
256,192,43178,1,0,0:0:0:0:
256,192,43486,1,2,0:0:0:0:
256,192,43947,1,2,0:0:0:0:
256,192,44255,1,2,0:0:0:0:
256,192,44563,1,0,0:0:0:0:
256,192,44716,1,0,0:0:0:0:
256,192,44870,1,0,0:0:0:0:
256,192,45486,1,0,0:0:0:0:
256,192,45793,1,2,0:0:0:0:
256,192,46255,1,0,0:0:0:0:
256,192,46716,1,0,0:0:0:0:
256,192,47024,1,0,0:0:0:0:
256,192,47332,1,2,0:0:0:0:
256,192,47793,1,2,0:0:0:0:
256,192,48101,1,0,0:0:0:0:
256,192,48409,1,2,0:0:0:0:
256,192,48870,1,2,0:0:0:0:
256,192,49178,1,2,0:0:0:0:
256,192,49486,1,0,0:0:0:0:
256,192,49793,1,6,0:0:0:0:
256,192,50409,1,2,0:0:0:0:
256,192,50716,1,0,0:0:0:0:
256,192,51024,1,0,0:0:0:0:
256,192,51178,1,0,0:0:0:0:
256,192,51332,1,0,0:0:0:0:
256,192,51639,1,2,0:0:0:0:
256,192,51947,1,0,0:0:0:0:
256,192,52255,1,2,0:0:0:0:
256,192,52716,1,0,0:0:0:0:
256,192,53024,1,0,0:0:0:0:
256,192,53332,1,2,0:0:0:0:
256,192,53793,1,2,0:0:0:0:
256,192,54101,1,2,0:0:0:0:
256,192,54255,1,2,0:0:0:0:
256,192,54563,1,2,0:0:0:0:
256,192,54716,1,0,0:0:0:0:
256,192,55332,1,0,0:0:0:0:
256,192,55639,1,2,0:0:0:0:
256,192,55793,1,2,0:0:0:0:
256,192,56101,1,2,0:0:0:0:
256,192,56409,1,2,0:0:0:0:
256,192,56716,1,0,0:0:0:0:
256,192,57024,1,2,0:0:0:0:
256,192,57486,1,2,0:0:0:0:
256,192,57793,1,2,0:0:0:0:
256,192,58101,1,0,0:0:0:0:
256,192,58409,1,0,0:0:0:0:
256,192,58716,1,2,0:0:0:0:
256,192,58870,1,0,0:0:0:0:
256,192,59178,1,2,0:0:0:0:
256,192,59639,1,6,0:0:0:0:
256,192,60255,1,0,0:0:0:0:
256,192,60563,1,2,0:0:0:0:
256,192,60870,1,2,0:0:0:0:
256,192,61024,1,0,0:0:0:0:
256,192,61332,1,0,0:0:0:0:
256,192,61639,1,2,0:0:0:0:
256,192,61947,1,2,0:0:0:0:
256,192,62101,1,0,0:0:0:0:
256,192,62563,1,2,0:0:0:0:
256,192,62870,1,0,0:0:0:0:
256,192,63024,1,2,0:0:0:0:
256,192,63332,1,0,0:0:0:0:
256,192,63639,1,2,0:0:0:0:
256,192,63793,1,2,0:0:0:0:
256,192,64101,1,0,0:0:0:0:
256,192,64255,1,0,0:0:0:0:
256,192,64409,1,0,0:0:0:0:
256,192,64563,1,2,0:0:0:0:
256,192,65178,1,0,0:0:0:0:
256,192,65486,1,2,0:0:0:0:
256,192,65793,1,0,0:0:0:0:
256,192,65947,1,0,0:0:0:0:
256,192,66255,1,2,0:0:0:0:
256,192,66563,1,2,0:0:0:0:
256,192,66870,1,0,0:0:0:0:
256,192,67024,1,2,0:0:0:0:
256,192,67178,1,0,0:0:0:0:
256,192,67486,1,2,0:0:0:0:
256,192,67793,1,0,0:0:0:0:
256,192,67947,1,2,0:0:0:0:
256,192,68255,1,0,0:0:0:0:
256,192,68409,1,2,0:0:0:0:
256,192,68563,1,2,0:0:0:0:
256,192,68716,1,0,0:0:0:0:
256,192,69024,1,0,0:0:0:0:
256,192,69178,1,2,0:0:0:0:
256,192,69486,1,6,0:0:0:0:
256,192,70101,1,0,0:0:0:0:
256,192,70409,1,2,0:0:0:0:
256,192,70716,1,2,0:0:0:0:
256,192,70870,1,0,0:0:0:0:
256,192,71178,1,0,0:0:0:0:
256,192,71486,1,2,0:0:0:0:
256,192,71793,1,0,0:0:0:0:
256,192,71947,1,0,0:0:0:0:
256,192,72409,1,2,0:0:0:0:
256,192,72716,1,0,0:0:0:0:
256,192,72870,1,2,0:0:0:0:
256,192,73178,1,0,0:0:0:0:
256,192,73486,1,2,0:0:0:0:
256,192,73639,1,2,0:0:0:0:
256,192,73947,1,0,0:0:0:0:
256,192,74101,1,0,0:0:0:0:
256,192,74255,1,0,0:0:0:0:
256,192,74409,1,2,0:0:0:0:
256,192,75024,1,0,0:0:0:0:
256,192,75332,1,2,0:0:0:0:
256,192,75639,1,0,0:0:0:0:
256,192,75793,1,0,0:0:0:0:
256,192,76101,1,2,0:0:0:0:
256,192,76409,1,2,0:0:0:0:
256,192,76716,1,0,0:0:0:0:
256,192,76870,1,2,0:0:0:0:
256,192,77024,1,0,0:0:0:0:
256,192,77332,1,2,0:0:0:0:
256,192,77639,1,0,0:0:0:0:
256,192,77793,1,2,0:0:0:0:
256,192,78101,1,4,0:0:0:0:
256,192,78716,1,0,0:0:0:0:
256,192,79024,1,0,0:0:0:0:
256,192,79332,1,6,0:0:0:0:
256,192,79947,1,2,0:0:0:0:
256,192,80255,1,0,0:0:0:0:
256,192,80562,1,0,0:0:0:0:
256,192,80716,1,0,0:0:0:0:
256,192,80870,1,0,0:0:0:0:
256,192,81178,1,0,0:0:0:0:
256,192,81485,1,2,0:0:0:0:
256,192,81793,1,0,0:0:0:0:
256,192,82101,1,2,0:0:0:0:
256,192,82716,1,2,0:0:0:0:
256,192,83024,1,0,0:0:0:0:
256,192,83332,1,2,0:0:0:0:
256,192,83485,1,2,0:0:0:0:
256,192,83639,1,2,0:0:0:0:
256,192,83947,1,2,0:0:0:0:
256,192,84255,1,0,0:0:0:0:
256,192,84562,1,2,0:0:0:0:
256,192,84870,1,2,0:0:0:0:
256,192,85024,1,2,0:0:0:0:
256,192,85178,1,2,0:0:0:0:
256,192,85485,1,0,0:0:0:0:
256,192,85793,1,2,0:0:0:0:
256,192,86101,1,0,0:0:0:0:
256,192,86716,1,4,0:0:0:0:
256,192,87024,1,0,0:0:0:0:
256,192,87332,1,2,0:0:0:0:
256,192,87639,1,2,0:0:0:0:
256,192,88101,1,2,0:0:0:0:
256,192,88255,1,2,0:0:0:0:
256,192,88562,1,0,0:0:0:0:
256,192,88870,1,0,0:0:0:0:
256,192,89178,1,2,0:0:0:0:
256,192,89793,1,2,0:0:0:0:
256,192,90101,1,0,0:0:0:0:
256,192,90408,1,2,0:0:0:0:
256,192,90562,1,0,0:0:0:0:
256,192,90870,1,2,0:0:0:0:
256,192,91024,1,2,0:0:0:0:
256,192,91332,1,0,0:0:0:0:
256,192,91793,1,2,0:0:0:0:
256,192,91947,1,2,0:0:0:0:
256,192,92255,1,0,0:0:0:0:
256,192,92562,1,0,0:0:0:0:
256,192,92716,1,0,0:0:0:0:
256,192,92870,1,0,0:0:0:0:
256,192,93178,1,2,0:0:0:0:
256,192,93485,1,2,0:0:0:0:
256,192,94101,1,6,0:0:0:0:
256,192,94408,1,0,0:0:0:0:
256,192,94562,1,0,0:0:0:0:
256,192,94716,1,2,0:0:0:0:
256,192,95024,1,2,0:0:0:0:
256,192,95331,1,2,0:0:0:0:
256,192,95485,1,0,0:0:0:0:
256,192,95639,1,2,0:0:0:0:
256,192,95793,1,2,0:0:0:0:
256,192,95947,1,0,0:0:0:0:
256,192,96254,1,0,0:0:0:0:
256,192,96408,1,2,0:0:0:0:
256,192,96716,1,0,0:0:0:0:
256,192,96870,1,2,0:0:0:0:
256,192,97024,1,2,0:0:0:0:
256,192,97177,1,2,0:0:0:0:
256,192,97331,1,0,0:0:0:0:
256,192,97639,1,2,0:0:0:0:
256,192,97793,1,0,0:0:0:0:
256,192,98101,1,2,0:0:0:0:
256,192,98254,1,0,0:0:0:0:
256,192,98408,1,2,0:0:0:0:
256,192,98716,1,2,0:0:0:0:
256,192,99024,1,0,0:0:0:0:
256,192,99639,1,0,0:0:0:0:
256,192,99793,1,2,0:0:0:0:
256,192,99947,1,0,0:0:0:0:
256,192,100101,1,2,0:0:0:0:
256,192,100408,1,0,0:0:0:0:
256,192,100562,1,0,0:0:0:0:
256,192,100716,1,2,0:0:0:0:
256,192,100870,1,2,0:0:0:0:
256,192,101024,1,0,0:0:0:0:
256,192,101331,1,2,0:0:0:0:
256,192,101485,1,0,0:0:0:0:
256,192,101793,1,0,0:0:0:0:
256,192,101947,1,2,0:0:0:0:
256,192,102254,1,2,0:0:0:0:
256,192,102408,1,2,0:0:0:0:
256,192,102562,1,0,0:0:0:0:
256,192,102716,1,2,0:0:0:0:
256,192,103024,1,0,0:0:0:0:
256,192,103177,1,0,0:0:0:0:
256,192,103331,1,2,0:0:0:0:
256,192,103485,1,2,0:0:0:0:
256,192,103793,1,2,0:0:0:0:
256,192,104562,1,2,0:0:0:0:
256,192,104716,1,2,0:0:0:0:
256,192,104870,1,0,0:0:0:0:
256,192,105024,1,0,0:0:0:0:
256,192,105177,1,2,0:0:0:0:
256,192,105485,1,2,0:0:0:0:
256,192,105639,1,0,0:0:0:0:
256,192,105947,1,0,0:0:0:0:
256,192,106101,1,2,0:0:0:0:
256,192,106254,1,2,0:0:0:0:
256,192,106408,1,0,0:0:0:0:
256,192,106716,1,2,0:0:0:0:
256,192,107024,1,2,0:0:0:0:
256,192,107177,1,2,0:0:0:0:
256,192,107331,1,0,0:0:0:0:
256,192,107639,1,2,0:0:0:0:
256,192,107793,1,2,0:0:0:0:
256,192,107947,1,0,0:0:0:0:
256,192,108101,1,0,0:0:0:0:
256,192,108254,1,2,0:0:0:0:
256,192,108562,1,0,0:0:0:0:
256,192,108870,1,6,0:0:0:0:
256,192,109485,1,2,0:0:0:0:
256,192,109793,1,0,0:0:0:0:
256,192,109947,1,0,0:0:0:0:
256,192,110101,1,2,0:0:0:0:
256,192,110408,1,2,0:0:0:0:
256,192,110716,1,0,0:0:0:0:
256,192,111024,1,0,0:0:0:0:
256,192,111177,1,0,0:0:0:0:
256,192,111331,1,2,0:0:0:0:
256,192,111485,1,2,0:0:0:0:
256,192,111639,1,0,0:0:0:0:
256,192,111947,1,2,0:0:0:0:
256,192,112101,1,0,0:0:0:0:
256,192,112254,1,2,0:0:0:0:
256,192,112562,1,0,0:0:0:0:
256,192,113177,1,0,0:0:0:0:
256,192,113485,1,2,0:0:0:0:
256,192,113793,1,0,0:0:0:0:
256,192,113947,1,0,0:0:0:0:
256,192,114101,1,2,0:0:0:0:
256,192,114254,1,0,0:0:0:0:
256,192,114408,1,2,0:0:0:0:
256,192,114870,1,2,0:0:0:0:
256,192,115024,1,0,0:0:0:0:
256,192,115177,1,0,0:0:0:0:
256,192,115331,1,6,0:0:0:0:
256,192,115639,1,6,0:0:0:0:
256,192,115947,1,6,0:0:0:0:
256,192,116254,1,6,0:0:0:0:
256,192,116870,1,0,0:0:0:0:
256,192,117024,1,0,0:0:0:0:
256,192,117178,1,2,0:0:0:0:
256,192,117331,1,2,0:0:0:0:
256,192,117485,1,0,0:0:0:0:
256,192,117793,1,2,0:0:0:0:
256,192,118101,1,2,0:0:0:0:
256,192,118255,1,0,0:0:0:0:
256,192,118408,1,0,0:0:0:0:
256,192,118562,1,0,0:0:0:0:
256,192,118716,1,6,0:0:0:0:
256,192,119331,1,2,0:0:0:0:
256,192,119639,1,0,0:0:0:0:
256,192,119947,1,2,0:0:0:0:
256,192,120255,1,2,0:0:0:0:
256,192,120562,1,0,0:0:0:0:
256,192,120870,1,2,0:0:0:0:
256,192,121024,1,2,0:0:0:0:
256,192,121178,1,0,0:0:0:0:
256,192,121331,12,0,123024,0:0:0:0:
