osu file format v14

[General]
AudioFilename: audio.mp3
AudioLeadIn: 0
PreviewTime: 115109
Countdown: 0
SampleSet: Normal
StackLeniency: 0.7
Mode: 1
LetterboxInBreaks: 0
WidescreenStoryboard: 1

[Editor]
DistanceSpacing: 0.8
BeatDivisor: 4
GridSize: 32
TimelineZoom: 3.2

[Metadata]
Title:Prometheus
TitleUnicode:Prometheus
Artist:ARForest
ArtistUnicode:ARForest
Creator:duski
Version:Oni
Source:OverRapid
Tags:featured artist fa osu! mappers' guild mg mpg electronic instrumental artcore
BeatmapID:2580192
BeatmapSetID:1241026

[Difficulty]
HPDrainRate:5.5
CircleSize:6
OverallDifficulty:5.5
ApproachRate:6
SliderMultiplier:1.4
SliderTickRate:1

[Events]
//Background and Video events
0,0,"prometheus.jpg",0,0
//Break Periods
2,15850,23248
2,24498,31897
2,59093,62167
2,67742,70816
2,106660,113519
//Storyboard Layer 0 (Background)
//Storyboard Layer 1 (Fail)
//Storyboard Layer 2 (Pass)
//Storyboard Layer 3 (Foreground)
//Storyboard Layer 4 (Overlay)
//Storyboard Sound Samples

[TimingPoints]
515,270.27027027027,4,1,0,20,1,0
7001,-100,4,1,0,30,0,0
15717,-100,4,1,0,10,0,0
24231,-100,4,1,0,40,0,0
24366,-100,4,1,0,10,0,0
26460,-100,4,1,0,15,0,0
27542,-100,4,1,0,20,0,0
28623,-100,4,1,0,25,0,0
29704,-100,4,1,0,30,0,0
30785,-100,4,1,0,35,0,0
31866,-100,4,1,0,40,0,0
32879,-100,4,1,0,50,0,0
33014,-100,4,1,0,20,0,0
36663,-100,4,1,0,70,0,0
54636,-50,4,1,0,10,0,0
54771,-100,4,1,0,10,0,0
63150,-100,4,1,0,30,0,0
63285,-50,4,1,0,10,0,0
63420,-100,4,1,0,10,0,0
71798,-100,4,1,0,50,0,0
71933,-100,4,1,0,30,0,0
78352,-100,4,1,0,35,0,0
80514,-100,4,1,0,40,0,0
84839,-100,4,1,0,45,0,0
87001,-100,4,1,0,50,0,0
89096,-100,4,1,0,70,0,0
89231,-100,4,1,0,60,0,0
106528,-100,4,1,0,10,0,0
114501,-100,4,1,0,70,0,0
115109,-100,4,1,0,70,0,1
132406,-100,4,1,0,70,0,0

[HitObjects]
256,192,515,5,0,0:0:0:0:
256,192,1596,1,8,0:0:0:0:
256,192,2677,1,8,0:0:0:0:
256,192,3758,1,0,0:0:0:0:
256,192,7001,12,0,15379,0:0:0:0:
256,192,15650,5,0,0:0:0:0:
256,192,24298,5,4,0:0:0:0:
256,192,32947,5,4,0:0:0:0:
256,192,36731,1,8,0:0:0:0:
256,192,36798,1,8,0:0:0:0:
256,192,36866,1,8,0:0:0:0:
256,192,36933,1,8,0:0:0:0:
256,192,37001,1,8,0:0:0:0:
256,192,37069,1,8,0:0:0:0:
256,192,37136,1,8,0:0:0:0:
256,192,37271,1,4,0:0:0:0:
256,192,37542,1,8,0:0:0:0:
256,192,37677,1,0,0:0:0:0:
256,192,37744,1,0,0:0:0:0:
256,192,37812,1,8,0:0:0:0:
256,192,37947,1,0,0:0:0:0:
256,192,38082,1,8,0:0:0:0:
256,192,38217,1,8,0:0:0:0:
256,192,38352,1,0,0:0:0:0:
256,192,38487,1,0,0:0:0:0:
256,192,38555,1,0,0:0:0:0:
256,192,38623,1,8,0:0:0:0:
256,192,38758,1,8,0:0:0:0:
256,192,38893,1,0,0:0:0:0:
256,192,39028,1,0,0:0:0:0:
256,192,39163,1,8,0:0:0:0:
256,192,39433,1,0,0:0:0:0:
256,192,39569,1,0,0:0:0:0:
256,192,39636,1,0,0:0:0:0:
256,192,39704,1,8,0:0:0:0:
256,192,39839,1,0,0:0:0:0:
256,192,39906,1,8,0:0:0:0:
256,192,39974,1,0,0:0:0:0:
256,192,40109,1,0,0:0:0:0:
256,192,40244,1,8,0:0:0:0:
256,192,40379,1,8,0:0:0:0:
256,192,40447,1,8,0:0:0:0:
256,192,40514,1,0,0:0:0:0:
256,192,40650,1,8,0:0:0:0:
256,192,40717,1,0,0:0:0:0:
256,192,40785,1,8,0:0:0:0:
256,192,40920,1,0,0:0:0:0:
256,192,41055,1,8,0:0:0:0:
256,192,41190,1,0,0:0:0:0:
256,192,41325,1,8,0:0:0:0:
256,192,41596,1,8,0:0:0:0:
256,192,41731,1,0,0:0:0:0:
256,192,41798,1,0,0:0:0:0:
256,192,41866,1,8,0:0:0:0:
256,192,42001,1,8,0:0:0:0:
256,192,42069,1,8,0:0:0:0:
256,192,42136,1,0,0:0:0:0:
256,192,42271,1,0,0:0:0:0:
256,192,42406,1,8,0:0:0:0:
256,192,42542,1,0,0:0:0:0:
256,192,42609,1,8,0:0:0:0:
256,192,42677,1,0,0:0:0:0:
256,192,42812,1,0,0:0:0:0:
256,192,42947,1,8,0:0:0:0:
256,192,43082,1,8,0:0:0:0:
256,192,43150,1,8,0:0:0:0:
256,192,43217,1,0,0:0:0:0:
256,192,43352,1,0,0:0:0:0:
256,192,43487,1,8,0:0:0:0:
256,192,43758,1,0,0:0:0:0:
256,192,43893,1,0,0:0:0:0:
256,192,43960,1,0,0:0:0:0:
256,192,44028,1,8,0:0:0:0:
256,192,44163,1,0,0:0:0:0:
256,192,44231,1,8,0:0:0:0:
256,192,44298,1,0,0:0:0:0:
256,192,44433,1,8,0:0:0:0:
256,192,44501,1,0,0:0:0:0:
256,192,44569,1,8,0:0:0:0:
256,192,44704,1,0,0:0:0:0:
256,192,44839,1,8,0:0:0:0:
256,192,44974,1,0,0:0:0:0:
256,192,45042,1,0,0:0:0:0:
256,192,45109,1,8,0:0:0:0:
256,192,45244,1,0,0:0:0:0:
256,192,45379,1,12,0:0:0:0:
256,192,45514,1,0,0:0:0:0:
256,192,45650,1,12,0:0:0:0:
256,192,45920,1,4,0:0:0:0:
256,192,46055,1,0,0:0:0:0:
256,192,46190,1,8,0:0:0:0:
256,192,46325,1,0,0:0:0:0:
256,192,46393,1,0,0:0:0:0:
256,192,46460,1,8,0:0:0:0:
256,192,46596,1,0,0:0:0:0:
256,192,46731,1,8,0:0:0:0:
256,192,46866,1,8,0:0:0:0:
256,192,47001,1,0,0:0:0:0:
256,192,47136,1,0,0:0:0:0:
256,192,47204,1,0,0:0:0:0:
256,192,47271,1,8,0:0:0:0:
256,192,47406,1,8,0:0:0:0:
256,192,47542,1,0,0:0:0:0:
256,192,47677,1,0,0:0:0:0:
256,192,47812,1,8,0:0:0:0:
256,192,48082,1,0,0:0:0:0:
256,192,48217,1,0,0:0:0:0:
256,192,48285,1,0,0:0:0:0:
256,192,48352,1,8,0:0:0:0:
256,192,48487,1,0,0:0:0:0:
256,192,48555,1,8,0:0:0:0:
256,192,48623,1,0,0:0:0:0:
256,192,48758,1,0,0:0:0:0:
256,192,48893,1,8,0:0:0:0:
256,192,49028,1,8,0:0:0:0:
256,192,49096,1,8,0:0:0:0:
256,192,49163,1,0,0:0:0:0:
256,192,49298,1,8,0:0:0:0:
256,192,49366,1,0,0:0:0:0:
256,192,49433,1,8,0:0:0:0:
256,192,49569,1,0,0:0:0:0:
256,192,49704,1,8,0:0:0:0:
256,192,49839,1,0,0:0:0:0:
256,192,49974,1,8,0:0:0:0:
256,192,50244,1,8,0:0:0:0:
256,192,50379,1,0,0:0:0:0:
256,192,50447,1,0,0:0:0:0:
256,192,50514,1,8,0:0:0:0:
256,192,50650,1,8,0:0:0:0:
256,192,50717,1,8,0:0:0:0:
256,192,50785,1,0,0:0:0:0:
256,192,50920,1,0,0:0:0:0:
256,192,51055,1,8,0:0:0:0:
256,192,51190,1,0,0:0:0:0:
256,192,51258,1,8,0:0:0:0:
256,192,51325,1,0,0:0:0:0:
256,192,51460,1,0,0:0:0:0:
256,192,51596,1,8,0:0:0:0:
256,192,51731,1,8,0:0:0:0:
256,192,51798,1,8,0:0:0:0:
256,192,51866,1,0,0:0:0:0:
256,192,52001,1,0,0:0:0:0:
256,192,52136,1,8,0:0:0:0:
256,192,52406,1,0,0:0:0:0:
256,192,52542,1,0,0:0:0:0:
256,192,52609,1,0,0:0:0:0:
256,192,52677,1,8,0:0:0:0:
256,192,52812,1,0,0:0:0:0:
256,192,52879,1,8,0:0:0:0:
256,192,52947,1,0,0:0:0:0:
256,192,53082,1,8,0:0:0:0:
256,192,53150,1,0,0:0:0:0:
256,192,53217,1,8,0:0:0:0:
256,192,53352,1,8,0:0:0:0:
256,192,53487,1,0,0:0:0:0:
256,192,53623,1,0,0:0:0:0:
256,192,53758,1,8,0:0:0:0:
256,192,53893,1,0,0:0:0:0:
256,192,53960,1,0,0:0:0:0:
256,192,54028,1,8,0:0:0:0:
256,192,54163,1,0,0:0:0:0:
256,192,54298,1,8,0:0:0:0:
256,192,54366,1,8,0:0:0:0:
256,192,54433,1,8,0:0:0:0:
256,192,54501,1,8,0:0:0:0:
256,192,54569,1,0,0:0:0:0:
256,192,54704,12,0,58893,0:0:0:0:
256,192,63217,5,12,0:0:0:0:
256,192,63352,12,0,67542,0:0:0:0:
256,192,71866,5,4,0:0:0:0:
256,192,72271,1,8,0:0:0:0:
256,192,72542,1,0,0:0:0:0:
256,192,72812,1,0,0:0:0:0:
256,192,73082,1,8,0:0:0:0:
256,192,73352,1,0,0:0:0:0:
256,192,73623,1,0,0:0:0:0:
256,192,73758,1,8,0:0:0:0:
256,192,74028,1,0,0:0:0:0:
256,192,74298,1,0,0:0:0:0:
256,192,74433,1,8,0:0:0:0:
256,192,74704,1,0,0:0:0:0:
256,192,74974,1,0,0:0:0:0:
256,192,75244,1,8,0:0:0:0:
256,192,75514,1,0,0:0:0:0:
256,192,75785,1,0,0:0:0:0:
256,192,75920,1,8,0:0:0:0:
256,192,76190,1,0,0:0:0:0:
256,192,76460,1,0,0:0:0:0:
256,192,76596,1,8,0:0:0:0:
256,192,76866,1,0,0:0:0:0:
256,192,77136,1,0,0:0:0:0:
256,192,77406,1,8,0:0:0:0:
256,192,77677,1,0,0:0:0:0:
256,192,77947,1,0,0:0:0:0:
256,192,78082,1,8,0:0:0:0:
256,192,78352,1,0,0:0:0:0:
256,192,78623,1,8,0:0:0:0:
256,192,78758,1,0,0:0:0:0:
256,192,79028,1,0,0:0:0:0:
256,192,79298,1,0,0:0:0:0:
256,192,79569,1,8,0:0:0:0:
256,192,79839,1,8,0:0:0:0:
256,192,80109,1,8,0:0:0:0:
256,192,80244,1,0,0:0:0:0:
256,192,80379,1,8,0:0:0:0:
256,192,80514,1,0,0:0:0:0:
256,192,80785,1,8,0:0:0:0:
256,192,80920,1,0,0:0:0:0:
256,192,81190,1,0,0:0:0:0:
256,192,81460,1,0,0:0:0:0:
256,192,81731,1,8,0:0:0:0:
256,192,82001,1,0,0:0:0:0:
256,192,82271,1,0,0:0:0:0:
256,192,82406,1,8,0:0:0:0:
256,192,82677,1,0,0:0:0:0:
256,192,82947,1,8,0:0:0:0:
256,192,83082,1,0,0:0:0:0:
256,192,83352,1,0,0:0:0:0:
256,192,83623,1,0,0:0:0:0:
256,192,83893,1,8,0:0:0:0:
256,192,84163,1,0,0:0:0:0:
256,192,84433,1,0,0:0:0:0:
256,192,84569,1,8,0:0:0:0:
256,192,84839,1,8,0:0:0:0:
256,192,85109,1,8,0:0:0:0:
256,192,85244,1,0,0:0:0:0:
256,192,85514,1,8,0:0:0:0:
256,192,85785,1,0,0:0:0:0:
256,192,86055,1,8,0:0:0:0:
256,192,86325,1,0,0:0:0:0:
256,192,86596,1,0,0:0:0:0:
256,192,86731,1,8,0:0:0:0:
256,192,87001,1,8,0:0:0:0:
256,192,87271,1,8,0:0:0:0:
256,192,87406,1,0,0:0:0:0:
256,192,87677,1,8,0:0:0:0:
256,192,87947,1,0,0:0:0:0:
256,192,88217,1,8,0:0:0:0:
256,192,88487,1,8,0:0:0:0:
256,192,88758,1,8,0:0:0:0:
256,192,88893,1,0,0:0:0:0:
256,192,89163,1,12,0:0:0:0:
256,192,89433,1,0,0:0:0:0:
256,192,89569,1,0,0:0:0:0:
256,192,89636,1,0,0:0:0:0:
256,192,89704,1,8,0:0:0:0:
256,192,89974,1,0,0:0:0:0:
256,192,90109,1,0,0:0:0:0:
256,192,90177,1,0,0:0:0:0:
256,192,90244,1,8,0:0:0:0:
256,192,90514,1,0,0:0:0:0:
256,192,90650,1,0,0:0:0:0:
256,192,90717,1,0,0:0:0:0:
256,192,90785,1,8,0:0:0:0:
256,192,90852,1,8,0:0:0:0:
256,192,90920,1,0,0:0:0:0:
256,192,91055,1,8,0:0:0:0:
256,192,91190,1,0,0:0:0:0:
256,192,91258,1,8,0:0:0:0:
256,192,91325,1,8,0:0:0:0:
256,192,91596,1,0,0:0:0:0:
256,192,91731,1,0,0:0:0:0:
256,192,91798,1,8,0:0:0:0:
256,192,91866,1,8,0:0:0:0:
256,192,92136,1,0,0:0:0:0:
256,192,92271,1,0,0:0:0:0:
256,192,92339,1,8,0:0:0:0:
256,192,92406,1,8,0:0:0:0:
256,192,92677,1,0,0:0:0:0:
256,192,92812,1,0,0:0:0:0:
256,192,92879,1,0,0:0:0:0:
256,192,92947,1,8,0:0:0:0:
256,192,93014,1,8,0:0:0:0:
256,192,93082,1,0,0:0:0:0:
256,192,93217,1,0,0:0:0:0:
256,192,93352,1,8,0:0:0:0:
256,192,93420,1,0,0:0:0:0:
256,192,93487,1,8,0:0:0:0:
256,192,93758,1,0,0:0:0:0:
256,192,93893,1,8,0:0:0:0:
256,192,93960,1,0,0:0:0:0:
256,192,94028,1,8,0:0:0:0:
256,192,94298,1,0,0:0:0:0:
256,192,94433,1,8,0:0:0:0:
256,192,94501,1,0,0:0:0:0:
256,192,94569,1,8,0:0:0:0:
256,192,94839,1,0,0:0:0:0:
256,192,94974,1,8,0:0:0:0:
256,192,95042,1,0,0:0:0:0:
256,192,95109,1,8,0:0:0:0:
256,192,95177,1,8,0:0:0:0:
256,192,95244,1,0,0:0:0:0:
256,192,95379,1,0,0:0:0:0:
256,192,95514,1,8,0:0:0:0:
256,192,95582,1,8,0:0:0:0:
256,192,95650,1,8,0:0:0:0:
256,192,95920,1,0,0:0:0:0:
256,192,96055,1,8,0:0:0:0:
256,192,96123,1,8,0:0:0:0:
256,192,96190,1,8,0:0:0:0:
256,192,96460,1,0,0:0:0:0:
256,192,96596,1,8,0:0:0:0:
256,192,96663,1,8,0:0:0:0:
256,192,96731,1,8,0:0:0:0:
256,192,97001,1,8,0:0:0:0:
256,192,97136,1,0,0:0:0:0:
256,192,97204,1,0,0:0:0:0:
256,192,97271,1,8,0:0:0:0:
256,192,97339,1,8,0:0:0:0:
256,192,97406,1,0,0:0:0:0:
256,192,97542,1,8,0:0:0:0:
256,192,97677,1,8,0:0:0:0:
256,192,97744,1,8,0:0:0:0:
256,192,97812,1,0,0:0:0:0:
256,192,98082,1,0,0:0:0:0:
256,192,98217,1,0,0:0:0:0:
256,192,98285,1,0,0:0:0:0:
256,192,98352,1,8,0:0:0:0:
256,192,98623,1,0,0:0:0:0:
256,192,98758,1,0,0:0:0:0:
256,192,98825,1,0,0:0:0:0:
256,192,98893,1,8,0:0:0:0:
256,192,99163,1,0,0:0:0:0:
256,192,99298,1,0,0:0:0:0:
256,192,99366,1,0,0:0:0:0:
256,192,99433,1,8,0:0:0:0:
256,192,99501,1,8,0:0:0:0:
256,192,99569,1,0,0:0:0:0:
256,192,99704,1,0,0:0:0:0:
256,192,99839,1,0,0:0:0:0:
256,192,99906,1,8,0:0:0:0:
256,192,99974,1,8,0:0:0:0:
256,192,100244,1,0,0:0:0:0:
256,192,100379,1,0,0:0:0:0:
256,192,100447,1,8,0:0:0:0:
256,192,100514,1,8,0:0:0:0:
256,192,100785,1,0,0:0:0:0:
256,192,100920,1,0,0:0:0:0:
256,192,100987,1,8,0:0:0:0:
256,192,101055,1,8,0:0:0:0:
256,192,101325,1,0,0:0:0:0:
256,192,101460,1,0,0:0:0:0:
256,192,101528,1,0,0:0:0:0:
256,192,101596,1,8,0:0:0:0:
256,192,101663,1,8,0:0:0:0:
256,192,101731,1,0,0:0:0:0:
256,192,101866,1,0,0:0:0:0:
256,192,102001,1,8,0:0:0:0:
256,192,102069,1,0,0:0:0:0:
256,192,102136,1,8,0:0:0:0:
256,192,102406,1,0,0:0:0:0:
256,192,102542,1,8,0:0:0:0:
256,192,102609,1,0,0:0:0:0:
256,192,102677,1,8,0:0:0:0:
256,192,102947,1,0,0:0:0:0:
256,192,103082,1,8,0:0:0:0:
256,192,103150,1,0,0:0:0:0:
256,192,103217,1,8,0:0:0:0:
256,192,103487,1,0,0:0:0:0:
256,192,103623,1,8,0:0:0:0:
256,192,103690,1,0,0:0:0:0:
256,192,103758,1,8,0:0:0:0:
256,192,103825,1,8,0:0:0:0:
256,192,103893,1,0,0:0:0:0:
256,192,104028,1,0,0:0:0:0:
256,192,104163,1,8,0:0:0:0:
256,192,104231,1,8,0:0:0:0:
256,192,104298,1,8,0:0:0:0:
256,192,104569,1,0,0:0:0:0:
256,192,104704,1,8,0:0:0:0:
256,192,104771,1,8,0:0:0:0:
256,192,104839,1,8,0:0:0:0:
256,192,105109,1,0,0:0:0:0:
256,192,105244,1,8,0:0:0:0:
256,192,105312,1,8,0:0:0:0:
256,192,105379,1,8,0:0:0:0:
256,192,105650,1,0,0:0:0:0:
256,192,105785,1,0,0:0:0:0:
256,192,105852,1,0,0:0:0:0:
256,192,105920,1,8,0:0:0:0:
256,192,105987,1,8,0:0:0:0:
256,192,106055,1,0,0:0:0:0:
256,192,106190,1,8,0:0:0:0:
256,192,106325,1,8,0:0:0:0:
256,192,106393,1,8,0:0:0:0:
256,192,106460,1,0,0:0:0:0:
256,192,114569,5,8,0:0:0:0:
256,192,114636,1,8,0:0:0:0:
256,192,114704,1,8,0:0:0:0:
256,192,114771,1,8,0:0:0:0:
256,192,114839,1,8,0:0:0:0:
256,192,114906,1,8,0:0:0:0:
256,192,114974,1,8,0:0:0:0:
256,192,115109,1,4,0:0:0:0:
256,192,115379,1,8,0:0:0:0:
256,192,115514,1,0,0:0:0:0:
256,192,115582,1,0,0:0:0:0:
256,192,115650,1,8,0:0:0:0:
256,192,115785,1,0,0:0:0:0:
256,192,115920,1,8,0:0:0:0:
256,192,116055,1,0,0:0:0:0:
256,192,116190,1,8,0:0:0:0:
256,192,116258,1,8,0:0:0:0:
256,192,116325,1,0,0:0:0:0:
256,192,116460,1,0,0:0:0:0:
256,192,116596,1,8,0:0:0:0:
256,192,116866,1,0,0:0:0:0:
256,192,117001,1,8,0:0:0:0:
256,192,117136,1,0,0:0:0:0:
256,192,117271,1,8,0:0:0:0:
256,192,117339,1,8,0:0:0:0:
256,192,117406,1,0,0:0:0:0:
256,192,117542,1,0,0:0:0:0:
256,192,117677,1,8,0:0:0:0:
256,192,117947,1,0,0:0:0:0:
256,192,118014,1,0,0:0:0:0:
256,192,118082,1,8,0:0:0:0:
256,192,118217,1,0,0:0:0:0:
256,192,118352,1,8,0:0:0:0:
256,192,118420,1,8,0:0:0:0:
256,192,118487,1,0,0:0:0:0:
256,192,118623,1,0,0:0:0:0:
256,192,118758,1,8,0:0:0:0:
256,192,119028,1,0,0:0:0:0:
256,192,119096,1,0,0:0:0:0:
256,192,119163,1,8,0:0:0:0:
256,192,119298,1,0,0:0:0:0:
256,192,119433,1,8,0:0:0:0:
256,192,119569,1,8,0:0:0:0:
256,192,119636,1,8,0:0:0:0:
256,192,119704,1,0,0:0:0:0:
256,192,119839,1,8,0:0:0:0:
256,192,120109,1,0,0:0:0:0:
256,192,120177,1,0,0:0:0:0:
256,192,120244,1,8,0:0:0:0:
256,192,120379,1,0,0:0:0:0:
256,192,120514,1,8,0:0:0:0:
256,192,120582,1,8,0:0:0:0:
256,192,120650,1,0,0:0:0:0:
256,192,120785,1,0,0:0:0:0:
256,192,120920,1,8,0:0:0:0:
256,192,121190,1,0,0:0:0:0:
256,192,121258,1,0,0:0:0:0:
256,192,121325,1,8,0:0:0:0:
256,192,121460,1,0,0:0:0:0:
256,192,121596,1,8,0:0:0:0:
256,192,121731,1,0,0:0:0:0:
256,192,121866,1,8,0:0:0:0:
256,192,121933,1,8,0:0:0:0:
256,192,122001,1,0,0:0:0:0:
256,192,122069,1,0,0:0:0:0:
256,192,122136,1,8,0:0:0:0:
256,192,122271,1,0,0:0:0:0:
256,192,122406,1,8,0:0:0:0:
256,192,122542,1,8,0:0:0:0:
256,192,122609,1,8,0:0:0:0:
256,192,122677,1,0,0:0:0:0:
256,192,122812,1,0,0:0:0:0:
256,192,122947,1,8,0:0:0:0:
256,192,123082,1,0,0:0:0:0:
256,192,123217,1,8,0:0:0:0:
256,192,123285,1,8,0:0:0:0:
256,192,123352,1,0,0:0:0:0:
256,192,123420,1,0,0:0:0:0:
256,192,123487,1,8,0:0:0:0:
256,192,123623,1,8,0:0:0:0:
256,192,123758,1,4,0:0:0:0:
256,192,124028,1,8,0:0:0:0:
256,192,124163,1,0,0:0:0:0:
256,192,124231,1,0,0:0:0:0:
256,192,124298,1,8,0:0:0:0:
256,192,124433,1,0,0:0:0:0:
256,192,124569,1,8,0:0:0:0:
256,192,124704,1,0,0:0:0:0:
256,192,124839,1,8,0:0:0:0:
256,192,124906,1,8,0:0:0:0:
256,192,124974,1,0,0:0:0:0:
256,192,125109,1,0,0:0:0:0:
256,192,125244,1,8,0:0:0:0:
256,192,125514,1,0,0:0:0:0:
256,192,125650,1,8,0:0:0:0:
256,192,125785,1,0,0:0:0:0:
256,192,125920,1,8,0:0:0:0:
256,192,125987,1,8,0:0:0:0:
256,192,126055,1,0,0:0:0:0:
256,192,126190,1,0,0:0:0:0:
256,192,126325,1,8,0:0:0:0:
256,192,126596,1,0,0:0:0:0:
256,192,126663,1,0,0:0:0:0:
256,192,126731,1,8,0:0:0:0:
256,192,126866,1,0,0:0:0:0:
256,192,127001,1,8,0:0:0:0:
256,192,127069,1,8,0:0:0:0:
256,192,127136,1,0,0:0:0:0:
256,192,127271,1,0,0:0:0:0:
256,192,127406,1,8,0:0:0:0:
256,192,127677,1,0,0:0:0:0:
256,192,127744,1,0,0:0:0:0:
256,192,127812,1,8,0:0:0:0:
256,192,127947,1,8,0:0:0:0:
256,192,128082,1,4,0:0:0:0:
256,192,128217,1,8,0:0:0:0:
256,192,128487,1,8,0:0:0:0:
256,192,128758,1,8,0:0:0:0:
256,192,128893,1,0,0:0:0:0:
256,192,129028,1,8,0:0:0:0:
256,192,129163,1,8,0:0:0:0:
256,192,129298,1,0,0:0:0:0:
256,192,129433,1,0,0:0:0:0:
256,192,129569,1,8,0:0:0:0:
256,192,129704,1,0,0:0:0:0:
256,192,129839,1,8,0:0:0:0:
256,192,129974,1,8,0:0:0:0:
256,192,130042,1,8,0:0:0:0:
256,192,130109,1,0,0:0:0:0:
256,192,130244,1,12,0:0:0:0:
256,192,130379,1,0,0:0:0:0:
256,192,130447,1,0,0:0:0:0:
256,192,130514,1,8,0:0:0:0:
256,192,130650,1,0,0:0:0:0:
256,192,130785,1,8,0:0:0:0:
256,192,130852,1,8,0:0:0:0:
256,192,130920,1,0,0:0:0:0:
256,192,130987,1,0,0:0:0:0:
256,192,131055,1,8,0:0:0:0:
256,192,131190,1,0,0:0:0:0:
256,192,131325,1,8,0:0:0:0:
256,192,131528,1,8,0:0:0:0:
256,192,131731,1,8,0:0:0:0:
256,192,131866,1,8,0:0:0:0:
256,192,132001,1,0,0:0:0:0:
256,192,132069,1,0,0:0:0:0:
256,192,132136,1,8,0:0:0:0:
256,192,132204,1,8,0:0:0:0:
256,192,132271,1,0,0:0:0:0:
256,192,132406,1,12,0:0:0:0:
256,192,132677,1,8,0:0:0:0:
256,192,132812,1,8,0:0:0:0:
256,192,133082,1,0,0:0:0:0:
256,192,133217,1,8,0:0:0:0:
256,192,133352,1,8,0:0:0:0:
256,192,133420,1,8,0:0:0:0:
256,192,133487,1,0,0:0:0:0:
256,192,133623,1,0,0:0:0:0:
256,192,133758,1,8,0:0:0:0:
256,192,133893,1,0,0:0:0:0:
256,192,134163,1,0,0:0:0:0:
256,192,134231,1,0,0:0:0:0:
256,192,134298,1,8,0:0:0:0:
256,192,134433,1,8,0:0:0:0:
256,192,134569,1,0,0:0:0:0:
256,192,134704,1,0,0:0:0:0:
256,192,134839,1,8,0:0:0:0:
256,192,134974,1,0,0:0:0:0:
256,192,135244,1,0,0:0:0:0:
256,192,135379,1,8,0:0:0:0:
256,192,135514,1,8,0:0:0:0:
256,192,135582,1,8,0:0:0:0:
256,192,135650,1,0,0:0:0:0:
256,192,135785,1,0,0:0:0:0:
256,192,135920,1,8,0:0:0:0:
256,192,136055,1,0,0:0:0:0:
256,192,136123,1,0,0:0:0:0:
256,192,136190,1,8,0:0:0:0:
256,192,136325,1,0,0:0:0:0:
256,192,136460,1,8,0:0:0:0:
256,192,136596,1,0,0:0:0:0:
256,192,136663,1,8,0:0:0:0:
256,192,136731,1,0,0:0:0:0:
256,192,136866,1,0,0:0:0:0:
256,192,137001,1,8,0:0:0:0:
256,192,137136,1,0,0:0:0:0:
256,192,137406,1,0,0:0:0:0:
256,192,137474,1,0,0:0:0:0:
256,192,137542,1,8,0:0:0:0:
256,192,137677,1,8,0:0:0:0:
256,192,137812,1,0,0:0:0:0:
256,192,137947,1,0,0:0:0:0:
256,192,138082,1,8,0:0:0:0:
256,192,138217,1,8,0:0:0:0:
256,192,138285,1,0,0:0:0:0:
256,192,138352,1,8,0:0:0:0:
256,192,138487,1,0,0:0:0:0:
256,192,138623,1,8,0:0:0:0:
256,192,138758,1,0,0:0:0:0:
256,192,138893,1,8,0:0:0:0:
256,192,138960,1,0,0:0:0:0:
256,192,139028,1,8,0:0:0:0:
256,192,139163,1,8,0:0:0:0:
256,192,139433,1,8,0:0:0:0:
256,192,139501,1,0,0:0:0:0:
256,192,139569,1,0,0:0:0:0:
256,192,139704,1,8,0:0:0:0:
256,192,139974,1,8,0:0:0:0:
256,192,140042,1,8,0:0:0:0:
256,192,140109,1,0,0:0:0:0:
256,192,140244,1,8,0:0:0:0:
256,192,140379,1,8,0:0:0:0:
256,192,140447,1,0,0:0:0:0:
256,192,140514,1,8,0:0:0:0:
256,192,140650,1,0,0:0:0:0:
256,192,140785,1,8,0:0:0:0:
256,192,140852,1,8,0:0:0:0:
256,192,140920,1,8,0:0:0:0:
256,192,141055,1,4,0:0:0:0:
256,192,141325,1,8,0:0:0:0:
256,192,141393,1,0,0:0:0:0:
256,192,141460,1,8,0:0:0:0:
256,192,141596,1,0,0:0:0:0:
256,192,141663,1,0,0:0:0:0:
256,192,141731,1,8,0:0:0:0:
256,192,141866,1,0,0:0:0:0:
256,192,142001,1,8,0:0:0:0:
256,192,142069,1,0,0:0:0:0:
256,192,142136,1,8,0:0:0:0:
256,192,142406,1,8,0:0:0:0:
256,192,142474,1,0,0:0:0:0:
256,192,142542,1,8,0:0:0:0:
256,192,142677,1,0,0:0:0:0:
256,192,142812,1,0,0:0:0:0:
256,192,142879,1,0,0:0:0:0:
256,192,142947,1,8,0:0:0:0:
256,192,143082,1,0,0:0:0:0:
256,192,143217,1,8,0:0:0:0:
256,192,143352,1,0,0:0:0:0:
256,192,143420,1,0,0:0:0:0:
256,192,143487,1,8,0:0:0:0:
256,192,143623,1,0,0:0:0:0:
256,192,143758,1,8,0:0:0:0:
256,192,143825,1,8,0:0:0:0:
256,192,143893,1,0,0:0:0:0:
256,192,144028,1,8,0:0:0:0:
256,192,144163,1,0,0:0:0:0:
256,192,144298,1,8,0:0:0:0:
256,192,144433,1,0,0:0:0:0:
256,192,144501,1,0,0:0:0:0:
256,192,144569,1,8,0:0:0:0:
256,192,144704,1,8,0:0:0:0:
256,192,144839,1,0,0:0:0:0:
256,192,144974,1,0,0:0:0:0:
256,192,145109,1,8,0:0:0:0:
256,192,145379,1,12,0:0:0:0:
256,192,145514,1,0,0:0:0:0:
256,192,145582,1,0,0:0:0:0:
256,192,145650,1,8,0:0:0:0:
256,192,145785,1,8,0:0:0:0:
256,192,145920,1,0,0:0:0:0:
256,192,146055,1,8,0:0:0:0:
256,192,146325,1,0,0:0:0:0:
256,192,146460,1,12,0:0:0:0:
256,192,146596,1,0,0:0:0:0:
256,192,146663,1,0,0:0:0:0:
256,192,146731,1,8,0:0:0:0:
256,192,146866,1,0,0:0:0:0:
256,192,147001,1,8,0:0:0:0:
256,192,147271,1,8,0:0:0:0:
256,192,147339,1,8,0:0:0:0:
256,192,147406,1,0,0:0:0:0:
256,192,147542,1,12,0:0:0:0:
256,192,147677,1,0,0:0:0:0:
256,192,147744,1,0,0:0:0:0:
256,192,147812,1,8,0:0:0:0:
256,192,147947,1,0,0:0:0:0:
256,192,148014,1,0,0:0:0:0:
256,192,148082,1,8,0:0:0:0:
256,192,148150,1,8,0:0:0:0:
256,192,148217,1,0,0:0:0:0:
256,192,148352,1,8,0:0:0:0:
256,192,148420,1,8,0:0:0:0:
256,192,148487,1,0,0:0:0:0:
256,192,148623,1,8,0:0:0:0:
256,192,148758,1,0,0:0:0:0:
256,192,148825,1,0,0:0:0:0:
256,192,148893,1,8,0:0:0:0:
256,192,149028,1,0,0:0:0:0:
256,192,149096,1,0,0:0:0:0:
256,192,149163,1,8,0:0:0:0:
256,192,149231,1,8,0:0:0:0:
256,192,149298,1,0,0:0:0:0:
256,192,149433,1,8,0:0:0:0:
256,192,149501,1,8,0:0:0:0:
256,192,149569,1,8,0:0:0:0:
256,192,149704,1,4,0:0:0:0:
