osu file format v14

[General]
AudioFilename: audio.mp3
AudioLeadIn: 0
PreviewTime: 39888
Countdown: 0
SampleSet: Soft
StackLeniency: 0.7
Mode: 3
LetterboxInBreaks: 0
SpecialStyle: 0
WidescreenStoryboard: 0

[Editor]
DistanceSpacing: 1
BeatDivisor: 4
GridSize: 32
TimelineZoom: 2.4

[Metadata]
Title:Metheus
TitleUnicode:Metheus
Artist:ARForest
ArtistUnicode:ARForest
Creator:Stelar
Version:Professional
Source:OverRapid
Tags:instrumental artcore video game rakh2502 syadow- famoss loubel dynamix
BeatmapID:2347037
BeatmapSetID:1123154

[Difficulty]
HPDrainRate:8
CircleSize:4
OverallDifficulty:8.5
ApproachRate:5
SliderMultiplier:1.4
SliderTickRate:1

[Events]
//Background and Video events
0,0,"BG.jpg",0,0
//Break Periods
//Storyboard Layer 0 (Background)
//Storyboard Layer 1 (Fail)
//Storyboard Layer 2 (Pass)
//Storyboard Layer 3 (Foreground)
//Storyboard Layer 4 (Overlay)
//Storyboard Sound Samples

[TimingPoints]
504,307.692307692308,4,2,1,60,1,0
20196,-100,4,2,1,70,0,0
39888,-100,4,2,1,70,0,1
59580,-100,4,2,1,70,0,0
79427,-100,4,2,2,70,0,0
89119,-100,4,2,1,60,0,0
100965,-50,4,2,1,60,0,0
100985,-10000,4,2,1,60,0,0
101004,-50,4,2,1,60,0,0
101023,-10000,4,2,1,60,0,0
101042,-50,4,2,1,60,0,0
101061,-10000,4,2,1,60,0,0
101080,-50,4,2,1,60,0,0
101100,-10000,4,2,1,60,0,0
101119,-50,4,2,1,60,0,0
101158,-10000,4,2,1,60,0,0
101196,-50,4,2,1,60,0,0
101235,-10000,4,2,1,60,0,0
101273,-50,4,2,1,60,0,0
101312,-10000,4,2,1,60,0,0
101350,-50,4,2,1,60,0,0
101389,-10000,4,2,1,60,0,0
101427,-100,4,2,1,70,0,1
121119,-100,4,2,1,70,0,0

[HitObjects]
320,192,504,5,2,0:0:0:0:
448,192,504,1,0,0:0:0:0:
192,192,811,1,0,0:0:0:0:
320,192,1119,1,0,0:0:0:0:
64,192,1734,1,8,0:0:0:0:
448,192,1734,1,0,0:0:0:0:
192,192,2042,1,0,0:0:0:0:
320,192,2350,1,0,0:0:0:0:
448,192,2657,1,0,0:0:0:0:
64,192,2965,1,2,0:0:0:0:
192,192,2965,1,0,0:0:0:0:
320,192,3273,1,0,0:0:0:0:
192,192,3580,1,0,0:0:0:0:
320,192,3888,1,2,0:0:0:0:
448,192,3888,1,0,0:0:0:0:
64,192,4196,1,8,0:0:0:0:
192,192,4196,1,0,0:0:0:0:
192,192,4811,1,0,0:0:0:0:
320,192,5119,1,0,0:0:0:0:
64,192,5427,1,2,0:0:0:0:
192,192,5427,1,0,0:0:0:0:
448,192,5734,1,0,0:0:0:0:
192,192,6042,1,0,0:0:0:0:
320,192,6350,1,0,0:0:0:0:
64,192,6657,1,8,0:0:0:0:
448,192,6657,1,0,0:0:0:0:
192,192,6965,1,0,0:0:0:0:
448,192,7273,1,0,0:0:0:0:
64,192,7580,1,0,0:0:0:0:
320,192,7888,1,2,0:0:0:0:
448,192,7888,1,0,0:0:0:0:
192,192,8196,1,0,0:0:0:0:
320,192,8504,1,0,0:0:0:0:
64,192,8811,1,2,0:0:0:0:
448,192,8811,1,0,0:0:0:0:
192,192,9119,1,8,0:0:0:0:
320,192,9119,1,0,0:0:0:0:
448,192,9734,1,0,0:0:0:0:
320,192,10042,1,0,0:0:0:0:
64,192,10350,1,2,0:0:0:0:
192,192,10350,1,0,0:0:0:0:
320,192,10657,1,0,0:0:0:0:
448,192,10965,1,0,0:0:0:0:
64,192,11273,1,0,0:0:0:0:
192,192,11427,1,0,0:0:0:0:
320,192,11580,1,8,0:0:0:0:
448,192,11580,1,0,0:0:0:0:
192,192,11888,1,0,0:0:0:0:
320,192,12196,1,0,0:0:0:0:
64,192,12504,1,0,0:0:0:0:
192,192,12811,1,2,0:0:0:0:
320,192,12811,1,0,0:0:0:0:
448,192,13119,1,0,0:0:0:0:
64,192,13427,1,0,0:0:0:0:
192,192,13734,1,2,0:0:0:0:
320,192,13734,1,0,0:0:0:0:
64,192,14042,1,8,0:0:0:0:
448,192,14042,1,0,0:0:0:0:
192,192,14657,1,0,0:0:0:0:
320,192,14965,1,0,0:0:0:0:
64,192,15273,1,2,0:0:0:0:
192,192,15273,1,0,0:0:0:0:
320,192,15580,1,0,0:0:0:0:
64,192,15888,1,0,0:0:0:0:
448,192,16196,1,0,0:0:0:0:
192,192,16350,1,0,0:0:0:0:
320,192,16504,1,8,0:0:0:0:
448,192,16504,1,0,0:0:0:0:
64,192,16811,1,0,0:0:0:0:
320,192,17119,1,0,0:0:0:0:
192,192,17427,1,0,0:0:0:0:
320,192,17580,1,0,0:0:0:0:
64,192,17734,1,2,0:0:0:0:
448,192,17734,1,0,0:0:0:0:
192,192,18042,1,0,0:0:0:0:
448,192,18350,1,0,0:0:0:0:
64,192,18657,1,2,0:0:0:0:
320,192,18657,1,0,0:0:0:0:
192,192,18811,1,0,0:0:0:0:
320,192,18965,1,8,0:0:0:0:
448,192,18965,1,0,0:0:0:0:
64,192,20196,1,8,0:0:0:0:
320,192,20196,1,4,0:0:0:0:
448,192,20196,1,0,0:0:0:0:
192,192,20350,1,2,0:0:0:0:
448,192,20350,1,0,0:0:0:0:
320,192,20427,1,2,0:0:0:0:
64,192,20504,1,2,0:0:0:0:
192,192,20504,1,0,0:0:0:0:
64,192,20657,1,8,0:0:0:0:
320,192,20657,1,4,0:0:0:0:
448,192,20657,1,0,0:0:0:0:
192,192,20811,1,2,0:0:0:0:
320,192,20811,1,0,0:0:0:0:
448,192,20888,1,2,0:0:0:0:
64,192,20965,1,2,0:0:0:0:
192,192,20965,1,0,0:0:0:0:
64,192,21119,1,8,0:0:0:0:
320,192,21119,1,4,0:0:0:0:
448,192,21119,1,0,0:0:0:0:
192,192,21273,1,2,0:0:0:0:
448,192,21273,1,0,0:0:0:0:
320,192,21350,1,2,0:0:0:0:
64,192,21427,1,2,0:0:0:0:
192,192,21427,1,0,0:0:0:0:
64,192,21580,1,8,0:0:0:0:
320,192,21580,1,4,0:0:0:0:
448,192,21580,1,0,0:0:0:0:
192,192,21734,1,2,0:0:0:0:
320,192,21734,1,0,0:0:0:0:
64,192,21888,1,2,0:0:0:0:
448,192,21888,1,0,0:0:0:0:
192,192,22042,1,8,0:0:0:0:
320,192,22042,1,0,0:0:0:0:
448,192,22042,1,0,0:0:0:0:
64,192,22196,1,2,0:0:0:0:
192,192,22196,1,0,0:0:0:0:
320,192,22273,1,2,0:0:0:0:
64,192,22350,1,8,0:0:0:0:
192,192,22350,1,0,0:0:0:0:
448,192,22350,1,0,0:0:0:0:
192,192,22504,1,2,0:0:0:0:
320,192,22504,1,0,0:0:0:0:
64,192,22657,1,8,0:0:0:0:
320,192,22657,1,4,0:0:0:0:
448,192,22657,1,0,0:0:0:0:
192,192,22811,1,2,0:0:0:0:
448,192,22811,1,0,0:0:0:0:
320,192,22888,1,2,0:0:0:0:
64,192,22965,1,2,0:0:0:0:
192,192,22965,1,0,0:0:0:0:
64,192,23119,1,8,0:0:0:0:
320,192,23119,1,4,0:0:0:0:
448,192,23119,1,0,0:0:0:0:
192,192,23273,1,2,0:0:0:0:
448,192,23273,1,0,0:0:0:0:
64,192,23350,1,2,0:0:0:0:
320,192,23427,1,2,0:0:0:0:
448,192,23427,1,0,0:0:0:0:
64,192,23580,1,8,0:0:0:0:
192,192,23580,1,4,0:0:0:0:
320,192,23580,1,0,0:0:0:0:
64,192,23734,1,2,0:0:0:0:
448,192,23734,1,0,0:0:0:0:
320,192,23811,1,2,0:0:0:0:
64,192,23888,1,2,0:0:0:0:
192,192,23888,1,0,0:0:0:0:
192,192,24042,1,8,0:0:0:0:
320,192,24042,1,4,0:0:0:0:
448,192,24042,1,0,0:0:0:0:
64,192,24196,1,2,0:0:0:0:
448,192,24196,1,0,0:0:0:0:
192,192,24350,1,2,0:0:0:0:
320,192,24350,1,0,0:0:0:0:
64,192,24504,1,8,0:0:0:0:
192,192,24504,1,0,0:0:0:0:
448,192,24504,1,0,0:0:0:0:
64,192,24657,1,2,0:0:0:0:
320,192,24657,1,0,0:0:0:0:
192,192,24734,1,2,0:0:0:0:
64,192,24811,1,8,0:0:0:0:
320,192,24811,1,0,0:0:0:0:
448,192,24811,1,0,0:0:0:0:
320,192,24965,1,8,0:0:0:0:
448,192,24965,1,0,0:0:0:0:
64,192,25042,1,8,0:0:0:0:
192,192,25042,1,0,0:0:0:0:
320,192,25119,1,8,0:0:0:0:
448,192,25119,1,4,0:0:0:0:
64,192,25273,1,2,0:0:0:0:
192,192,25273,1,0,0:0:0:0:
320,192,25350,1,2,0:0:0:0:
192,192,25427,1,2,0:0:0:0:
448,192,25427,1,0,0:0:0:0:
64,192,25580,1,8,0:0:0:0:
320,192,25580,1,4,0:0:0:0:
448,192,25580,1,0,0:0:0:0:
192,192,25734,1,2,0:0:0:0:
320,192,25734,1,0,0:0:0:0:
448,192,25811,1,2,0:0:0:0:
64,192,25888,1,2,0:0:0:0:
192,192,25888,1,0,0:0:0:0:
64,192,26042,1,8,0:0:0:0:
320,192,26042,1,4,0:0:0:0:
448,192,26042,1,0,0:0:0:0:
192,192,26196,1,2,0:0:0:0:
320,192,26196,1,0,0:0:0:0:
448,192,26273,1,2,0:0:0:0:
64,192,26350,1,2,0:0:0:0:
192,192,26350,1,0,0:0:0:0:
64,192,26504,1,8,0:0:0:0:
320,192,26504,1,4,0:0:0:0:
448,192,26504,1,0,0:0:0:0:
192,192,26657,1,2,0:0:0:0:
320,192,26657,1,0,0:0:0:0:
64,192,26811,1,2,0:0:0:0:
448,192,26811,1,0,0:0:0:0:
64,192,26965,1,8,0:0:0:0:
320,192,26965,1,0,0:0:0:0:
448,192,26965,1,0,0:0:0:0:
192,192,27119,1,2,0:0:0:0:
320,192,27119,1,0,0:0:0:0:
64,192,27196,1,2,0:0:0:0:
192,192,27273,1,8,0:0:0:0:
320,192,27273,1,0,0:0:0:0:
448,192,27273,1,0,0:0:0:0:
64,192,27427,1,2,0:0:0:0:
448,192,27427,1,0,0:0:0:0:
64,192,27580,1,8,0:0:0:0:
192,192,27580,1,4,0:0:0:0:
320,192,27580,1,0,0:0:0:0:
320,192,27734,1,2,0:0:0:0:
448,192,27734,1,0,0:0:0:0:
192,192,27811,1,2,0:0:0:0:
64,192,27888,1,2,0:0:0:0:
448,192,27888,1,0,0:0:0:0:
64,192,28042,1,8,0:0:0:0:
192,192,28042,1,4,0:0:0:0:
320,192,28042,1,0,0:0:0:0:
320,192,28196,1,2,0:0:0:0:
448,192,28196,1,0,0:0:0:0:
64,192,28273,1,2,0:0:0:0:
192,192,28350,1,2,0:0:0:0:
320,192,28350,1,0,0:0:0:0:
64,192,28504,1,8,0:0:0:0:
320,192,28504,1,4,0:0:0:0:
448,192,28504,1,0,0:0:0:0:
64,192,28657,1,2,0:0:0:0:
192,192,28657,1,0,0:0:0:0:
320,192,28734,1,2,0:0:0:0:
192,192,28811,1,2,0:0:0:0:
448,192,28811,1,0,0:0:0:0:
64,192,28965,1,8,0:0:0:0:
320,192,28965,1,4,0:0:0:0:
448,192,28965,1,0,0:0:0:0:
192,192,29119,1,2,0:0:0:0:
448,192,29119,1,0,0:0:0:0:
64,192,29273,1,2,0:0:0:0:
320,192,29273,1,0,0:0:0:0:
192,192,29427,1,8,0:0:0:0:
320,192,29427,1,0,0:0:0:0:
448,192,29427,1,0,0:0:0:0:
64,192,29580,1,2,0:0:0:0:
192,192,29580,1,0,0:0:0:0:
320,192,29657,1,2,0:0:0:0:
64,192,29734,1,8,0:0:0:0:
448,192,29734,1,0,0:0:0:0:
192,192,29811,1,8,0:0:0:0:
320,192,29811,1,0,0:0:0:0:
64,192,29888,1,8,0:0:0:0:
448,192,29888,1,0,0:0:0:0:
192,192,29965,1,8,0:0:0:0:
320,192,29965,1,0,0:0:0:0:
64,192,30042,1,8,0:0:0:0:
448,192,30042,1,4,0:0:0:0:
192,192,30196,1,2,0:0:0:0:
448,192,30196,1,0,0:0:0:0:
320,192,30273,1,2,0:0:0:0:
64,192,30350,1,2,0:0:0:0:
192,192,30350,1,0,0:0:0:0:
64,192,30504,1,8,0:0:0:0:
320,192,30504,1,4,0:0:0:0:
448,192,30504,1,0,0:0:0:0:
192,192,30657,1,2,0:0:0:0:
320,192,30657,1,0,0:0:0:0:
448,192,30734,1,2,0:0:0:0:
64,192,30811,1,2,0:0:0:0:
192,192,30811,1,0,0:0:0:0:
64,192,30965,1,8,0:0:0:0:
320,192,30965,1,4,0:0:0:0:
448,192,30965,1,0,0:0:0:0:
192,192,31119,1,2,0:0:0:0:
448,192,31119,1,0,0:0:0:0:
320,192,31196,1,2,0:0:0:0:
64,192,31273,1,2,0:0:0:0:
192,192,31273,1,0,0:0:0:0:
64,192,31427,1,8,0:0:0:0:
320,192,31427,1,4,0:0:0:0:
448,192,31427,1,0,0:0:0:0:
192,192,31580,1,2,0:0:0:0:
320,192,31580,1,0,0:0:0:0:
64,192,31734,1,2,0:0:0:0:
448,192,31734,1,0,0:0:0:0:
192,192,31888,1,8,0:0:0:0:
320,192,31888,1,0,0:0:0:0:
448,192,31888,1,0,0:0:0:0:
64,192,32042,1,2,0:0:0:0:
192,192,32042,1,0,0:0:0:0:
320,192,32119,1,2,0:0:0:0:
64,192,32196,1,8,0:0:0:0:
448,192,32196,1,0,0:0:0:0:
192,192,32350,1,2,0:0:0:0:
320,192,32350,1,0,0:0:0:0:
64,192,32504,1,8,0:0:0:0:
320,192,32504,1,4,0:0:0:0:
448,192,32504,1,0,0:0:0:0:
64,192,32657,1,2,0:0:0:0:
192,192,32657,1,0,0:0:0:0:
448,192,32734,1,2,0:0:0:0:
192,192,32811,1,2,0:0:0:0:
320,192,32811,1,0,0:0:0:0:
64,192,32965,1,8,0:0:0:0:
320,192,32965,1,4,0:0:0:0:
448,192,32965,1,0,0:0:0:0:
192,192,33119,1,2,0:0:0:0:
448,192,33119,1,0,0:0:0:0:
320,192,33196,1,2,0:0:0:0:
64,192,33273,1,2,0:0:0:0:
192,192,33273,1,0,0:0:0:0:
192,192,33427,1,8,0:0:0:0:
320,192,33427,1,4,0:0:0:0:
448,192,33427,1,0,0:0:0:0:
64,192,33580,1,2,0:0:0:0:
448,192,33580,1,0,0:0:0:0:
192,192,33657,1,2,0:0:0:0:
320,192,33734,1,2,0:0:0:0:
448,192,33734,1,0,0:0:0:0:
64,192,33888,1,8,0:0:0:0:
192,192,33888,1,4,0:0:0:0:
320,192,33888,1,0,0:0:0:0:
64,192,34042,1,2,0:0:0:0:
448,192,34042,1,0,0:0:0:0:
192,192,34196,1,2,0:0:0:0:
320,192,34196,1,0,0:0:0:0:
64,192,34350,1,8,0:0:0:0:
192,192,34350,1,0,0:0:0:0:
448,192,34350,1,0,0:0:0:0:
64,192,34504,1,2,0:0:0:0:
320,192,34504,1,0,0:0:0:0:
192,192,34580,1,2,0:0:0:0:
64,192,34657,1,8,0:0:0:0:
320,192,34657,1,0,0:0:0:0:
448,192,34657,1,0,0:0:0:0:
320,192,34811,1,8,0:0:0:0:
448,192,34811,1,0,0:0:0:0:
64,192,34888,1,8,0:0:0:0:
192,192,34888,1,0,0:0:0:0:
320,192,34965,1,8,0:0:0:0:
448,192,34965,1,4,0:0:0:0:
64,192,35119,1,2,0:0:0:0:
192,192,35119,1,0,0:0:0:0:
320,192,35196,1,2,0:0:0:0:
192,192,35273,1,2,0:0:0:0:
448,192,35273,1,0,0:0:0:0:
64,192,35427,1,8,0:0:0:0:
320,192,35427,1,4,0:0:0:0:
448,192,35427,1,0,0:0:0:0:
192,192,35580,1,2,0:0:0:0:
320,192,35580,1,0,0:0:0:0:
448,192,35657,1,2,0:0:0:0:
64,192,35734,1,2,0:0:0:0:
192,192,35734,1,0,0:0:0:0:
64,192,35888,1,8,0:0:0:0:
320,192,35888,1,4,0:0:0:0:
448,192,35888,1,0,0:0:0:0:
192,192,36042,1,2,0:0:0:0:
448,192,36042,1,0,0:0:0:0:
320,192,36119,1,2,0:0:0:0:
64,192,36196,1,2,0:0:0:0:
192,192,36196,1,0,0:0:0:0:
64,192,36350,1,8,0:0:0:0:
320,192,36350,1,4,0:0:0:0:
448,192,36350,1,0,0:0:0:0:
192,192,36504,1,2,0:0:0:0:
320,192,36504,1,0,0:0:0:0:
64,192,36657,1,2,0:0:0:0:
448,192,36657,1,0,0:0:0:0:
192,192,36811,1,8,0:0:0:0:
320,192,36811,1,0,0:0:0:0:
448,192,36811,1,0,0:0:0:0:
64,192,36965,1,2,0:0:0:0:
192,192,36965,1,0,0:0:0:0:
320,192,37042,1,2,0:0:0:0:
64,192,37119,1,8,0:0:0:0:
192,192,37119,1,0,0:0:0:0:
448,192,37119,1,0,0:0:0:0:
320,192,37273,1,2,0:0:0:0:
448,192,37273,1,0,0:0:0:0:
64,192,37427,1,8,0:0:0:0:
192,192,37427,1,4,0:0:0:0:
320,192,37427,1,0,0:0:0:0:
192,192,37580,1,2,0:0:0:0:
448,192,37580,1,0,0:0:0:0:
320,192,37657,1,2,0:0:0:0:
64,192,37734,1,2,0:0:0:0:
192,192,37734,1,0,0:0:0:0:
192,192,37888,1,8,0:0:0:0:
320,192,37888,1,4,0:0:0:0:
448,192,37888,1,0,0:0:0:0:
64,192,38042,1,2,0:0:0:0:
320,192,38042,1,0,0:0:0:0:
192,192,38119,1,2,0:0:0:0:
320,192,38196,1,2,0:0:0:0:
448,192,38196,1,0,0:0:0:0:
64,192,38350,1,8,0:0:0:0:
192,192,38350,1,4,0:0:0:0:
448,192,38350,1,0,0:0:0:0:
192,192,38504,1,2,0:0:0:0:
320,192,38504,1,0,0:0:0:0:
64,192,38580,1,2,0:0:0:0:
320,192,38657,1,2,0:0:0:0:
448,192,38657,1,0,0:0:0:0:
192,192,38734,1,2,0:0:0:0:
64,192,38811,1,8,0:0:0:0:
320,192,38811,1,4,0:0:0:0:
448,192,38811,1,0,0:0:0:0:
192,192,38965,1,2,0:0:0:0:
448,192,38965,1,0,0:0:0:0:
320,192,39042,1,2,0:0:0:0:
64,192,39119,1,2,0:0:0:0:
192,192,39119,1,0,0:0:0:0:
448,192,39196,1,2,0:0:0:0:
64,192,39273,1,8,0:0:0:0:
192,192,39273,1,0,0:0:0:0:
320,192,39273,1,0,0:0:0:0:
448,192,39350,1,2,0:0:0:0:
64,192,39427,1,2,0:0:0:0:
192,192,39465,1,0,0:0:0:0:
320,192,39504,1,2,0:0:0:0:
448,192,39542,1,0,0:0:0:0:
64,192,39580,1,8,0:0:0:0:
192,192,39580,1,0,0:0:0:0:
320,192,39657,1,8,0:0:0:0:
448,192,39657,1,0,0:0:0:0:
64,192,39734,1,8,0:0:0:0:
192,192,39734,1,2,0:0:0:0:
320,192,39811,1,8,0:0:0:0:
448,192,39811,1,0,0:0:0:0:
64,192,39888,1,2,0:0:0:0:
192,192,39888,1,4,0:0:0:0:
320,192,40042,1,0,0:0:0:0:
448,192,40042,1,0,0:0:0:0:
64,192,40196,1,8,0:0:0:0:
192,192,40196,1,0,0:0:0:0:
448,192,40196,1,0,0:0:0:0:
320,192,40350,1,0,0:0:0:0:
192,192,40427,1,0,0:0:0:0:
448,192,40504,1,0,0:0:0:0:
320,192,40580,1,0,0:0:0:0:
64,192,40657,1,2,0:0:0:0:
192,192,40657,1,0,0:0:0:0:
64,192,40811,1,8,0:0:0:0:
320,192,40811,1,0,0:0:0:0:
448,192,40811,1,0,0:0:0:0:
192,192,40965,1,0,0:0:0:0:
320,192,41042,1,0,0:0:0:0:
64,192,41119,1,2,0:0:0:0:
448,192,41119,1,0,0:0:0:0:
192,192,41273,1,2,0:0:0:0:
320,192,41273,1,0,0:0:0:0:
64,192,41427,1,8,0:0:0:0:
192,192,41427,1,0,0:0:0:0:
448,192,41427,1,0,0:0:0:0:
320,192,41580,1,2,0:0:0:0:
448,192,41580,1,0,0:0:0:0:
64,192,41657,1,0,0:0:0:0:
192,192,41734,1,0,0:0:0:0:
320,192,41811,1,0,0:0:0:0:
64,192,41888,1,2,0:0:0:0:
448,192,41888,1,0,0:0:0:0:
64,192,42042,1,8,0:0:0:0:
192,192,42042,1,0,0:0:0:0:
320,192,42042,1,0,0:0:0:0:
448,192,42196,1,0,0:0:0:0:
320,192,42273,1,0,0:0:0:0:
64,192,42350,1,2,0:0:0:0:
192,192,42350,1,0,0:0:0:0:
320,192,42504,1,0,0:0:0:0:
448,192,42504,1,0,0:0:0:0:
64,192,42657,1,8,0:0:0:0:
192,192,42657,1,0,0:0:0:0:
448,192,42657,1,0,0:0:0:0:
320,192,42811,1,0,0:0:0:0:
448,192,42888,1,0,0:0:0:0:
192,192,42965,1,0,0:0:0:0:
64,192,43042,1,0,0:0:0:0:
320,192,43119,1,2,0:0:0:0:
448,192,43119,1,0,0:0:0:0:
64,192,43273,1,8,0:0:0:0:
192,192,43273,1,0,0:0:0:0:
448,192,43273,1,0,0:0:0:0:
320,192,43427,1,0,0:0:0:0:
192,192,43504,1,0,0:0:0:0:
64,192,43580,1,2,0:0:0:0:
448,192,43580,1,0,0:0:0:0:
192,192,43734,1,2,0:0:0:0:
320,192,43734,1,0,0:0:0:0:
64,192,43888,1,8,0:0:0:0:
320,192,43888,1,0,0:0:0:0:
448,192,43888,1,0,0:0:0:0:
192,192,44042,1,2,0:0:0:0:
448,192,44042,1,0,0:0:0:0:
64,192,44119,1,0,0:0:0:0:
320,192,44196,1,0,0:0:0:0:
192,192,44273,1,0,0:0:0:0:
320,192,44350,1,2,0:0:0:0:
448,192,44350,1,0,0:0:0:0:
64,192,44504,1,8,0:0:0:0:
192,192,44504,1,0,0:0:0:0:
448,192,44504,1,0,0:0:0:0:
320,192,44657,1,0,0:0:0:0:
192,192,44734,1,0,0:0:0:0:
64,192,44811,1,2,0:0:0:0:
448,192,44811,1,0,0:0:0:0:
192,192,44965,1,0,0:0:0:0:
320,192,44965,1,0,0:0:0:0:
64,192,45119,1,8,0:0:0:0:
320,192,45119,1,0,0:0:0:0:
448,192,45119,1,0,0:0:0:0:
192,192,45273,1,0,0:0:0:0:
320,192,45350,1,0,0:0:0:0:
64,192,45427,1,0,0:0:0:0:
192,192,45504,1,0,0:0:0:0:
320,192,45580,1,2,0:0:0:0:
448,192,45580,1,0,0:0:0:0:
64,192,45734,1,8,0:0:0:0:
192,192,45734,1,0,0:0:0:0:
448,192,45734,1,0,0:0:0:0:
320,192,45888,1,0,0:0:0:0:
192,192,45965,1,0,0:0:0:0:
320,192,46042,1,2,0:0:0:0:
448,192,46042,1,0,0:0:0:0:
64,192,46196,1,2,0:0:0:0:
192,192,46196,1,0,0:0:0:0:
64,192,46350,1,8,0:0:0:0:
320,192,46350,1,0,0:0:0:0:
448,192,46350,1,0,0:0:0:0:
192,192,46504,1,2,0:0:0:0:
320,192,46504,1,0,0:0:0:0:
448,192,46580,1,0,0:0:0:0:
64,192,46657,1,0,0:0:0:0:
192,192,46734,1,0,0:0:0:0:
64,192,46811,1,2,0:0:0:0:
320,192,46811,1,0,0:0:0:0:
192,192,46965,1,8,0:0:0:0:
320,192,46965,1,0,0:0:0:0:
448,192,46965,1,0,0:0:0:0:
64,192,47119,1,0,0:0:0:0:
192,192,47196,1,0,0:0:0:0:
320,192,47273,1,2,0:0:0:0:
448,192,47273,1,0,0:0:0:0:
64,192,47427,1,0,0:0:0:0:
192,192,47427,1,0,0:0:0:0:
64,192,47580,1,8,0:0:0:0:
320,192,47580,1,0,0:0:0:0:
448,192,47580,1,0,0:0:0:0:
192,192,47734,1,0,0:0:0:0:
320,192,47811,1,0,0:0:0:0:
64,192,47888,1,0,0:0:0:0:
192,192,47965,1,0,0:0:0:0:
320,192,48042,1,2,0:0:0:0:
448,192,48042,1,0,0:0:0:0:
64,192,48196,1,8,0:0:0:0:
192,192,48196,1,0,0:0:0:0:
448,192,48196,1,0,0:0:0:0:
320,192,48350,1,0,0:0:0:0:
192,192,48427,1,0,0:0:0:0:
64,192,48504,1,2,0:0:0:0:
448,192,48504,1,0,0:0:0:0:
192,192,48657,1,2,0:0:0:0:
320,192,48657,1,0,0:0:0:0:
64,192,48811,1,8,0:0:0:0:
320,192,48811,1,0,0:0:0:0:
448,192,48811,1,0,0:0:0:0:
64,192,48965,1,2,0:0:0:0:
192,192,48965,1,0,0:0:0:0:
320,192,49042,1,2,0:0:0:0:
64,192,49119,1,2,0:0:0:0:
448,192,49119,1,0,0:0:0:0:
192,192,49196,1,2,0:0:0:0:
320,192,49273,1,2,0:0:0:0:
448,192,49273,1,0,0:0:0:0:
192,192,49350,1,2,0:0:0:0:
64,192,49427,1,8,0:0:0:0:
320,192,49427,1,0,0:0:0:0:
448,192,49427,1,0,0:0:0:0:
64,192,49580,1,2,0:0:0:0:
192,192,49580,1,0,0:0:0:0:
320,192,49657,1,2,0:0:0:0:
64,192,49734,1,2,0:0:0:0:
448,192,49734,1,4,0:0:0:0:
192,192,49888,1,0,0:0:0:0:
320,192,49888,1,0,0:0:0:0:
64,192,50042,1,8,0:0:0:0:
320,192,50042,1,0,0:0:0:0:
448,192,50042,1,0,0:0:0:0:
192,192,50196,1,0,0:0:0:0:
320,192,50273,1,0,0:0:0:0:
64,192,50350,1,0,0:0:0:0:
192,192,50427,1,0,0:0:0:0:
320,192,50504,1,2,0:0:0:0:
448,192,50504,1,0,0:0:0:0:
64,192,50657,1,8,0:0:0:0:
192,192,50657,1,0,0:0:0:0:
448,192,50657,1,0,0:0:0:0:
320,192,50811,1,0,0:0:0:0:
192,192,50888,1,0,0:0:0:0:
64,192,50965,1,2,0:0:0:0:
448,192,50965,1,0,0:0:0:0:
192,192,51119,1,2,0:0:0:0:
320,192,51119,1,0,0:0:0:0:
64,192,51273,1,8,0:0:0:0:
320,192,51273,1,0,0:0:0:0:
448,192,51273,1,0,0:0:0:0:
64,192,51427,1,2,0:0:0:0:
192,192,51427,1,0,0:0:0:0:
448,192,51504,1,0,0:0:0:0:
320,192,51580,1,0,0:0:0:0:
192,192,51657,1,0,0:0:0:0:
64,192,51734,1,2,0:0:0:0:
448,192,51734,1,0,0:0:0:0:
192,192,51888,1,8,0:0:0:0:
320,192,51888,1,0,0:0:0:0:
448,192,51888,1,0,0:0:0:0:
64,192,52042,1,0,0:0:0:0:
192,192,52119,1,0,0:0:0:0:
320,192,52196,1,2,0:0:0:0:
448,192,52196,1,0,0:0:0:0:
64,192,52350,1,0,0:0:0:0:
192,192,52350,1,0,0:0:0:0:
64,192,52504,1,8,0:0:0:0:
320,192,52504,1,0,0:0:0:0:
448,192,52504,1,0,0:0:0:0:
192,192,52657,1,0,0:0:0:0:
64,192,52734,1,0,0:0:0:0:
320,192,52811,1,0,0:0:0:0:
448,192,52888,1,0,0:0:0:0:
64,192,52965,1,2,0:0:0:0:
192,192,52965,1,0,0:0:0:0:
64,192,53119,1,8,0:0:0:0:
320,192,53119,1,0,0:0:0:0:
448,192,53119,1,0,0:0:0:0:
192,192,53273,1,0,0:0:0:0:
320,192,53350,1,0,0:0:0:0:
64,192,53427,1,2,0:0:0:0:
448,192,53427,1,0,0:0:0:0:
192,192,53580,1,2,0:0:0:0:
320,192,53580,1,0,0:0:0:0:
64,192,53734,1,8,0:0:0:0:
192,192,53734,1,0,0:0:0:0:
448,192,53734,1,0,0:0:0:0:
64,192,53888,1,2,0:0:0:0:
320,192,53888,1,0,0:0:0:0:
448,192,53965,1,0,0:0:0:0:
192,192,54042,1,0,0:0:0:0:
320,192,54119,1,0,0:0:0:0:
64,192,54196,1,2,0:0:0:0:
192,192,54196,1,0,0:0:0:0:
64,192,54350,1,8,0:0:0:0:
320,192,54350,1,0,0:0:0:0:
448,192,54350,1,0,0:0:0:0:
192,192,54504,1,0,0:0:0:0:
320,192,54580,1,0,0:0:0:0:
64,192,54657,1,2,0:0:0:0:
448,192,54657,1,0,0:0:0:0:
192,192,54811,1,0,0:0:0:0:
320,192,54811,1,0,0:0:0:0:
64,192,54965,1,8,0:0:0:0:
192,192,54965,1,0,0:0:0:0:
448,192,54965,1,0,0:0:0:0:
320,192,55119,1,0,0:0:0:0:
192,192,55196,1,0,0:0:0:0:
448,192,55273,1,0,0:0:0:0:
320,192,55350,1,0,0:0:0:0:
64,192,55427,1,2,0:0:0:0:
192,192,55427,1,0,0:0:0:0:
64,192,55580,1,8,0:0:0:0:
320,192,55580,1,0,0:0:0:0:
448,192,55580,1,0,0:0:0:0:
192,192,55734,1,0,0:0:0:0:
320,192,55811,1,0,0:0:0:0:
64,192,55888,1,2,0:0:0:0:
448,192,55888,1,0,0:0:0:0:
192,192,56042,1,2,0:0:0:0:
320,192,56042,1,0,0:0:0:0:
64,192,56196,1,8,0:0:0:0:
192,192,56196,1,0,0:0:0:0:
448,192,56196,1,0,0:0:0:0:
320,192,56350,1,2,0:0:0:0:
448,192,56350,1,0,0:0:0:0:
64,192,56427,1,0,0:0:0:0:
192,192,56504,1,0,0:0:0:0:
320,192,56580,1,0,0:0:0:0:
64,192,56657,1,2,0:0:0:0:
448,192,56657,1,0,0:0:0:0:
192,192,56811,1,8,0:0:0:0:
320,192,56811,1,0,0:0:0:0:
448,192,56811,1,0,0:0:0:0:
64,192,56965,1,0,0:0:0:0:
192,192,57042,1,0,0:0:0:0:
320,192,57119,1,2,0:0:0:0:
448,192,57119,1,0,0:0:0:0:
64,192,57273,1,0,0:0:0:0:
192,192,57273,1,0,0:0:0:0:
64,192,57427,1,8,0:0:0:0:
320,192,57427,1,0,0:0:0:0:
448,192,57427,1,0,0:0:0:0:
192,192,57580,1,0,0:0:0:0:
320,192,57657,1,0,0:0:0:0:
64,192,57734,1,0,0:0:0:0:
192,192,57811,1,0,0:0:0:0:
320,192,57888,1,2,0:0:0:0:
448,192,57888,1,0,0:0:0:0:
64,192,58042,1,8,0:0:0:0:
192,192,58042,1,0,0:0:0:0:
448,192,58042,1,0,0:0:0:0:
320,192,58196,1,0,0:0:0:0:
192,192,58273,1,0,0:0:0:0:
320,192,58350,1,2,0:0:0:0:
448,192,58350,1,0,0:0:0:0:
64,192,58504,1,2,0:0:0:0:
448,192,58504,1,0,0:0:0:0:
320,192,58580,1,2,0:0:0:0:
64,192,58657,1,8,0:0:0:0:
192,192,58657,1,0,0:0:0:0:
192,192,58811,1,2,0:0:0:0:
448,192,58811,1,0,0:0:0:0:
320,192,58888,1,2,0:0:0:0:
64,192,58965,1,2,0:0:0:0:
192,192,58965,1,0,0:0:0:0:
320,192,59042,1,2,0:0:0:0:
64,192,59119,1,2,0:0:0:0:
448,192,59119,1,0,0:0:0:0:
192,192,59196,1,2,0:0:0:0:
320,192,59273,1,8,0:0:0:0:
448,192,59273,1,0,0:0:0:0:
64,192,59350,1,8,0:0:0:0:
192,192,59350,1,0,0:0:0:0:
320,192,59427,1,8,0:0:0:0:
448,192,59427,1,0,0:0:0:0:
64,192,59504,1,8,0:0:0:0:
192,192,59504,1,0,0:0:0:0:
320,192,59580,1,2,0:0:0:0:
448,192,59580,1,4,0:0:0:0:
64,192,59734,1,2,0:0:0:0:
192,192,59734,1,0,0:0:0:0:
64,192,59888,1,8,0:0:0:0:
320,192,59888,1,0,0:0:0:0:
448,192,59888,1,0,0:0:0:0:
192,192,60042,1,0,0:0:0:0:
64,192,60119,1,0,0:0:0:0:
320,192,60196,1,0,0:0:0:0:
192,192,60273,1,0,0:0:0:0:
320,192,60350,1,2,0:0:0:0:
448,192,60350,1,0,0:0:0:0:
64,192,60504,1,8,0:0:0:0:
192,192,60504,1,0,0:0:0:0:
448,192,60504,1,0,0:0:0:0:
320,192,60657,1,0,0:0:0:0:
192,192,60734,1,0,0:0:0:0:
64,192,60811,1,2,0:0:0:0:
448,192,60811,1,0,0:0:0:0:
192,192,60965,1,2,0:0:0:0:
320,192,60965,1,0,0:0:0:0:
64,192,61042,1,0,0:0:0:0:
192,192,61119,1,8,0:0:0:0:
320,192,61119,1,0,0:0:0:0:
448,192,61119,1,0,0:0:0:0:
64,192,61273,128,2,61427:0:0:0:0:
192,192,61273,1,0,0:0:0:0:
320,192,61350,1,0,0:0:0:0:
448,192,61427,128,0,61580:0:0:0:0:
192,192,61504,1,0,0:0:0:0:
64,192,61580,128,2,61734:0:0:0:0:
320,192,61580,1,0,0:0:0:0:
192,192,61734,1,8,0:0:0:0:
320,192,61734,1,0,0:0:0:0:
448,192,61734,128,0,61888:0:0:0:0:
64,192,61888,128,0,62042:0:0:0:0:
192,192,61965,1,0,0:0:0:0:
320,192,62042,1,2,0:0:0:0:
448,192,62042,1,0,0:0:0:0:
64,192,62196,1,2,0:0:0:0:
448,192,62196,1,0,0:0:0:0:
320,192,62273,1,0,0:0:0:0:
64,192,62350,1,8,0:0:0:0:
192,192,62350,1,0,0:0:0:0:
448,192,62350,1,0,0:0:0:0:
320,192,62504,1,0,0:0:0:0:
448,192,62580,1,0,0:0:0:0:
192,192,62657,1,0,0:0:0:0:
64,192,62734,1,0,0:0:0:0:
320,192,62811,1,2,0:0:0:0:
448,192,62811,1,0,0:0:0:0:
64,192,62965,1,8,0:0:0:0:
192,192,62965,1,0,0:0:0:0:
448,192,62965,1,0,0:0:0:0:
320,192,63119,1,0,0:0:0:0:
192,192,63196,1,0,0:0:0:0:
64,192,63273,1,2,0:0:0:0:
448,192,63273,1,0,0:0:0:0:
320,192,63427,1,2,0:0:0:0:
448,192,63427,1,0,0:0:0:0:
192,192,63504,1,0,0:0:0:0:
64,192,63580,1,8,0:0:0:0:
320,192,63580,1,0,0:0:0:0:
448,192,63580,1,0,0:0:0:0:
64,192,63734,128,2,63888:0:0:0:0:
192,192,63734,1,0,0:0:0:0:
320,192,63811,1,0,0:0:0:0:
448,192,63888,128,0,64042:0:0:0:0:
192,192,63965,1,0,0:0:0:0:
64,192,64042,128,2,64196:0:0:0:0:
320,192,64042,1,0,0:0:0:0:
192,192,64196,1,8,0:0:0:0:
320,192,64196,1,0,0:0:0:0:
448,192,64196,128,0,64350:0:0:0:0:
64,192,64350,128,0,64504:0:0:0:0:
192,192,64427,1,0,0:0:0:0:
320,192,64504,1,2,0:0:0:0:
448,192,64504,1,0,0:0:0:0:
192,192,64657,1,2,0:0:0:0:
320,192,64734,1,0,0:0:0:0:
64,192,64811,1,8,0:0:0:0:
192,192,64811,1,0,0:0:0:0:
448,192,64811,1,0,0:0:0:0:
320,192,64965,1,0,0:0:0:0:
192,192,65042,1,0,0:0:0:0:
448,192,65119,1,0,0:0:0:0:
320,192,65196,1,0,0:0:0:0:
64,192,65273,1,2,0:0:0:0:
192,192,65273,1,0,0:0:0:0:
64,192,65427,1,8,0:0:0:0:
320,192,65427,1,0,0:0:0:0:
448,192,65427,1,0,0:0:0:0:
192,192,65580,1,0,0:0:0:0:
320,192,65657,1,0,0:0:0:0:
64,192,65734,1,2,0:0:0:0:
192,192,65734,1,0,0:0:0:0:
64,192,65888,1,2,0:0:0:0:
448,192,65888,1,0,0:0:0:0:
320,192,65965,1,0,0:0:0:0:
64,192,66042,1,8,0:0:0:0:
192,192,66042,1,0,0:0:0:0:
448,192,66042,1,0,0:0:0:0:
320,192,66196,1,2,0:0:0:0:
448,192,66196,128,0,66350:0:0:0:0:
192,192,66273,1,0,0:0:0:0:
64,192,66350,128,0,66504:0:0:0:0:
320,192,66427,1,0,0:0:0:0:
192,192,66504,1,2,0:0:0:0:
448,192,66504,128,0,66657:0:0:0:0:
192,192,66657,1,8,0:0:0:0:
64,192,66657,128,0,66811:0:0:0:0:
320,192,66657,1,0,0:0:0:0:
448,192,66811,128,0,66965:0:0:0:0:
320,192,66888,1,0,0:0:0:0:
64,192,66965,1,2,0:0:0:0:
192,192,66965,1,0,0:0:0:0:
320,192,67119,1,2,0:0:0:0:
448,192,67119,1,0,0:0:0:0:
192,192,67196,1,0,0:0:0:0:
64,192,67273,1,8,0:0:0:0:
320,192,67273,1,0,0:0:0:0:
448,192,67273,1,0,0:0:0:0:
192,192,67427,1,0,0:0:0:0:
448,192,67504,1,0,0:0:0:0:
320,192,67580,1,0,0:0:0:0:
192,192,67657,1,0,0:0:0:0:
64,192,67734,1,2,0:0:0:0:
448,192,67734,1,0,0:0:0:0:
64,192,67888,1,8,0:0:0:0:
192,192,67888,1,0,0:0:0:0:
320,192,67888,1,0,0:0:0:0:
448,192,68042,1,0,0:0:0:0:
320,192,68119,1,0,0:0:0:0:
64,192,68196,1,2,0:0:0:0:
192,192,68196,1,0,0:0:0:0:
320,192,68350,1,2,0:0:0:0:
448,192,68350,1,0,0:0:0:0:
192,192,68427,1,2,0:0:0:0:
64,192,68504,1,8,0:0:0:0:
320,192,68504,1,0,0:0:0:0:
448,192,68504,1,0,0:0:0:0:
64,192,68657,1,2,0:0:0:0:
192,192,68657,1,0,0:0:0:0:
320,192,68734,1,2,0:0:0:0:
448,192,68811,1,0,0:0:0:0:
192,192,68888,1,0,0:0:0:0:
64,192,68965,1,2,0:0:0:0:
320,192,68965,1,0,0:0:0:0:
448,192,69042,1,2,0:0:0:0:
64,192,69119,1,8,0:0:0:0:
192,192,69119,1,0,0:0:0:0:
320,192,69196,1,8,0:0:0:0:
448,192,69196,1,0,0:0:0:0:
64,192,69273,1,8,0:0:0:0:
192,192,69273,1,0,0:0:0:0:
320,192,69350,1,8,0:0:0:0:
448,192,69350,1,0,0:0:0:0:
64,192,69427,1,2,0:0:0:0:
192,192,69427,1,4,0:0:0:0:
320,192,69580,1,2,0:0:0:0:
448,192,69580,1,0,0:0:0:0:
64,192,69734,1,8,0:0:0:0:
192,192,69734,1,0,0:0:0:0:
448,192,69734,1,0,0:0:0:0:
320,192,69888,1,0,0:0:0:0:
448,192,69965,1,0,0:0:0:0:
192,192,70042,1,0,0:0:0:0:
320,192,70119,1,0,0:0:0:0:
64,192,70196,1,2,0:0:0:0:
192,192,70196,1,0,0:0:0:0:
64,192,70350,1,8,0:0:0:0:
320,192,70350,1,0,0:0:0:0:
448,192,70350,1,0,0:0:0:0:
192,192,70504,1,0,0:0:0:0:
320,192,70580,1,0,0:0:0:0:
64,192,70657,1,2,0:0:0:0:
448,192,70657,1,0,0:0:0:0:
192,192,70811,1,2,0:0:0:0:
320,192,70811,1,0,0:0:0:0:
448,192,70888,1,0,0:0:0:0:
64,192,70965,1,8,0:0:0:0:
192,192,70965,1,0,0:0:0:0:
320,192,70965,1,0,0:0:0:0:
320,192,71119,1,2,0:0:0:0:
448,192,71119,128,0,71273:0:0:0:0:
192,192,71196,1,0,0:0:0:0:
64,192,71273,128,0,71427:0:0:0:0:
320,192,71350,1,0,0:0:0:0:
192,192,71427,1,2,0:0:0:0:
448,192,71427,128,0,71580:0:0:0:0:
64,192,71580,128,8,71734:0:0:0:0:
192,192,71580,1,0,0:0:0:0:
320,192,71580,1,0,0:0:0:0:
448,192,71734,128,0,71888:0:0:0:0:
320,192,71811,1,0,0:0:0:0:
64,192,71888,1,2,0:0:0:0:
192,192,71888,1,0,0:0:0:0:
64,192,72042,1,2,0:0:0:0:
448,192,72042,1,0,0:0:0:0:
192,192,72119,1,0,0:0:0:0:
64,192,72196,1,8,0:0:0:0:
320,192,72196,1,0,0:0:0:0:
448,192,72196,1,0,0:0:0:0:
192,192,72350,1,0,0:0:0:0:
64,192,72427,1,0,0:0:0:0:
320,192,72504,1,0,0:0:0:0:
448,192,72580,1,0,0:0:0:0:
64,192,72657,1,2,0:0:0:0:
192,192,72657,1,0,0:0:0:0:
64,192,72811,1,8,0:0:0:0:
320,192,72811,1,0,0:0:0:0:
448,192,72811,1,0,0:0:0:0:
192,192,72965,1,0,0:0:0:0:
320,192,73042,1,0,0:0:0:0:
64,192,73119,1,2,0:0:0:0:
448,192,73119,1,0,0:0:0:0:
192,192,73273,1,2,0:0:0:0:
320,192,73273,1,0,0:0:0:0:
448,192,73350,1,0,0:0:0:0:
64,192,73427,1,8,0:0:0:0:
192,192,73427,1,0,0:0:0:0:
320,192,73427,1,0,0:0:0:0:
320,192,73580,1,2,0:0:0:0:
448,192,73580,128,0,73734:0:0:0:0:
192,192,73657,1,0,0:0:0:0:
64,192,73734,128,0,73888:0:0:0:0:
320,192,73811,1,0,0:0:0:0:
192,192,73888,1,2,0:0:0:0:
448,192,73888,128,0,74042:0:0:0:0:
64,192,74042,128,8,74196:0:0:0:0:
192,192,74042,1,0,0:0:0:0:
320,192,74042,1,0,0:0:0:0:
448,192,74196,128,0,74350:0:0:0:0:
192,192,74273,1,0,0:0:0:0:
64,192,74350,1,2,0:0:0:0:
320,192,74350,1,0,0:0:0:0:
64,192,74504,1,2,0:0:0:0:
448,192,74504,1,0,0:0:0:0:
192,192,74580,1,0,0:0:0:0:
64,192,74657,1,8,0:0:0:0:
320,192,74657,1,0,0:0:0:0:
448,192,74657,1,0,0:0:0:0:
192,192,74811,1,0,0:0:0:0:
64,192,74888,1,0,0:0:0:0:
320,192,74965,1,0,0:0:0:0:
192,192,75042,1,0,0:0:0:0:
320,192,75119,1,2,0:0:0:0:
448,192,75119,1,0,0:0:0:0:
64,192,75273,1,8,0:0:0:0:
192,192,75273,1,0,0:0:0:0:
448,192,75273,1,0,0:0:0:0:
320,192,75427,1,0,0:0:0:0:
192,192,75504,1,0,0:0:0:0:
320,192,75580,1,2,0:0:0:0:
448,192,75580,1,0,0:0:0:0:
64,192,75734,1,2,0:0:0:0:
192,192,75734,1,0,0:0:0:0:
320,192,75811,1,0,0:0:0:0:
64,192,75888,1,8,0:0:0:0:
192,192,75888,1,0,0:0:0:0:
448,192,75888,1,0,0:0:0:0:
320,192,76042,1,2,0:0:0:0:
448,192,76042,128,0,76196:0:0:0:0:
192,192,76119,1,0,0:0:0:0:
64,192,76196,128,0,76350:0:0:0:0:
320,192,76273,1,0,0:0:0:0:
192,192,76350,1,2,0:0:0:0:
448,192,76350,128,0,76504:0:0:0:0:
64,192,76504,128,8,76657:0:0:0:0:
192,192,76504,1,0,0:0:0:0:
320,192,76504,1,0,0:0:0:0:
448,192,76657,128,0,76811:0:0:0:0:
320,192,76734,1,0,0:0:0:0:
64,192,76811,1,2,0:0:0:0:
192,192,76811,1,0,0:0:0:0:
320,192,76965,1,2,0:0:0:0:
448,192,76965,1,0,0:0:0:0:
192,192,77042,1,0,0:0:0:0:
64,192,77119,1,8,0:0:0:0:
448,192,77119,1,0,0:0:0:0:
320,192,77273,1,0,0:0:0:0:
192,192,77350,1,0,0:0:0:0:
64,192,77427,1,0,0:0:0:0:
320,192,77504,1,0,0:0:0:0:
64,192,77580,1,2,0:0:0:0:
192,192,77580,1,0,0:0:0:0:
192,192,77734,1,8,0:0:0:0:
320,192,77734,1,0,0:0:0:0:
448,192,77734,1,0,0:0:0:0:
64,192,77888,1,0,0:0:0:0:
192,192,77965,1,0,0:0:0:0:
320,192,78042,1,2,0:0:0:0:
448,192,78042,1,0,0:0:0:0:
64,192,78196,1,2,0:0:0:0:
192,192,78196,1,0,0:0:0:0:
320,192,78273,1,2,0:0:0:0:
64,192,78350,1,8,0:0:0:0:
192,192,78350,1,0,0:0:0:0:
448,192,78350,1,0,0:0:0:0:
320,192,78504,1,2,0:0:0:0:
448,192,78504,1,0,0:0:0:0:
64,192,78580,1,2,0:0:0:0:
192,192,78657,1,0,0:0:0:0:
320,192,78734,1,0,0:0:0:0:
64,192,78811,1,2,0:0:0:0:
192,192,78811,1,0,0:0:0:0:
448,192,78850,1,0,0:0:0:0:
320,192,78888,1,2,0:0:0:0:
192,192,78927,1,0,0:0:0:0:
64,192,78965,1,8,0:0:0:0:
448,192,78965,1,0,0:0:0:0:
64,192,79119,1,8,0:0:0:0:
192,192,79119,1,0,0:0:0:0:
320,192,79196,1,8,0:0:0:0:
64,192,79273,128,6,79427:0:0:0:0:
448,192,79273,1,0,0:0:0:70:twinkling.wav
192,192,79427,1,0,0:0:0:0:
320,192,79580,128,0,79734:0:0:0:0:
448,192,79734,128,0,79888:0:0:0:0:
64,192,79888,128,0,80042:0:0:0:0:
320,192,80042,128,0,80196:0:0:0:0:
192,192,80196,128,0,80350:0:0:0:0:
448,192,80350,128,0,80504:0:0:0:0:
320,192,80504,128,0,80657:0:0:0:0:
192,192,80657,1,0,0:0:0:0:
64,192,80811,128,0,80965:0:0:0:0:
448,192,80965,128,0,81119:0:0:0:0:
320,192,81119,1,0,0:0:0:0:
192,192,81273,128,0,81427:0:0:0:0:
448,192,81427,1,0,0:0:0:0:
320,192,81580,128,0,81734:0:0:0:0:
64,192,81734,128,0,81888:0:0:0:0:
448,192,81888,1,0,0:0:0:0:
192,192,82042,128,0,82196:0:0:0:0:
320,192,82196,128,0,82350:0:0:0:0:
448,192,82350,128,0,82504:0:0:0:0:
192,192,82504,128,0,82657:0:0:0:0:
320,192,82657,128,0,82811:0:0:0:0:
64,192,82811,128,0,82965:0:0:0:0:
448,192,82965,128,0,83119:0:0:0:0:
64,192,83119,1,0,0:0:0:0:
192,192,83273,128,0,83427:0:0:0:0:
320,192,83427,128,0,83580:0:0:0:0:
448,192,83580,1,0,0:0:0:0:
64,192,83734,128,0,83888:0:0:0:0:
320,192,83888,1,0,0:0:0:0:
448,192,84042,128,0,84196:0:0:0:0:
192,192,84196,128,0,84350:0:0:0:0:
64,192,84350,1,0,0:0:0:0:
320,192,84504,1,0,0:0:0:0:
448,192,84657,128,0,84811:0:0:0:0:
64,192,84811,128,0,84965:0:0:0:0:
448,192,84965,128,0,85119:0:0:0:0:
64,192,85119,128,0,85273:0:0:0:0:
448,192,85273,128,0,85427:0:0:0:0:
320,192,85427,128,0,85580:0:0:0:0:
64,192,85580,1,0,0:0:0:0:
448,192,85734,1,0,0:0:0:0:
192,192,85888,128,0,86042:0:0:0:0:
320,192,86042,128,0,86196:0:0:0:0:
192,192,86196,128,0,86350:0:0:0:0:
320,192,86350,128,0,86504:0:0:0:0:
64,192,86504,128,0,86657:0:0:0:0:
448,192,86657,128,0,86811:0:0:0:0:
320,192,86811,1,0,0:0:0:0:
192,192,86965,128,0,87119:0:0:0:0:
320,192,87119,128,0,87273:0:0:0:0:
448,192,87273,1,0,0:0:0:0:
64,192,87427,128,0,87580:0:0:0:0:
192,192,87580,1,0,0:0:0:0:
448,192,87734,128,0,87888:0:0:0:0:
320,192,87888,1,0,0:0:0:0:
192,192,88042,128,0,88196:0:0:0:0:
64,192,88196,1,0,0:0:0:0:
448,192,88350,128,0,88504:0:0:0:0:
320,192,88504,128,0,88657:0:0:0:0:
64,192,88657,128,0,89119:0:0:0:0:
448,192,88811,128,0,88965:0:0:0:0:
192,192,88965,128,0,89119:0:0:0:0:
320,192,89119,1,2,0:0:0:0:
448,192,89119,128,0,89273:0:0:0:0:
64,192,89273,1,0,0:0:0:0:
192,192,89427,128,0,89580:0:0:0:0:
320,192,89580,128,0,89734:0:0:0:0:
448,192,89734,128,0,89888:0:0:0:0:
192,192,89888,128,0,90042:0:0:0:0:
320,192,90042,128,0,90196:0:0:0:0:
64,192,90196,128,0,90350:0:0:0:0:
192,192,90350,1,0,0:0:0:0:
320,192,90504,1,0,0:0:0:0:
64,192,90657,1,2,0:0:0:0:
448,192,90657,128,0,90811:0:0:0:0:
192,192,90811,128,0,90965:0:0:0:0:
448,192,90965,1,0,0:0:0:0:
320,192,91119,128,0,91273:0:0:0:0:
64,192,91273,1,0,0:0:0:0:
192,192,91427,128,0,91580:0:0:0:0:
320,192,91580,1,2,0:0:0:0:
448,192,91580,1,0,0:0:0:0:
64,192,91734,1,0,0:0:0:0:
320,192,91888,128,0,92042:0:0:0:0:
192,192,92042,128,0,92196:0:0:0:0:
64,192,92196,128,0,92350:0:0:0:0:
320,192,92350,128,0,92504:0:0:0:0:
192,192,92504,128,0,92657:0:0:0:0:
448,192,92657,128,0,92811:0:0:0:0:
64,192,92811,128,0,92965:0:0:0:0:
192,192,92965,1,0,0:0:0:0:
320,192,93119,128,2,93273:0:0:0:0:
448,192,93119,1,0,0:0:0:0:
192,192,93273,128,0,93427:0:0:0:0:
64,192,93427,1,0,0:0:0:0:
448,192,93580,128,0,93734:0:0:0:0:
192,192,93734,1,2,0:0:0:0:
320,192,93734,1,0,0:0:0:0:
64,192,93888,128,0,94042:0:0:0:0:
192,192,94042,1,2,0:0:0:0:
320,192,94042,128,0,94196:0:0:0:0:
448,192,94196,1,0,0:0:0:0:
192,192,94350,1,0,0:0:0:0:
64,192,94504,128,0,94657:0:0:0:0:
448,192,94657,128,0,94811:0:0:0:0:
64,192,94811,128,0,94965:0:0:0:0:
448,192,94965,128,0,95119:0:0:0:0:
64,192,95119,128,0,95273:0:0:0:0:
192,192,95273,128,0,95427:0:0:0:0:
448,192,95427,1,0,0:0:0:0:
64,192,95580,1,2,0:0:0:0:
192,192,95580,1,0,0:0:0:0:
320,192,95734,128,0,95888:0:0:0:0:
192,192,95888,128,0,96042:0:0:0:0:
320,192,96042,128,0,96196:0:0:0:0:
192,192,96196,128,0,96350:0:0:0:0:
448,192,96350,128,0,96504:0:0:0:0:
64,192,96504,128,2,96657:0:0:0:0:
320,192,96504,1,0,0:0:0:0:
192,192,96657,1,0,0:0:0:0:
320,192,96811,128,0,96965:0:0:0:0:
192,192,96965,128,0,97119:0:0:0:0:
64,192,97119,1,0,0:0:0:0:
448,192,97273,128,0,97427:0:0:0:0:
320,192,97427,1,0,0:0:0:0:
64,192,97580,128,0,97734:0:0:0:0:
192,192,97734,1,0,0:0:0:0:
320,192,97888,128,0,98042:0:0:0:0:
192,192,98042,1,2,0:0:0:0:
448,192,98042,128,0,98196:0:0:0:0:
64,192,98196,128,0,98350:0:0:0:0:
320,192,98350,1,0,0:0:0:0:
448,192,98504,128,0,98965:0:0:0:0:
64,192,98657,128,2,98811:0:0:0:0:
192,192,98657,1,0,0:0:0:0:
320,192,98811,128,0,98965:0:0:0:0:
64,192,98965,1,2,0:0:0:0:
192,192,98965,1,0,0:0:0:0:
64,192,100965,1,0,0:0:0:0:
192,192,101004,1,0,0:0:0:0:
448,192,101042,1,0,0:0:0:0:
320,192,101080,1,0,0:0:0:0:
192,192,101119,128,0,101196:0:0:0:0:
448,192,101196,128,0,101273:0:0:0:0:
64,192,101273,128,0,101350:0:0:0:0:
320,192,101350,128,0,101427:0:0:0:0:
64,192,101427,1,2,0:0:0:0:
192,192,101427,1,4,0:0:0:0:
448,192,101427,1,8,0:0:0:0:
320,192,101580,1,2,0:0:0:0:
448,192,101580,1,0,0:0:0:0:
64,192,101734,1,8,0:0:0:0:
192,192,101734,1,0,0:0:0:0:
448,192,101888,1,0,0:0:0:0:
320,192,101965,1,0,0:0:0:0:
192,192,102042,1,0,0:0:0:0:
64,192,102119,1,0,0:0:0:0:
320,192,102196,1,2,0:0:0:0:
448,192,102196,1,0,0:0:0:0:
192,192,102273,1,0,0:0:0:0:
64,192,102350,1,8,0:0:0:0:
448,192,102350,1,0,0:0:0:0:
320,192,102504,1,0,0:0:0:0:
64,192,102657,1,2,0:0:0:0:
192,192,102657,1,0,0:0:0:0:
192,192,102811,1,2,0:0:0:0:
320,192,102811,1,0,0:0:0:0:
320,192,102965,1,8,0:0:0:0:
448,192,102965,1,0,0:0:0:0:
64,192,103119,1,2,0:0:0:0:
192,192,103119,1,0,0:0:0:0:
448,192,103196,1,0,0:0:0:0:
320,192,103273,1,0,0:0:0:0:
192,192,103350,1,0,0:0:0:0:
64,192,103427,1,2,0:0:0:0:
448,192,103427,1,0,0:0:0:0:
320,192,103504,1,0,0:0:0:0:
64,192,103580,1,8,0:0:0:0:
192,192,103580,1,0,0:0:0:0:
320,192,103734,1,0,0:0:0:0:
64,192,103888,1,2,0:0:0:0:
448,192,103888,1,0,0:0:0:0:
192,192,104042,1,2,0:0:0:0:
320,192,104042,1,0,0:0:0:0:
64,192,104196,1,8,0:0:0:0:
448,192,104196,1,0,0:0:0:0:
192,192,104350,128,0,104504:0:0:0:0:
448,192,104504,128,0,104657:0:0:0:0:
64,192,104657,128,2,104811:0:0:0:0:
320,192,104657,1,0,0:0:0:0:
192,192,104811,1,8,0:0:0:0:
448,192,104811,1,0,0:0:0:0:
320,192,104965,128,0,105119:0:0:0:0:
64,192,105119,1,2,0:0:0:0:
192,192,105119,1,0,0:0:0:0:
320,192,105273,1,2,0:0:0:0:
448,192,105273,128,0,105427:0:0:0:0:
64,192,105427,1,8,0:0:0:0:
192,192,105427,1,0,0:0:0:0:
192,192,105580,128,2,105734:0:0:0:0:
320,192,105580,1,0,0:0:0:0:
448,192,105734,128,0,105888:0:0:0:0:
64,192,105888,128,2,106042:0:0:0:0:
192,192,105888,1,0,0:0:0:0:
320,192,106042,1,8,0:0:0:0:
448,192,106042,1,0,0:0:0:0:
192,192,106196,128,0,106350:0:0:0:0:
64,192,106350,1,2,0:0:0:0:
448,192,106350,1,0,0:0:0:0:
320,192,106427,1,0,0:0:0:0:
192,192,106504,1,0,0:0:0:0:
64,192,106580,1,0,0:0:0:0:
320,192,106657,1,8,0:0:0:0:
448,192,106657,1,0,0:0:0:0:
192,192,106734,1,0,0:0:0:0:
64,192,106811,1,0,0:0:0:0:
320,192,106888,1,0,0:0:0:0:
192,192,106965,1,0,0:0:0:0:
448,192,107042,1,0,0:0:0:0:
64,192,107119,1,2,0:0:0:0:
192,192,107119,1,0,0:0:0:0:
320,192,107196,1,0,0:0:0:0:
64,192,107273,1,8,0:0:0:0:
448,192,107273,1,0,0:0:0:0:
192,192,107350,1,0,0:0:0:0:
320,192,107427,1,0,0:0:0:0:
448,192,107504,1,0,0:0:0:0:
64,192,107580,1,2,0:0:0:0:
192,192,107580,1,0,0:0:0:0:
320,192,107657,1,0,0:0:0:0:
64,192,107734,1,2,0:0:0:0:
448,192,107734,1,0,0:0:0:0:
192,192,107811,1,0,0:0:0:0:
320,192,107888,1,8,0:0:0:0:
448,192,107888,1,0,0:0:0:0:
192,192,107965,1,0,0:0:0:0:
64,192,108042,1,2,0:0:0:0:
448,192,108042,1,0,0:0:0:0:
320,192,108119,1,0,0:0:0:0:
192,192,108196,1,0,0:0:0:0:
64,192,108273,1,0,0:0:0:0:
320,192,108350,1,2,0:0:0:0:
448,192,108350,1,0,0:0:0:0:
192,192,108427,1,0,0:0:0:0:
64,192,108504,1,8,0:0:0:0:
448,192,108504,1,0,0:0:0:0:
320,192,108580,1,0,0:0:0:0:
192,192,108657,1,0,0:0:0:0:
64,192,108734,1,0,0:0:0:0:
320,192,108811,1,2,0:0:0:0:
448,192,108811,1,0,0:0:0:0:
192,192,108888,1,0,0:0:0:0:
320,192,108965,1,0,0:0:0:0:
448,192,109042,1,0,0:0:0:0:
64,192,109119,1,8,0:0:0:0:
192,192,109119,1,0,0:0:0:0:
320,192,109196,1,0,0:0:0:0:
448,192,109273,1,0,0:0:0:0:
192,192,109350,1,0,0:0:0:0:
320,192,109427,1,0,0:0:0:0:
64,192,109504,1,0,0:0:0:0:
320,192,109580,1,2,0:0:0:0:
448,192,109580,1,0,0:0:0:0:
192,192,109657,1,0,0:0:0:0:
64,192,109734,1,8,0:0:0:0:
448,192,109734,1,0,0:0:0:0:
320,192,109811,1,0,0:0:0:0:
192,192,109888,1,0,0:0:0:0:
64,192,109965,1,0,0:0:0:0:
320,192,110042,1,2,0:0:0:0:
448,192,110042,1,0,0:0:0:0:
64,192,110196,1,2,0:0:0:0:
448,192,110196,1,0,0:0:0:0:
320,192,110273,1,2,0:0:0:0:
64,192,110350,1,8,0:0:0:0:
192,192,110350,1,0,0:0:0:0:
320,192,110504,1,2,0:0:0:0:
448,192,110504,1,0,0:0:0:0:
192,192,110580,1,2,0:0:0:0:
64,192,110657,1,0,0:0:0:0:
448,192,110657,1,0,0:0:0:0:
192,192,110811,1,2,0:0:0:0:
320,192,110811,1,0,0:0:0:0:
320,192,110965,1,8,0:0:0:0:
448,192,110965,1,0,0:0:0:0:
64,192,111042,1,8,0:0:0:0:
192,192,111042,1,0,0:0:0:0:
320,192,111119,1,8,0:0:0:0:
448,192,111119,1,0,0:0:0:0:
64,192,111196,1,8,0:0:0:0:
192,192,111196,1,0,0:0:0:0:
320,192,111273,1,2,0:0:0:0:
448,192,111273,1,4,0:0:0:0:
64,192,111427,1,2,0:0:0:0:
192,192,111427,1,0,0:0:0:0:
320,192,111580,1,8,0:0:0:0:
448,192,111580,1,0,0:0:0:0:
64,192,111734,1,0,0:0:0:0:
192,192,111811,1,0,0:0:0:0:
320,192,111888,1,0,0:0:0:0:
448,192,111965,1,0,0:0:0:0:
64,192,112042,1,2,0:0:0:0:
192,192,112042,1,0,0:0:0:0:
320,192,112119,1,0,0:0:0:0:
64,192,112196,1,8,0:0:0:0:
448,192,112196,1,0,0:0:0:0:
192,192,112350,1,0,0:0:0:0:
64,192,112504,1,2,0:0:0:0:
448,192,112504,1,0,0:0:0:0:
192,192,112657,1,2,0:0:0:0:
320,192,112657,1,0,0:0:0:0:
64,192,112811,1,8,0:0:0:0:
192,192,112811,1,0,0:0:0:0:
320,192,112965,1,2,0:0:0:0:
448,192,112965,1,0,0:0:0:0:
64,192,113042,1,0,0:0:0:0:
192,192,113119,1,0,0:0:0:0:
320,192,113196,1,0,0:0:0:0:
64,192,113273,1,2,0:0:0:0:
448,192,113273,1,0,0:0:0:0:
192,192,113350,1,0,0:0:0:0:
320,192,113427,1,8,0:0:0:0:
448,192,113427,1,0,0:0:0:0:
192,192,113580,1,0,0:0:0:0:
64,192,113734,1,2,0:0:0:0:
448,192,113734,1,0,0:0:0:0:
192,192,113888,1,2,0:0:0:0:
320,192,113888,1,0,0:0:0:0:
64,192,114042,1,8,0:0:0:0:
448,192,114042,1,0,0:0:0:0:
320,192,114196,128,0,114350:0:0:0:0:
64,192,114350,128,0,114504:0:0:0:0:
192,192,114504,1,2,0:0:0:0:
448,192,114504,128,0,114657:0:0:0:0:
64,192,114657,1,8,0:0:0:0:
320,192,114657,1,0,0:0:0:0:
192,192,114811,128,0,114965:0:0:0:0:
320,192,114965,1,2,0:0:0:0:
448,192,114965,1,0,0:0:0:0:
64,192,115119,128,2,115273:0:0:0:0:
192,192,115119,1,0,0:0:0:0:
320,192,115273,1,8,0:0:0:0:
448,192,115273,1,0,0:0:0:0:
192,192,115427,1,2,0:0:0:0:
320,192,115427,128,0,115580:0:0:0:0:
64,192,115580,1,0,0:0:0:0:
320,192,115734,1,2,0:0:0:0:
448,192,115734,128,0,115888:0:0:0:0:
64,192,115888,1,8,0:0:0:0:
192,192,115888,1,0,0:0:0:0:
320,192,116042,128,0,116196:0:0:0:0:
64,192,116196,1,2,0:0:0:0:
448,192,116196,1,0,0:0:0:0:
192,192,116273,1,0,0:0:0:0:
320,192,116350,1,0,0:0:0:0:
448,192,116427,1,0,0:0:0:0:
64,192,116504,1,8,0:0:0:0:
192,192,116504,1,0,0:0:0:0:
320,192,116580,1,0,0:0:0:0:
448,192,116657,1,0,0:0:0:0:
192,192,116734,1,0,0:0:0:0:
320,192,116811,1,0,0:0:0:0:
64,192,116888,1,0,0:0:0:0:
320,192,116965,1,2,0:0:0:0:
448,192,116965,1,0,0:0:0:0:
192,192,117042,1,0,0:0:0:0:
64,192,117119,1,8,0:0:0:0:
448,192,117119,1,0,0:0:0:0:
320,192,117196,1,0,0:0:0:0:
192,192,117273,1,0,0:0:0:0:
64,192,117350,1,0,0:0:0:0:
320,192,117427,1,2,0:0:0:0:
448,192,117427,1,0,0:0:0:0:
64,192,117504,1,0,0:0:0:0:
192,192,117580,1,2,0:0:0:0:
320,192,117580,1,0,0:0:0:0:
448,192,117657,1,0,0:0:0:0:
64,192,117734,1,8,0:0:0:0:
192,192,117734,1,0,0:0:0:0:
320,192,117811,1,0,0:0:0:0:
64,192,117888,1,2,0:0:0:0:
448,192,117888,1,0,0:0:0:0:
192,192,117965,1,0,0:0:0:0:
320,192,118042,1,0,0:0:0:0:
448,192,118119,1,0,0:0:0:0:
64,192,118196,1,2,0:0:0:0:
192,192,118196,1,0,0:0:0:0:
320,192,118273,1,0,0:0:0:0:
64,192,118350,1,8,0:0:0:0:
448,192,118350,1,0,0:0:0:0:
192,192,118427,1,0,0:0:0:0:
320,192,118504,1,0,0:0:0:0:
448,192,118580,1,0,0:0:0:0:
64,192,118657,1,2,0:0:0:0:
192,192,118657,1,0,0:0:0:0:
320,192,118734,1,0,0:0:0:0:
192,192,118811,1,0,0:0:0:0:
64,192,118888,1,0,0:0:0:0:
320,192,118965,1,8,0:0:0:0:
448,192,118965,1,0,0:0:0:0:
192,192,119042,1,0,0:0:0:0:
64,192,119119,1,0,0:0:0:0:
320,192,119196,1,0,0:0:0:0:
192,192,119273,1,0,0:0:0:0:
448,192,119350,1,0,0:0:0:0:
64,192,119427,1,2,0:0:0:0:
192,192,119427,1,0,0:0:0:0:
320,192,119504,1,0,0:0:0:0:
64,192,119580,1,8,0:0:0:0:
448,192,119580,1,0,0:0:0:0:
192,192,119657,1,0,0:0:0:0:
320,192,119734,1,0,0:0:0:0:
448,192,119811,1,0,0:0:0:0:
64,192,119888,1,2,0:0:0:0:
192,192,119888,1,0,0:0:0:0:
64,192,120042,1,2,0:0:0:0:
448,192,120042,1,0,0:0:0:0:
192,192,120119,1,2,0:0:0:0:
320,192,120196,1,8,0:0:0:0:
448,192,120196,1,0,0:0:0:0:
64,192,120350,1,2,0:0:0:0:
320,192,120350,1,0,0:0:0:0:
192,192,120427,1,2,0:0:0:0:
320,192,120504,1,0,0:0:0:0:
448,192,120504,1,0,0:0:0:0:
64,192,120657,1,2,0:0:0:0:
192,192,120696,1,0,0:0:0:0:
320,192,120734,1,2,0:0:0:0:
448,192,120773,1,0,0:0:0:0:
64,192,120811,1,8,0:0:0:0:
192,192,120811,1,0,0:0:0:0:
320,192,120888,1,8,0:0:0:0:
448,192,120888,1,0,0:0:0:0:
64,192,120965,1,8,0:0:0:0:
192,192,120965,1,2,0:0:0:0:
320,192,121042,1,8,0:0:0:0:
448,192,121042,1,2,0:0:0:0:
64,192,121119,1,2,0:0:0:0:
192,192,121119,1,4,0:0:0:0:
320,192,121273,1,2,0:0:0:0:
448,192,121273,1,0,0:0:0:0:
64,192,121427,1,8,0:0:0:0:
192,192,121427,1,0,0:0:0:0:
448,192,121427,1,0,0:0:0:0:
320,192,121580,1,0,0:0:0:0:
448,192,121657,1,0,0:0:0:0:
192,192,121734,1,0,0:0:0:0:
64,192,121811,1,0,0:0:0:0:
320,192,121888,1,2,0:0:0:0:
448,192,121888,1,0,0:0:0:0:
64,192,122042,1,8,0:0:0:0:
192,192,122042,1,0,0:0:0:0:
448,192,122042,1,0,0:0:0:0:
320,192,122196,1,0,0:0:0:0:
64,192,122350,1,2,0:0:0:0:
192,192,122350,1,0,0:0:0:0:
320,192,122504,1,2,0:0:0:0:
448,192,122504,1,0,0:0:0:0:
64,192,122657,1,8,0:0:0:0:
192,192,122657,1,0,0:0:0:0:
320,192,122657,1,0,0:0:0:0:
64,192,122811,1,2,0:0:0:0:
448,192,122811,1,0,0:0:0:0:
192,192,122888,1,0,0:0:0:0:
320,192,122965,1,0,0:0:0:0:
448,192,123042,1,0,0:0:0:0:
64,192,123119,1,2,0:0:0:0:
192,192,123119,1,0,0:0:0:0:
64,192,123273,1,8,0:0:0:0:
320,192,123273,1,0,0:0:0:0:
448,192,123273,1,0,0:0:0:0:
192,192,123427,1,0,0:0:0:0:
320,192,123580,1,2,0:0:0:0:
448,192,123580,1,0,0:0:0:0:
64,192,123734,1,2,0:0:0:0:
192,192,123734,1,0,0:0:0:0:
64,192,123888,1,8,0:0:0:0:
320,192,123888,1,0,0:0:0:0:
448,192,123888,1,0,0:0:0:0:
192,192,124042,1,0,0:0:0:0:
64,192,124119,1,0,0:0:0:0:
320,192,124196,1,0,0:0:0:0:
448,192,124273,1,0,0:0:0:0:
64,192,124350,1,2,0:0:0:0:
192,192,124350,1,0,0:0:0:0:
64,192,124504,1,8,0:0:0:0:
320,192,124504,1,0,0:0:0:0:
448,192,124504,1,0,0:0:0:0:
192,192,124657,1,0,0:0:0:0:
64,192,124811,1,2,0:0:0:0:
448,192,124811,1,0,0:0:0:0:
192,192,124965,1,2,0:0:0:0:
320,192,124965,1,0,0:0:0:0:
64,192,125119,1,8,0:0:0:0:
192,192,125119,1,0,0:0:0:0:
448,192,125119,1,0,0:0:0:0:
320,192,125273,1,2,0:0:0:0:
448,192,125273,1,0,0:0:0:0:
64,192,125350,1,0,0:0:0:0:
192,192,125427,1,0,0:0:0:0:
320,192,125504,1,0,0:0:0:0:
64,192,125580,1,2,0:0:0:0:
448,192,125580,1,0,0:0:0:0:
64,192,125734,1,8,0:0:0:0:
192,192,125734,1,0,0:0:0:0:
320,192,125734,1,0,0:0:0:0:
448,192,125888,1,0,0:0:0:0:
192,192,126042,1,2,0:0:0:0:
320,192,126042,1,0,0:0:0:0:
64,192,126196,1,2,0:0:0:0:
448,192,126196,1,0,0:0:0:0:
192,192,126350,1,8,0:0:0:0:
320,192,126350,1,0,0:0:0:0:
448,192,126350,1,0,0:0:0:0:
64,192,126504,1,0,0:0:0:0:
192,192,126580,1,0,0:0:0:0:
320,192,126657,1,0,0:0:0:0:
448,192,126734,1,0,0:0:0:0:
64,192,126811,1,2,0:0:0:0:
192,192,126811,1,0,0:0:0:0:
64,192,126965,1,8,0:0:0:0:
320,192,126965,1,0,0:0:0:0:
448,192,126965,1,0,0:0:0:0:
192,192,127119,1,0,0:0:0:0:
320,192,127273,1,2,0:0:0:0:
448,192,127273,1,0,0:0:0:0:
64,192,127427,1,2,0:0:0:0:
192,192,127427,1,0,0:0:0:0:
64,192,127580,1,8,0:0:0:0:
320,192,127580,1,0,0:0:0:0:
448,192,127580,1,0,0:0:0:0:
192,192,127734,1,2,0:0:0:0:
448,192,127734,1,0,0:0:0:0:
320,192,127811,1,0,0:0:0:0:
64,192,127888,1,0,0:0:0:0:
192,192,127965,1,0,0:0:0:0:
320,192,128042,1,2,0:0:0:0:
448,192,128042,1,0,0:0:0:0:
64,192,128196,1,8,0:0:0:0:
192,192,128196,1,0,0:0:0:0:
448,192,128196,1,0,0:0:0:0:
320,192,128350,1,0,0:0:0:0:
64,192,128504,1,2,0:0:0:0:
448,192,128504,1,0,0:0:0:0:
192,192,128657,1,2,0:0:0:0:
320,192,128657,1,0,0:0:0:0:
64,192,128811,1,8,0:0:0:0:
192,192,128811,1,0,0:0:0:0:
448,192,128811,1,0,0:0:0:0:
320,192,128965,1,0,0:0:0:0:
192,192,129042,1,0,0:0:0:0:
448,192,129119,1,0,0:0:0:0:
320,192,129196,1,0,0:0:0:0:
64,192,129273,1,2,0:0:0:0:
192,192,129273,1,0,0:0:0:0:
192,192,129427,1,8,0:0:0:0:
320,192,129427,1,0,0:0:0:0:
448,192,129427,1,0,0:0:0:0:
64,192,129580,1,0,0:0:0:0:
320,192,129734,1,2,0:0:0:0:
448,192,129734,1,0,0:0:0:0:
64,192,129888,1,2,0:0:0:0:
448,192,129888,1,0,0:0:0:0:
320,192,129965,1,2,0:0:0:0:
64,192,130042,1,8,0:0:0:0:
192,192,130042,1,0,0:0:0:0:
64,192,130196,1,2,0:0:0:0:
448,192,130196,1,0,0:0:0:0:
192,192,130273,1,2,0:0:0:0:
320,192,130350,1,0,0:0:0:0:
448,192,130350,1,0,0:0:0:0:
64,192,130504,1,2,0:0:0:0:
192,192,130542,1,0,0:0:0:0:
320,192,130580,1,2,0:0:0:0:
448,192,130619,1,0,0:0:0:0:
64,192,130657,1,8,0:0:0:0:
192,192,130657,1,0,0:0:0:0:
320,192,130734,1,0,0:0:0:0:
448,192,130734,1,0,0:0:0:0:
64,192,130811,1,8,0:0:0:0:
192,192,130811,1,0,0:0:0:0:
320,192,130888,1,8,0:0:0:0:
448,192,130888,1,0,0:0:0:0:
64,192,130965,128,6,132196:0:0:0:0:
192,192,130965,1,0,0:0:0:70:twinkling.wav
320,192,131119,128,0,131273:0:0:0:0:
448,192,131273,128,0,131427:0:0:0:0:
320,192,131427,1,0,0:0:0:0:
192,192,131580,128,0,131734:0:0:0:0:
448,192,131734,128,0,131888:0:0:0:0:
320,192,131888,1,0,0:0:0:0:
192,192,132042,128,0,132196:0:0:0:0:
320,192,132196,128,0,133427:0:0:0:0:
448,192,132196,128,0,132350:0:0:0:0:
192,192,132350,1,0,0:0:0:0:
64,192,132504,128,0,132657:0:0:0:0:
448,192,132657,128,0,132811:0:0:0:0:
64,192,132811,1,0,0:0:0:0:
192,192,132965,128,0,133119:0:0:0:0:
64,192,133119,128,0,133273:0:0:0:0:
448,192,133273,1,0,0:0:0:0:
64,192,133427,128,0,133580:0:0:0:0:
192,192,133427,128,0,134657:0:0:0:0:
448,192,133580,128,0,133734:0:0:0:0:
320,192,133734,128,0,133888:0:0:0:0:
64,192,133888,128,0,134042:0:0:0:0:
448,192,134042,128,0,134196:0:0:0:0:
320,192,134196,128,0,134350:0:0:0:0:
64,192,134350,128,0,134504:0:0:0:0:
320,192,134504,128,0,134657:0:0:0:0:
64,192,134657,128,0,134811:0:0:0:0:
448,192,134657,128,0,135888:0:0:0:0:
320,192,134811,128,0,134965:0:0:0:0:
192,192,134965,128,0,135119:0:0:0:0:
64,192,135119,128,0,135273:0:0:0:0:
320,192,135273,128,0,135427:0:0:0:0:
64,192,135427,128,0,135580:0:0:0:0:
192,192,135580,128,0,135734:0:0:0:0:
320,192,135734,128,0,135888:0:0:0:0:
64,192,135888,128,0,137119:0:0:0:0:
192,192,135888,1,0,0:0:0:0:
320,192,136042,128,0,136196:0:0:0:0:
448,192,136196,128,0,136350:0:0:0:0:
192,192,136350,1,0,0:0:0:0:
320,192,136504,128,0,136657:0:0:0:0:
448,192,136657,128,0,136811:0:0:0:0:
320,192,136811,1,0,0:0:0:0:
192,192,136965,128,0,137119:0:0:0:0:
320,192,137119,128,0,138350:0:0:0:0:
448,192,137119,128,0,137273:0:0:0:0:
64,192,137273,1,0,0:0:0:0:
448,192,137427,128,0,137580:0:0:0:0:
192,192,137580,128,0,137734:0:0:0:0:
64,192,137734,128,0,137888:0:0:0:0:
448,192,137888,1,0,0:0:0:0:
192,192,138042,128,0,138196:0:0:0:0:
448,192,138196,128,0,138350:0:0:0:0:
64,192,138350,128,0,138504:0:0:0:0:
192,192,138350,128,0,139580:0:0:0:0:
320,192,138504,128,0,138657:0:0:0:0:
448,192,138657,128,0,138811:0:0:0:0:
64,192,138811,1,0,0:0:0:0:
320,192,138965,128,0,139119:0:0:0:0:
448,192,139119,128,0,139273:0:0:0:0:
64,192,139273,1,0,0:0:0:0:
320,192,139427,128,0,139580:0:0:0:0:
64,192,139580,128,0,139734:0:0:0:0:
448,192,139580,128,0,140811:0:0:0:0:
192,192,139734,1,0,0:0:0:0:
320,192,139888,128,0,140042:0:0:0:0:
64,192,140042,128,0,140196:0:0:0:0:
320,192,140196,1,0,0:0:0:0:
64,192,140350,1,0,0:0:0:0:
320,192,140504,1,0,0:0:0:0:
64,192,140657,1,0,0:0:0:0:
64,192,140811,1,2,0:0:0:0:
192,192,140811,1,4,0:0:0:0:
320,192,140811,1,0,0:0:0:0:
