osu file format v14

[General]
AudioFilename: audio.mp3
AudioLeadIn: 0
PreviewTime: 20220
Countdown: 0
SampleSet: Normal
StackLeniency: 0.7
Mode: 1
LetterboxInBreaks: 0
WidescreenStoryboard: 0

[Editor]
Bookmarks: 20292,30138,39984,59676,69523,79369,89215,101523,111369,121215
DistanceSpacing: 0.8
BeatDivisor: 4
GridSize: 32
TimelineZoom: 0.8999999

[Metadata]
Title:Metheus
TitleUnicode:Metheus
Artist:ARForest
ArtistUnicode:ARForest
Creator:Faputa
Version:Kantan
Source:osu!
Tags:ArcStar Collaboration #2 FA Featured Artist Dynamix OverRapid Rhythm Video Game Instrumental DnB Drum and Bass Piano Electronic Artcore
BeatmapID:2606554
BeatmapSetID:1240233

[Difficulty]
HPDrainRate:8
CircleSize:2
OverallDifficulty:3
ApproachRate:10
SliderMultiplier:1.4
SliderTickRate:1

[Events]
//Background and Video events
0,0,"BG.jpg",0,-120
//Break Periods
2,79574,88770
2,131266,140462
//Storyboard Layer 0 (Background)
//Storyboard Layer 1 (Fail)
//Storyboard Layer 2 (Pass)
//Storyboard Layer 3 (Foreground)
//Storyboard Layer 4 (Overlay)
//Storyboard Sound Samples

[TimingPoints]
605,307.692307692308,4,1,0,50,1,0
20143,-100,4,1,0,90,0,0
39989,-100,4,1,0,90,0,1
59681,-100,4,1,0,90,0,0
99143,-100,4,1,0,40,0,0
100989,-100,4,1,0,90,0,0
101528,-100,4,1,0,90,0,1
131066,-100,4,1,0,90,0,0
140989,-100,4,1,0,40,0,0
141989,-100,4,1,0,30,0,0
143220,-100,4,1,0,20,0,0
144451,-100,4,1,0,10,0,0
145681,-100,4,1,0,5,0,0

[HitObjects]
256,192,20297,5,8,0:0:0:0:
256,192,20758,1,8,0:0:0:0:
256,192,21220,1,8,0:0:0:0:
256,192,21681,1,8,0:0:0:0:
256,192,22758,1,0,0:0:0:0:
256,192,23220,1,0,0:0:0:0:
256,192,23681,1,0,0:0:0:0:
256,192,24143,1,0,0:0:0:0:
256,192,25220,1,8,0:0:0:0:
256,192,25681,1,8,0:0:0:0:
256,192,26143,1,8,0:0:0:0:
256,192,26605,1,8,0:0:0:0:
256,192,27681,1,0,0:0:0:0:
256,192,28143,1,0,0:0:0:0:
256,192,28605,1,0,0:0:0:0:
256,192,29066,1,0,0:0:0:0:
256,192,29528,1,0,0:0:0:0:
256,192,29835,1,8,0:0:0:0:
256,192,30143,1,8,0:0:0:0:
256,192,30605,1,8,0:0:0:0:
256,192,31066,1,0,0:0:0:0:
256,192,31528,1,0,0:0:0:0:
256,192,32605,1,0,0:0:0:0:
256,192,33066,1,0,0:0:0:0:
256,192,33528,1,8,0:0:0:0:
256,192,33989,1,8,0:0:0:0:
256,192,35066,1,8,0:0:0:0:
256,192,35528,1,8,0:0:0:0:
256,192,35989,1,0,0:0:0:0:
256,192,36451,1,0,0:0:0:0:
256,192,37528,1,0,0:0:0:0:
256,192,37989,1,0,0:0:0:0:
256,192,38451,1,8,0:0:0:0:
256,192,38912,1,8,0:0:0:0:
256,192,39374,1,0,0:0:0:0:
256,192,39681,1,8,0:0:0:0:
256,192,39989,1,12,0:0:0:0:
256,192,40912,1,8,0:0:0:0:
256,192,41220,1,0,0:0:0:0:
256,192,41528,1,8,0:0:0:0:
256,192,42143,1,8,0:0:0:0:
256,192,42451,1,0,0:0:0:0:
256,192,43066,1,0,0:0:0:0:
256,192,43374,1,8,0:0:0:0:
256,192,43681,1,0,0:0:0:0:
256,192,44297,1,8,0:0:0:0:
256,192,44605,1,8,0:0:0:0:
256,192,44912,1,0,0:0:0:0:
256,192,45835,1,8,0:0:0:0:
256,192,46143,1,0,0:0:0:0:
256,192,46758,1,0,0:0:0:0:
256,192,47066,1,8,0:0:0:0:
256,192,47374,1,0,0:0:0:0:
256,192,47989,1,8,0:0:0:0:
256,192,48605,1,0,0:0:0:0:
256,192,49220,1,8,0:0:0:0:
256,192,49528,1,8,0:0:0:0:
256,192,49835,1,12,0:0:0:0:
256,192,50758,1,8,0:0:0:0:
256,192,51066,1,0,0:0:0:0:
256,192,51374,1,8,0:0:0:0:
256,192,51989,1,8,0:0:0:0:
256,192,52297,1,0,0:0:0:0:
256,192,52912,1,8,0:0:0:0:
256,192,53220,1,8,0:0:0:0:
256,192,53528,1,0,0:0:0:0:
256,192,54143,1,0,0:0:0:0:
256,192,54451,1,8,0:0:0:0:
256,192,54758,1,0,0:0:0:0:
256,192,55681,1,8,0:0:0:0:
256,192,55989,1,0,0:0:0:0:
256,192,56605,1,0,0:0:0:0:
256,192,56912,1,0,0:0:0:0:
256,192,57220,1,8,0:0:0:0:
256,192,57835,1,8,0:0:0:0:
256,192,58451,1,0,0:0:0:0:
256,192,59066,1,8,0:0:0:0:
256,192,59374,1,8,0:0:0:0:
256,192,59681,1,4,0:0:0:0:
256,192,60143,1,0,0:0:0:0:
256,192,60451,1,8,0:0:0:0:
256,192,60758,1,8,0:0:0:0:
256,192,62143,1,0,0:0:0:0:
256,192,62605,1,0,0:0:0:0:
256,192,62912,1,8,0:0:0:0:
256,192,63220,1,0,0:0:0:0:
256,192,64605,1,0,0:0:0:0:
256,192,65066,1,0,0:0:0:0:
256,192,65374,1,8,0:0:0:0:
256,192,65681,1,8,0:0:0:0:
256,192,67066,1,0,0:0:0:0:
256,192,67528,1,8,0:0:0:0:
256,192,67835,1,0,0:0:0:0:
256,192,68143,1,8,0:0:0:0:
256,192,68451,1,8,0:0:0:0:
256,192,68758,1,8,0:0:0:0:
256,192,69528,1,4,0:0:0:0:
256,192,69989,1,0,0:0:0:0:
256,192,70297,1,8,0:0:0:0:
256,192,70605,1,0,0:0:0:0:
256,192,71989,1,0,0:0:0:0:
256,192,72451,1,0,0:0:0:0:
256,192,72758,1,8,0:0:0:0:
256,192,73066,1,8,0:0:0:0:
256,192,74451,1,0,0:0:0:0:
256,192,74912,1,0,0:0:0:0:
256,192,75220,1,8,0:0:0:0:
256,192,75528,1,0,0:0:0:0:
256,192,76912,1,0,0:0:0:0:
256,192,77374,1,8,0:0:0:0:
256,192,77681,1,8,0:0:0:0:
256,192,77989,1,8,0:0:0:0:
256,192,78297,1,0,0:0:0:0:
256,192,78605,1,8,0:0:0:0:
256,192,79374,1,4,0:0:0:0:
256,192,89220,5,0,0:0:0:0:
256,192,91681,1,0,0:0:0:0:
256,192,93835,1,0,0:0:0:0:
256,192,94143,1,0,0:0:0:0:
256,192,96605,1,0,0:0:0:0:
256,192,98758,1,0,0:0:0:0:
256,192,99066,1,4,0:0:0:0:
256,192,101220,1,8,0:0:0:0:
256,192,101528,1,4,0:0:0:0:
256,192,102451,1,8,0:0:0:0:
256,192,102758,1,0,0:0:0:0:
256,192,103374,1,0,0:0:0:0:
256,192,103681,1,8,0:0:0:0:
256,192,103989,1,0,0:0:0:0:
256,192,104605,1,0,0:0:0:0:
256,192,104912,1,8,0:0:0:0:
256,192,105528,1,8,0:0:0:0:
256,192,106451,1,0,0:0:0:0:
256,192,107066,1,8,0:0:0:0:
256,192,107681,1,0,0:0:0:0:
256,192,107989,1,0,0:0:0:0:
256,192,108297,1,8,0:0:0:0:
256,192,108912,1,0,0:0:0:0:
256,192,109220,1,8,0:0:0:0:
256,192,109528,1,8,0:0:0:0:
256,192,110143,1,8,0:0:0:0:
256,192,110451,1,0,0:0:0:0:
256,192,110758,1,8,0:0:0:0:
256,192,111066,1,8,0:0:0:0:
256,192,111374,1,4,0:0:0:0:
256,192,112297,1,8,0:0:0:0:
256,192,112605,1,0,0:0:0:0:
256,192,113220,1,0,0:0:0:0:
256,192,113528,1,8,0:0:0:0:
256,192,113835,1,0,0:0:0:0:
256,192,114451,1,0,0:0:0:0:
256,192,114758,1,8,0:0:0:0:
256,192,115374,1,8,0:0:0:0:
256,192,116297,1,0,0:0:0:0:
256,192,116912,1,8,0:0:0:0:
256,192,117220,1,8,0:0:0:0:
256,192,117528,1,0,0:0:0:0:
256,192,118143,1,8,0:0:0:0:
256,192,118758,1,0,0:0:0:0:
256,192,119066,1,0,0:0:0:0:
256,192,119374,1,8,0:0:0:0:
256,192,119989,1,0,0:0:0:0:
256,192,120297,1,0,0:0:0:0:
256,192,120605,1,8,0:0:0:0:
256,192,120912,1,0,0:0:0:0:
256,192,121220,1,12,0:0:0:0:
256,192,122143,1,0,0:0:0:0:
256,192,122451,1,8,0:0:0:0:
256,192,123066,1,8,0:0:0:0:
256,192,123374,1,8,0:0:0:0:
256,192,123681,1,0,0:0:0:0:
256,192,124605,1,8,0:0:0:0:
256,192,124912,1,0,0:0:0:0:
256,192,125528,1,0,0:0:0:0:
256,192,125835,1,0,0:0:0:0:
256,192,126143,1,8,0:0:0:0:
256,192,127066,1,0,0:0:0:0:
256,192,127374,1,8,0:0:0:0:
256,192,127989,1,8,0:0:0:0:
256,192,128297,1,0,0:0:0:0:
256,192,128605,1,8,0:0:0:0:
256,192,129528,1,8,0:0:0:0:
256,192,129835,1,0,0:0:0:0:
256,192,130451,1,0,0:0:0:0:
256,192,130758,1,8,0:0:0:0:
256,192,131066,1,4,0:0:0:0:
256,192,140912,5,12,0:0:0:0:
256,192,141220,8,12,146143,0:0:0:0:
