osu file format v14

[General]
AudioFilename: audio.mp3
AudioLeadIn: 0
PreviewTime: 20220
Countdown: 0
SampleSet: Normal
StackLeniency: 0.7
Mode: 1
LetterboxInBreaks: 0
WidescreenStoryboard: 0

[Editor]
Bookmarks: 20292,30138,39984,59676,69523,79369,89215,101523,111369,121215
DistanceSpacing: 0.8
BeatDivisor: 1
GridSize: 32
TimelineZoom: 1.7

[Metadata]
Title:Metheus
TitleUnicode:Metheus
Artist:ARForest
ArtistUnicode:ARForest
Creator:Faputa
Version:Enlightenment
Source:osu!
Tags:ArcStar Collaboration #2 FA Featured Artist Dynamix OverRapid Rhythm Video Game Instrumental DnB Drum and Bass Piano Electronic Artcore
BeatmapID:2578484
BeatmapSetID:1240233

[Difficulty]
HPDrainRate:6.5
CircleSize:2
OverallDifficulty:7
ApproachRate:10
SliderMultiplier:1.4
SliderTickRate:1

[Events]
//Background and Video events
0,0,"BG.jpg",0,-120
//Break Periods
2,131266,140462
//Storyboard Layer 0 (Background)
//Storyboard Layer 1 (Fail)
//Storyboard Layer 2 (Pass)
//Storyboard Layer 3 (Foreground)
//Storyboard Layer 4 (Overlay)
//Storyboard Sound Samples

[TimingPoints]
605,307.692307692308,4,1,0,50,1,0
20143,-100,4,1,0,90,0,0
39989,-100,4,1,0,90,0,1
59681,-100,4,1,0,90,0,0
99143,-100,4,1,0,40,0,0
100989,-100,4,1,0,90,0,0
101528,-100,4,1,0,90,0,1
131066,-100,4,1,0,90,0,0
140989,-100,4,1,0,40,0,0
141989,-100,4,1,0,30,0,0
143220,-100,4,1,0,20,0,0
144451,-100,4,1,0,10,0,0
145681,-100,4,1,0,5,0,0

[HitObjects]
256,192,605,5,0,0:0:0:0:
256,192,1835,1,8,0:0:0:0:
256,192,2758,1,8,0:0:0:0:
256,192,3066,1,0,0:0:0:0:
256,192,3989,1,0,0:0:0:0:
256,192,4297,1,8,0:0:0:0:
256,192,4912,1,0,0:0:0:0:
256,192,5220,1,8,0:0:0:0:
256,192,5528,1,0,0:0:0:0:
256,192,6451,1,8,0:0:0:0:
256,192,6758,1,8,0:0:0:0:
256,192,7374,1,0,0:0:0:0:
256,192,7681,1,8,0:0:0:0:
256,192,7989,1,0,0:0:0:0:
256,192,8912,1,0,0:0:0:0:
256,192,9220,1,8,0:0:0:0:
256,192,9835,1,8,0:0:0:0:
256,192,10143,1,8,0:0:0:0:
256,192,10451,1,0,0:0:0:0:
256,192,11374,1,8,0:0:0:0:
256,192,11528,1,0,0:0:0:0:
256,192,11681,1,8,0:0:0:0:
256,192,12297,1,8,0:0:0:0:
256,192,12605,1,8,0:0:0:0:
256,192,12912,1,0,0:0:0:0:
256,192,13528,1,8,0:0:0:0:
256,192,13835,1,0,0:0:0:0:
256,192,14143,1,8,0:0:0:0:
256,192,14758,1,0,0:0:0:0:
256,192,15066,1,8,0:0:0:0:
256,192,15374,1,0,0:0:0:0:
256,192,16297,1,8,0:0:0:0:
256,192,16451,1,0,0:0:0:0:
256,192,16605,1,8,0:0:0:0:
256,192,17220,1,8,0:0:0:0:
256,192,17528,1,0,0:0:0:0:
256,192,17681,1,8,0:0:0:0:
256,192,17835,1,0,0:0:0:0:
256,192,18758,1,0,0:0:0:0:
256,192,18912,1,0,0:0:0:0:
256,192,19066,1,8,0:0:0:0:
256,192,20297,1,8,0:0:0:0:
256,192,20451,1,0,0:0:0:0:
256,192,20528,1,0,0:0:0:0:
256,192,20605,1,8,0:0:0:0:
256,192,20758,1,8,0:0:0:0:
256,192,20912,1,0,0:0:0:0:
256,192,20989,1,8,0:0:0:0:
256,192,21066,1,0,0:0:0:0:
256,192,21220,1,8,0:0:0:0:
256,192,21374,1,0,0:0:0:0:
256,192,21451,1,0,0:0:0:0:
256,192,21528,1,8,0:0:0:0:
256,192,21681,1,8,0:0:0:0:
256,192,21835,1,0,0:0:0:0:
256,192,21912,1,8,0:0:0:0:
256,192,21989,1,0,0:0:0:0:
256,192,22066,1,0,0:0:0:0:
256,192,22143,1,8,0:0:0:0:
256,192,22297,1,0,0:0:0:0:
256,192,22374,1,0,0:0:0:0:
256,192,22451,1,8,0:0:0:0:
256,192,22605,1,0,0:0:0:0:
256,192,22758,1,8,0:0:0:0:
256,192,22912,1,0,0:0:0:0:
256,192,22989,1,8,0:0:0:0:
256,192,23066,1,0,0:0:0:0:
256,192,23220,1,8,0:0:0:0:
256,192,23374,1,0,0:0:0:0:
256,192,23451,1,0,0:0:0:0:
256,192,23528,1,0,0:0:0:0:
256,192,23681,1,8,0:0:0:0:
256,192,23835,1,0,0:0:0:0:
256,192,23912,1,8,0:0:0:0:
256,192,23989,1,0,0:0:0:0:
256,192,24143,1,8,0:0:0:0:
256,192,24297,1,0,0:0:0:0:
256,192,24374,1,0,0:0:0:0:
256,192,24451,1,0,0:0:0:0:
256,192,24528,1,0,0:0:0:0:
256,192,24605,1,8,0:0:0:0:
256,192,24758,1,0,0:0:0:0:
256,192,24835,1,0,0:0:0:0:
256,192,24912,1,8,0:0:0:0:
256,192,25066,1,8,0:0:0:0:
256,192,25143,1,8,0:0:0:0:
256,192,25220,1,8,0:0:0:0:
256,192,25374,1,0,0:0:0:0:
256,192,25451,1,0,0:0:0:0:
256,192,25528,1,0,0:0:0:0:
256,192,25681,1,8,0:0:0:0:
256,192,25835,1,0,0:0:0:0:
256,192,25912,1,0,0:0:0:0:
256,192,25989,1,8,0:0:0:0:
256,192,26143,1,8,0:0:0:0:
256,192,26297,1,0,0:0:0:0:
256,192,26374,1,0,0:0:0:0:
256,192,26451,1,0,0:0:0:0:
256,192,26605,1,8,0:0:0:0:
256,192,26758,1,0,0:0:0:0:
256,192,26835,1,0,0:0:0:0:
256,192,26912,1,8,0:0:0:0:
256,192,26989,1,0,0:0:0:0:
256,192,27066,1,8,0:0:0:0:
256,192,27220,1,0,0:0:0:0:
256,192,27297,1,0,0:0:0:0:
256,192,27374,1,8,0:0:0:0:
256,192,27451,1,8,0:0:0:0:
256,192,27528,1,0,0:0:0:0:
256,192,27681,1,8,0:0:0:0:
256,192,27835,1,0,0:0:0:0:
256,192,27912,1,0,0:0:0:0:
256,192,27989,1,8,0:0:0:0:
256,192,28143,1,8,0:0:0:0:
256,192,28297,1,0,0:0:0:0:
256,192,28374,1,8,0:0:0:0:
256,192,28451,1,0,0:0:0:0:
256,192,28605,1,8,0:0:0:0:
256,192,28758,1,0,0:0:0:0:
256,192,28835,1,0,0:0:0:0:
256,192,28912,1,8,0:0:0:0:
256,192,29066,1,8,0:0:0:0:
256,192,29220,1,0,0:0:0:0:
256,192,29297,1,8,0:0:0:0:
256,192,29374,1,0,0:0:0:0:
256,192,29451,1,0,0:0:0:0:
256,192,29528,1,8,0:0:0:0:
256,192,29681,1,0,0:0:0:0:
256,192,29758,1,0,0:0:0:0:
256,192,29835,1,8,0:0:0:0:
256,192,29912,1,8,0:0:0:0:
256,192,29989,1,8,0:0:0:0:
256,192,30066,1,0,0:0:0:0:
256,192,30143,1,8,0:0:0:0:
256,192,30297,1,0,0:0:0:0:
256,192,30374,1,8,0:0:0:0:
256,192,30451,1,8,0:0:0:0:
256,192,30605,1,8,0:0:0:0:
256,192,30758,1,0,0:0:0:0:
256,192,30835,1,8,0:0:0:0:
256,192,30912,1,0,0:0:0:0:
256,192,31066,1,8,0:0:0:0:
256,192,31220,1,0,0:0:0:0:
256,192,31297,1,8,0:0:0:0:
256,192,31374,1,8,0:0:0:0:
256,192,31528,1,8,0:0:0:0:
256,192,31681,1,0,0:0:0:0:
256,192,31758,1,8,0:0:0:0:
256,192,31835,1,0,0:0:0:0:
256,192,31912,1,8,0:0:0:0:
256,192,31989,1,8,0:0:0:0:
256,192,32143,1,0,0:0:0:0:
256,192,32220,1,0,0:0:0:0:
256,192,32297,1,8,0:0:0:0:
256,192,32374,1,0,0:0:0:0:
256,192,32451,1,8,0:0:0:0:
256,192,32605,1,8,0:0:0:0:
256,192,32758,1,0,0:0:0:0:
256,192,32835,1,0,0:0:0:0:
256,192,32912,1,8,0:0:0:0:
256,192,33066,1,8,0:0:0:0:
256,192,33220,1,0,0:0:0:0:
256,192,33297,1,8,0:0:0:0:
256,192,33374,1,0,0:0:0:0:
256,192,33528,1,8,0:0:0:0:
256,192,33681,1,0,0:0:0:0:
256,192,33758,1,0,0:0:0:0:
256,192,33835,1,8,0:0:0:0:
256,192,33989,1,8,0:0:0:0:
256,192,34143,1,0,0:0:0:0:
256,192,34220,1,8,0:0:0:0:
256,192,34297,1,0,0:0:0:0:
256,192,34374,1,0,0:0:0:0:
256,192,34451,1,8,0:0:0:0:
256,192,34605,1,0,0:0:0:0:
256,192,34681,1,0,0:0:0:0:
256,192,34758,1,8,0:0:0:0:
256,192,34835,1,0,0:0:0:0:
256,192,34912,1,8,0:0:0:0:
256,192,34989,1,8,0:0:0:0:
256,192,35066,1,8,0:0:0:0:
256,192,35220,1,0,0:0:0:0:
256,192,35297,1,0,0:0:0:0:
256,192,35374,1,0,0:0:0:0:
256,192,35528,1,8,0:0:0:0:
256,192,35681,1,0,0:0:0:0:
256,192,35758,1,8,0:0:0:0:
256,192,35835,1,0,0:0:0:0:
256,192,35989,1,8,0:0:0:0:
256,192,36143,1,0,0:0:0:0:
256,192,36220,1,0,0:0:0:0:
256,192,36297,1,0,0:0:0:0:
256,192,36451,1,8,0:0:0:0:
256,192,36605,1,0,0:0:0:0:
256,192,36681,1,8,0:0:0:0:
256,192,36758,1,0,0:0:0:0:
256,192,36835,1,0,0:0:0:0:
256,192,36912,1,8,0:0:0:0:
256,192,37066,1,0,0:0:0:0:
256,192,37143,1,0,0:0:0:0:
256,192,37220,1,8,0:0:0:0:
256,192,37374,1,0,0:0:0:0:
256,192,37528,1,8,0:0:0:0:
256,192,37681,1,0,0:0:0:0:
256,192,37758,1,0,0:0:0:0:
256,192,37835,1,8,0:0:0:0:
256,192,37989,1,8,0:0:0:0:
256,192,38143,1,0,0:0:0:0:
256,192,38220,1,8,0:0:0:0:
256,192,38297,1,0,0:0:0:0:
256,192,38451,1,8,0:0:0:0:
256,192,38605,1,0,0:0:0:0:
256,192,38681,1,0,0:0:0:0:
256,192,38758,1,8,0:0:0:0:
256,192,38835,1,0,0:0:0:0:
256,192,38912,1,8,0:0:0:0:
256,192,39066,1,0,0:0:0:0:
256,192,39143,1,0,0:0:0:0:
256,192,39220,1,8,0:0:0:0:
256,192,39297,1,0,0:0:0:0:
256,192,39374,1,8,0:0:0:0:
256,192,39451,1,8,0:0:0:0:
256,192,39528,1,0,0:0:0:0:
256,192,39579,1,0,0:0:0:0:
256,192,39630,1,0,0:0:0:0:
256,192,39681,1,8,0:0:0:0:
256,192,39758,1,8,0:0:0:0:
256,192,39835,1,8,0:0:0:0:
256,192,39989,1,12,0:0:0:0:
256,192,40143,1,0,0:0:0:0:
256,192,40220,1,0,0:0:0:0:
256,192,40297,1,8,0:0:0:0:
256,192,40374,1,8,0:0:0:0:
256,192,40451,1,8,0:0:0:0:
256,192,40528,1,0,0:0:0:0:
256,192,40605,1,8,0:0:0:0:
256,192,40681,1,8,0:0:0:0:
256,192,40758,1,0,0:0:0:0:
256,192,40835,1,8,0:0:0:0:
256,192,40912,1,8,0:0:0:0:
256,192,40989,1,0,0:0:0:0:
256,192,41066,1,0,0:0:0:0:
256,192,41143,1,0,0:0:0:0:
256,192,41220,1,8,0:0:0:0:
256,192,41297,1,0,0:0:0:0:
256,192,41374,1,0,0:0:0:0:
256,192,41451,1,8,0:0:0:0:
256,192,41528,1,8,0:0:0:0:
256,192,41605,1,0,0:0:0:0:
256,192,41681,1,0,0:0:0:0:
256,192,41758,1,8,0:0:0:0:
256,192,41835,1,8,0:0:0:0:
256,192,41912,1,8,0:0:0:0:
256,192,41989,1,0,0:0:0:0:
256,192,42066,1,8,0:0:0:0:
256,192,42143,1,8,0:0:0:0:
256,192,42220,1,8,0:0:0:0:
256,192,42297,1,0,0:0:0:0:
256,192,42374,1,0,0:0:0:0:
256,192,42451,1,8,0:0:0:0:
256,192,42528,1,8,0:0:0:0:
256,192,42605,1,8,0:0:0:0:
256,192,42681,1,0,0:0:0:0:
256,192,42758,1,8,0:0:0:0:
256,192,42835,1,8,0:0:0:0:
256,192,42912,1,0,0:0:0:0:
256,192,42989,1,0,0:0:0:0:
256,192,43066,1,8,0:0:0:0:
256,192,43143,1,8,0:0:0:0:
256,192,43220,1,8,0:0:0:0:
256,192,43297,1,0,0:0:0:0:
256,192,43374,1,8,0:0:0:0:
256,192,43451,1,8,0:0:0:0:
256,192,43528,1,0,0:0:0:0:
256,192,43605,1,8,0:0:0:0:
256,192,43681,1,8,0:0:0:0:
256,192,43758,1,0,0:0:0:0:
256,192,43835,1,0,0:0:0:0:
256,192,43912,1,8,0:0:0:0:
256,192,43989,1,8,0:0:0:0:
256,192,44066,1,0,0:0:0:0:
256,192,44143,1,0,0:0:0:0:
256,192,44220,1,0,0:0:0:0:
256,192,44297,1,8,0:0:0:0:
256,192,44374,1,0,0:0:0:0:
256,192,44451,1,8,0:0:0:0:
256,192,44528,1,0,0:0:0:0:
256,192,44605,1,8,0:0:0:0:
256,192,44681,1,8,0:0:0:0:
256,192,44758,1,0,0:0:0:0:
256,192,44835,1,0,0:0:0:0:
256,192,44912,1,8,0:0:0:0:
256,192,44989,1,0,0:0:0:0:
256,192,45066,1,8,0:0:0:0:
256,192,45143,1,8,0:0:0:0:
256,192,45220,1,0,0:0:0:0:
256,192,45297,1,0,0:0:0:0:
256,192,45374,1,8,0:0:0:0:
256,192,45451,1,0,0:0:0:0:
256,192,45528,1,8,0:0:0:0:
256,192,45605,1,8,0:0:0:0:
256,192,45681,1,0,0:0:0:0:
256,192,45758,1,0,0:0:0:0:
256,192,45835,1,8,0:0:0:0:
256,192,45912,1,0,0:0:0:0:
256,192,45989,1,8,0:0:0:0:
256,192,46066,1,8,0:0:0:0:
256,192,46143,1,8,0:0:0:0:
256,192,46220,1,0,0:0:0:0:
256,192,46297,1,0,0:0:0:0:
256,192,46374,1,8,0:0:0:0:
256,192,46451,1,8,0:0:0:0:
256,192,46528,1,0,0:0:0:0:
256,192,46605,1,8,0:0:0:0:
256,192,46681,1,8,0:0:0:0:
256,192,46758,1,8,0:0:0:0:
256,192,46835,1,0,0:0:0:0:
256,192,46912,1,8,0:0:0:0:
256,192,46989,1,0,0:0:0:0:
256,192,47066,1,8,0:0:0:0:
256,192,47143,1,8,0:0:0:0:
256,192,47220,1,0,0:0:0:0:
256,192,47297,1,0,0:0:0:0:
256,192,47374,1,8,0:0:0:0:
256,192,47451,1,0,0:0:0:0:
256,192,47528,1,0,0:0:0:0:
256,192,47605,1,0,0:0:0:0:
256,192,47681,1,8,0:0:0:0:
256,192,47758,1,8,0:0:0:0:
256,192,47835,1,0,0:0:0:0:
256,192,47912,1,0,0:0:0:0:
256,192,47989,1,8,0:0:0:0:
256,192,48066,1,0,0:0:0:0:
256,192,48143,1,8,0:0:0:0:
256,192,48220,1,8,0:0:0:0:
256,192,48297,1,0,0:0:0:0:
256,192,48374,1,0,0:0:0:0:
256,192,48451,1,8,0:0:0:0:
256,192,48528,1,8,0:0:0:0:
256,192,48605,1,8,0:0:0:0:
256,192,48681,1,0,0:0:0:0:
256,192,48758,1,0,0:0:0:0:
256,192,48835,1,8,0:0:0:0:
256,192,48912,1,8,0:0:0:0:
256,192,48989,1,0,0:0:0:0:
256,192,49066,1,0,0:0:0:0:
256,192,49143,1,0,0:0:0:0:
256,192,49220,1,8,0:0:0:0:
256,192,49297,1,0,0:0:0:0:
256,192,49374,1,8,0:0:0:0:
256,192,49451,1,0,0:0:0:0:
256,192,49528,1,8,0:0:0:0:
256,192,49605,1,8,0:0:0:0:
256,192,49681,1,0,0:0:0:0:
256,192,49758,1,0,0:0:0:0:
256,192,49835,1,8,0:0:0:0:
256,192,49912,1,0,0:0:0:0:
256,192,49989,1,0,0:0:0:0:
256,192,50066,1,8,0:0:0:0:
256,192,50143,1,0,0:0:0:0:
256,192,50220,1,0,0:0:0:0:
256,192,50297,1,8,0:0:0:0:
256,192,50374,1,0,0:0:0:0:
256,192,50451,1,8,0:0:0:0:
256,192,50528,1,8,0:0:0:0:
256,192,50605,1,0,0:0:0:0:
256,192,50681,1,0,0:0:0:0:
256,192,50758,1,8,0:0:0:0:
256,192,50835,1,0,0:0:0:0:
256,192,50912,1,0,0:0:0:0:
256,192,50989,1,0,0:0:0:0:
256,192,51066,1,8,0:0:0:0:
256,192,51143,1,0,0:0:0:0:
256,192,51220,1,0,0:0:0:0:
256,192,51297,1,8,0:0:0:0:
256,192,51374,1,8,0:0:0:0:
256,192,51451,1,0,0:0:0:0:
256,192,51528,1,8,0:0:0:0:
256,192,51605,1,0,0:0:0:0:
256,192,51681,1,8,0:0:0:0:
256,192,51758,1,8,0:0:0:0:
256,192,51835,1,8,0:0:0:0:
256,192,51912,1,0,0:0:0:0:
256,192,51989,1,8,0:0:0:0:
256,192,52066,1,8,0:0:0:0:
256,192,52143,1,0,0:0:0:0:
256,192,52220,1,0,0:0:0:0:
256,192,52297,1,8,0:0:0:0:
256,192,52374,1,0,0:0:0:0:
256,192,52451,1,0,0:0:0:0:
256,192,52528,1,8,0:0:0:0:
256,192,52605,1,8,0:0:0:0:
256,192,52681,1,0,0:0:0:0:
256,192,52758,1,0,0:0:0:0:
256,192,52835,1,8,0:0:0:0:
256,192,52912,1,8,0:0:0:0:
256,192,52989,1,0,0:0:0:0:
256,192,53066,1,8,0:0:0:0:
256,192,53143,1,8,0:0:0:0:
256,192,53220,1,8,0:0:0:0:
256,192,53297,1,0,0:0:0:0:
256,192,53374,1,0,0:0:0:0:
256,192,53451,1,0,0:0:0:0:
256,192,53528,1,8,0:0:0:0:
256,192,53605,1,0,0:0:0:0:
256,192,53681,1,0,0:0:0:0:
256,192,53758,1,0,0:0:0:0:
256,192,53835,1,8,0:0:0:0:
256,192,53912,1,0,0:0:0:0:
256,192,53989,1,0,0:0:0:0:
256,192,54066,1,8,0:0:0:0:
256,192,54143,1,8,0:0:0:0:
256,192,54220,1,0,0:0:0:0:
256,192,54297,1,8,0:0:0:0:
256,192,54374,1,0,0:0:0:0:
256,192,54451,1,8,0:0:0:0:
256,192,54528,1,8,0:0:0:0:
256,192,54605,1,8,0:0:0:0:
256,192,54681,1,0,0:0:0:0:
256,192,54758,1,8,0:0:0:0:
256,192,54835,1,0,0:0:0:0:
256,192,54912,1,0,0:0:0:0:
256,192,54989,1,0,0:0:0:0:
256,192,55066,1,8,0:0:0:0:
256,192,55143,1,8,0:0:0:0:
256,192,55220,1,0,0:0:0:0:
256,192,55297,1,0,0:0:0:0:
256,192,55374,1,8,0:0:0:0:
256,192,55451,1,8,0:0:0:0:
256,192,55528,1,8,0:0:0:0:
256,192,55605,1,0,0:0:0:0:
256,192,55681,1,8,0:0:0:0:
256,192,55758,1,8,0:0:0:0:
256,192,55835,1,0,0:0:0:0:
256,192,55912,1,0,0:0:0:0:
256,192,55989,1,8,0:0:0:0:
256,192,56066,1,8,0:0:0:0:
256,192,56143,1,0,0:0:0:0:
256,192,56220,1,8,0:0:0:0:
256,192,56297,1,0,0:0:0:0:
256,192,56374,1,0,0:0:0:0:
256,192,56451,1,8,0:0:0:0:
256,192,56528,1,0,0:0:0:0:
256,192,56605,1,8,0:0:0:0:
256,192,56681,1,8,0:0:0:0:
256,192,56758,1,0,0:0:0:0:
256,192,56835,1,8,0:0:0:0:
256,192,56912,1,0,0:0:0:0:
256,192,56989,1,0,0:0:0:0:
256,192,57066,1,8,0:0:0:0:
256,192,57143,1,0,0:0:0:0:
256,192,57220,1,8,0:0:0:0:
256,192,57297,1,0,0:0:0:0:
256,192,57374,1,0,0:0:0:0:
256,192,57451,1,0,0:0:0:0:
256,192,57528,1,8,0:0:0:0:
256,192,57605,1,8,0:0:0:0:
256,192,57681,1,0,0:0:0:0:
256,192,57758,1,0,0:0:0:0:
256,192,57835,1,8,0:0:0:0:
256,192,57912,1,8,0:0:0:0:
256,192,57989,1,8,0:0:0:0:
256,192,58066,1,0,0:0:0:0:
256,192,58143,1,8,0:0:0:0:
256,192,58220,1,8,0:0:0:0:
256,192,58297,1,0,0:0:0:0:
256,192,58374,1,0,0:0:0:0:
256,192,58451,1,8,0:0:0:0:
256,192,58528,1,0,0:0:0:0:
256,192,58605,1,0,0:0:0:0:
256,192,58681,1,0,0:0:0:0:
256,192,58758,1,8,0:0:0:0:
256,192,58835,1,0,0:0:0:0:
256,192,58912,1,8,0:0:0:0:
256,192,58989,1,0,0:0:0:0:
256,192,59066,1,8,0:0:0:0:
256,192,59143,1,8,0:0:0:0:
256,192,59220,1,0,0:0:0:0:
256,192,59271,1,0,0:0:0:0:
256,192,59322,1,0,0:0:0:0:
256,192,59374,1,8,0:0:0:0:
256,192,59451,1,8,0:0:0:0:
256,192,59528,1,8,0:0:0:0:
256,192,59681,1,4,0:0:0:0:
256,192,59989,1,8,0:0:0:0:
256,192,60143,1,0,0:0:0:0:
256,192,60220,1,0,0:0:0:0:
256,192,60297,1,0,0:0:0:0:
256,192,60451,1,8,0:0:0:0:
256,192,60528,1,0,0:0:0:0:
256,192,60605,1,8,0:0:0:0:
256,192,60758,1,0,0:0:0:0:
256,192,60912,1,8,0:0:0:0:
256,192,61066,1,0,0:0:0:0:
256,192,61220,1,8,0:0:0:0:
256,192,61374,1,0,0:0:0:0:
256,192,61451,1,0,0:0:0:0:
256,192,61528,1,8,0:0:0:0:
256,192,61605,1,0,0:0:0:0:
256,192,61681,1,8,0:0:0:0:
256,192,61758,1,8,0:0:0:0:
256,192,61835,1,0,0:0:0:0:
256,192,61989,1,8,0:0:0:0:
256,192,62143,1,0,0:0:0:0:
256,192,62451,1,8,0:0:0:0:
256,192,62605,1,0,0:0:0:0:
256,192,62681,1,0,0:0:0:0:
256,192,62758,1,8,0:0:0:0:
256,192,62912,1,0,0:0:0:0:
256,192,62989,1,8,0:0:0:0:
256,192,63066,1,0,0:0:0:0:
256,192,63220,1,8,0:0:0:0:
256,192,63374,1,0,0:0:0:0:
256,192,63528,1,8,0:0:0:0:
256,192,63605,1,8,0:0:0:0:
256,192,63681,1,0,0:0:0:0:
256,192,63758,1,0,0:0:0:0:
256,192,63835,1,8,0:0:0:0:
256,192,63989,1,0,0:0:0:0:
256,192,64066,1,0,0:0:0:0:
256,192,64143,1,8,0:0:0:0:
256,192,64220,1,0,0:0:0:0:
256,192,64297,1,8,0:0:0:0:
256,192,64374,1,8,0:0:0:0:
256,192,64451,1,8,0:0:0:0:
256,192,64605,1,0,0:0:0:0:
256,192,64912,1,8,0:0:0:0:
256,192,65066,1,0,0:0:0:0:
256,192,65143,1,0,0:0:0:0:
256,192,65220,1,0,0:0:0:0:
256,192,65374,1,8,0:0:0:0:
256,192,65528,1,8,0:0:0:0:
256,192,65681,1,0,0:0:0:0:
256,192,65758,1,0,0:0:0:0:
256,192,65835,1,8,0:0:0:0:
256,192,65989,1,0,0:0:0:0:
256,192,66143,1,8,0:0:0:0:
256,192,66220,1,8,0:0:0:0:
256,192,66297,1,0,0:0:0:0:
256,192,66374,1,0,0:0:0:0:
256,192,66451,1,8,0:0:0:0:
256,192,66528,1,0,0:0:0:0:
256,192,66605,1,8,0:0:0:0:
256,192,66758,1,8,0:0:0:0:
256,192,66912,1,0,0:0:0:0:
256,192,67066,1,8,0:0:0:0:
256,192,67374,1,0,0:0:0:0:
256,192,67528,1,8,0:0:0:0:
256,192,67605,1,8,0:0:0:0:
256,192,67681,1,0,0:0:0:0:
256,192,67835,1,8,0:0:0:0:
256,192,67989,1,0,0:0:0:0:
256,192,68143,1,8,0:0:0:0:
256,192,68220,1,0,0:0:0:0:
256,192,68297,1,8,0:0:0:0:
256,192,68451,1,0,0:0:0:0:
256,192,68528,1,0,0:0:0:0:
256,192,68605,1,8,0:0:0:0:
256,192,68758,1,0,0:0:0:0:
256,192,68835,1,8,0:0:0:0:
256,192,68912,1,0,0:0:0:0:
256,192,68989,1,0,0:0:0:0:
256,192,69066,1,8,0:0:0:0:
256,192,69143,1,8,0:0:0:0:
256,192,69220,1,0,0:0:0:0:
256,192,69297,1,0,0:0:0:0:
256,192,69374,1,8,0:0:0:0:
256,192,69528,1,4,0:0:0:0:
256,192,69835,1,8,0:0:0:0:
256,192,69989,1,0,0:0:0:0:
256,192,70066,1,0,0:0:0:0:
256,192,70143,1,0,0:0:0:0:
256,192,70297,1,8,0:0:0:0:
256,192,70374,1,0,0:0:0:0:
256,192,70451,1,8,0:0:0:0:
256,192,70605,1,8,0:0:0:0:
256,192,70758,1,0,0:0:0:0:
256,192,70912,1,8,0:0:0:0:
256,192,70989,1,8,0:0:0:0:
256,192,71066,1,8,0:0:0:0:
256,192,71143,1,0,0:0:0:0:
256,192,71220,1,8,0:0:0:0:
256,192,71297,1,0,0:0:0:0:
256,192,71374,1,8,0:0:0:0:
256,192,71451,1,8,0:0:0:0:
256,192,71528,1,0,0:0:0:0:
256,192,71605,1,0,0:0:0:0:
256,192,71681,1,8,0:0:0:0:
256,192,71835,1,8,0:0:0:0:
256,192,71989,1,0,0:0:0:0:
256,192,72297,1,8,0:0:0:0:
256,192,72451,1,0,0:0:0:0:
256,192,72528,1,0,0:0:0:0:
256,192,72605,1,8,0:0:0:0:
256,192,72758,1,0,0:0:0:0:
256,192,72835,1,8,0:0:0:0:
256,192,72912,1,0,0:0:0:0:
256,192,73066,1,8,0:0:0:0:
256,192,73220,1,0,0:0:0:0:
256,192,73374,1,8,0:0:0:0:
256,192,73451,1,8,0:0:0:0:
256,192,73528,1,0,0:0:0:0:
256,192,73605,1,0,0:0:0:0:
256,192,73681,1,8,0:0:0:0:
256,192,73758,1,0,0:0:0:0:
256,192,73835,1,8,0:0:0:0:
256,192,73912,1,8,0:0:0:0:
256,192,73989,1,0,0:0:0:0:
256,192,74066,1,0,0:0:0:0:
256,192,74143,1,8,0:0:0:0:
256,192,74220,1,0,0:0:0:0:
256,192,74297,1,8,0:0:0:0:
256,192,74451,1,0,0:0:0:0:
256,192,74758,1,8,0:0:0:0:
256,192,74912,1,0,0:0:0:0:
256,192,74989,1,0,0:0:0:0:
256,192,75066,1,0,0:0:0:0:
256,192,75220,1,8,0:0:0:0:
256,192,75374,1,8,0:0:0:0:
256,192,75528,1,0,0:0:0:0:
256,192,75605,1,8,0:0:0:0:
256,192,75681,1,0,0:0:0:0:
256,192,75835,1,8,0:0:0:0:
256,192,75912,1,0,0:0:0:0:
256,192,75989,1,8,0:0:0:0:
256,192,76066,1,8,0:0:0:0:
256,192,76143,1,0,0:0:0:0:
256,192,76220,1,0,0:0:0:0:
256,192,76297,1,8,0:0:0:0:
256,192,76374,1,0,0:0:0:0:
256,192,76451,1,8,0:0:0:0:
256,192,76528,1,8,0:0:0:0:
256,192,76605,1,0,0:0:0:0:
256,192,76758,1,0,0:0:0:0:
256,192,76912,1,8,0:0:0:0:
256,192,77220,1,0,0:0:0:0:
256,192,77374,1,8,0:0:0:0:
256,192,77451,1,8,0:0:0:0:
256,192,77528,1,0,0:0:0:0:
256,192,77681,1,8,0:0:0:0:
256,192,77835,1,0,0:0:0:0:
256,192,77989,1,8,0:0:0:0:
256,192,78066,1,0,0:0:0:0:
256,192,78143,1,8,0:0:0:0:
256,192,78297,1,0,0:0:0:0:
256,192,78374,1,0,0:0:0:0:
256,192,78451,1,8,0:0:0:0:
256,192,78605,1,8,0:0:0:0:
256,192,78681,1,8,0:0:0:0:
256,192,78758,1,0,0:0:0:0:
256,192,78835,1,8,0:0:0:0:
256,192,78912,1,0,0:0:0:0:
256,192,78963,1,0,0:0:0:0:
256,192,79015,1,0,0:0:0:0:
256,192,79066,1,8,0:0:0:0:
256,192,79143,1,0,0:0:0:0:
256,192,79220,1,8,0:0:0:0:
256,192,79374,1,4,0:0:0:0:
256,192,79835,1,0,0:0:0:0:
256,192,79989,1,0,0:0:0:0:
256,192,80143,1,8,0:0:0:0:
256,192,80297,1,8,0:0:0:0:
256,192,80451,1,8,0:0:0:0:
256,192,80605,1,0,0:0:0:0:
256,192,80912,1,8,0:0:0:0:
256,192,81066,1,8,0:0:0:0:
256,192,81374,1,0,0:0:0:0:
256,192,81681,1,8,0:0:0:0:
256,192,81835,1,0,0:0:0:0:
256,192,82451,1,0,0:0:0:0:
256,192,82605,1,8,0:0:0:0:
256,192,82758,1,0,0:0:0:0:
256,192,82912,1,8,0:0:0:0:
256,192,83066,1,8,0:0:0:0:
256,192,83374,1,0,0:0:0:0:
256,192,83528,1,8,0:0:0:0:
256,192,83835,1,0,0:0:0:0:
256,192,84143,1,8,0:0:0:0:
256,192,84297,1,8,0:0:0:0:
256,192,84758,1,0,0:0:0:0:
256,192,84835,1,0,0:0:0:0:
256,192,84912,1,0,0:0:0:0:
256,192,85066,1,8,0:0:0:0:
256,192,85220,1,0,0:0:0:0:
256,192,85374,1,0,0:0:0:0:
256,192,85528,1,8,0:0:0:0:
256,192,85989,1,0,0:0:0:0:
256,192,86066,1,0,0:0:0:0:
256,192,86143,1,0,0:0:0:0:
256,192,86297,1,8,0:0:0:0:
256,192,86451,1,8,0:0:0:0:
256,192,86605,1,0,0:0:0:0:
256,192,86758,1,8,0:0:0:0:
256,192,87066,1,8,0:0:0:0:
256,192,87220,1,0,0:0:0:0:
256,192,87528,1,8,0:0:0:0:
256,192,87835,1,8,0:0:0:0:
256,192,88143,1,0,0:0:0:0:
256,192,88297,1,8,0:0:0:0:
256,192,88451,1,8,0:0:0:0:
256,192,88605,1,0,0:0:0:0:
256,192,88758,1,0,0:0:0:0:
256,192,88912,1,8,0:0:0:0:
256,192,89066,1,8,0:0:0:0:
256,192,89220,1,0,0:0:0:0:
256,192,89681,1,0,0:0:0:0:
256,192,89758,1,8,0:0:0:0:
256,192,89835,1,0,0:0:0:0:
256,192,89989,1,0,0:0:0:0:
256,192,90143,1,8,0:0:0:0:
256,192,90297,1,8,0:0:0:0:
256,192,90451,1,0,0:0:0:0:
256,192,90758,1,8,0:0:0:0:
256,192,90912,1,8,0:0:0:0:
256,192,91066,1,0,0:0:0:0:
256,192,91220,1,8,0:0:0:0:
256,192,91528,1,8,0:0:0:0:
256,192,91681,1,0,0:0:0:0:
256,192,92143,1,0,0:0:0:0:
256,192,92220,1,0,0:0:0:0:
256,192,92297,1,8,0:0:0:0:
256,192,92451,1,0,0:0:0:0:
256,192,92605,1,8,0:0:0:0:
256,192,92758,1,8,0:0:0:0:
256,192,92912,1,8,0:0:0:0:
256,192,93220,1,0,0:0:0:0:
256,192,93374,1,8,0:0:0:0:
256,192,93681,1,8,0:0:0:0:
256,192,93835,1,0,0:0:0:0:
256,192,93989,1,8,0:0:0:0:
256,192,94143,1,0,0:0:0:0:
256,192,94605,1,0,0:0:0:0:
256,192,94681,1,8,0:0:0:0:
256,192,94758,1,0,0:0:0:0:
256,192,94912,1,8,0:0:0:0:
256,192,95066,1,0,0:0:0:0:
256,192,95220,1,8,0:0:0:0:
256,192,95374,1,8,0:0:0:0:
256,192,95681,1,0,0:0:0:0:
256,192,95835,1,8,0:0:0:0:
256,192,95912,1,8,0:0:0:0:
256,192,95989,1,8,0:0:0:0:
256,192,96143,1,0,0:0:0:0:
256,192,96297,1,8,0:0:0:0:
256,192,96451,1,8,0:0:0:0:
256,192,96605,1,0,0:0:0:0:
256,192,96912,1,0,0:0:0:0:
256,192,97066,1,8,0:0:0:0:
256,192,97374,1,8,0:0:0:0:
256,192,97528,1,0,0:0:0:0:
256,192,97681,1,8,0:0:0:0:
256,192,97989,1,0,0:0:0:0:
256,192,98143,1,0,0:0:0:0:
256,192,98297,1,8,0:0:0:0:
256,192,98605,1,8,0:0:0:0:
256,192,98758,1,0,0:0:0:0:
256,192,98912,1,8,0:0:0:0:
256,192,99066,1,4,0:0:0:0:
256,192,99220,12,0,100912,0:0:0:0:
256,192,101066,5,0,0:0:0:0:
256,192,101117,1,0,0:0:0:0:
256,192,101169,1,0,0:0:0:0:
256,192,101220,1,8,0:0:0:0:
256,192,101297,1,8,0:0:0:0:
256,192,101374,1,8,0:0:0:0:
256,192,101528,1,4,0:0:0:0:
256,192,101681,1,8,0:0:0:0:
256,192,101835,1,0,0:0:0:0:
256,192,101989,1,8,0:0:0:0:
256,192,102066,1,0,0:0:0:0:
256,192,102143,1,8,0:0:0:0:
256,192,102220,1,8,0:0:0:0:
256,192,102297,1,8,0:0:0:0:
256,192,102374,1,0,0:0:0:0:
256,192,102451,1,8,0:0:0:0:
256,192,102605,1,8,0:0:0:0:
256,192,102758,1,0,0:0:0:0:
256,192,102912,1,8,0:0:0:0:
256,192,102989,1,8,0:0:0:0:
256,192,103066,1,0,0:0:0:0:
256,192,103220,1,8,0:0:0:0:
256,192,103297,1,8,0:0:0:0:
256,192,103374,1,0,0:0:0:0:
256,192,103451,1,8,0:0:0:0:
256,192,103528,1,0,0:0:0:0:
256,192,103605,1,0,0:0:0:0:
256,192,103681,1,8,0:0:0:0:
256,192,103835,1,8,0:0:0:0:
256,192,103989,1,0,0:0:0:0:
256,192,104143,1,8,0:0:0:0:
256,192,104297,1,0,0:0:0:0:
256,192,104451,1,8,0:0:0:0:
256,192,104528,1,0,0:0:0:0:
256,192,104605,1,8,0:0:0:0:
256,192,104681,1,8,0:0:0:0:
256,192,104758,1,0,0:0:0:0:
256,192,104835,1,0,0:0:0:0:
256,192,104912,1,8,0:0:0:0:
256,192,105066,1,8,0:0:0:0:
256,192,105220,1,0,0:0:0:0:
256,192,105374,1,8,0:0:0:0:
256,192,105451,1,8,0:0:0:0:
256,192,105528,1,0,0:0:0:0:
256,192,105681,1,8,0:0:0:0:
256,192,105758,1,0,0:0:0:0:
256,192,105835,1,8,0:0:0:0:
256,192,105912,1,8,0:0:0:0:
256,192,105989,1,0,0:0:0:0:
256,192,106066,1,8,0:0:0:0:
256,192,106143,1,0,0:0:0:0:
256,192,106297,1,8,0:0:0:0:
256,192,106451,1,0,0:0:0:0:
256,192,106605,1,0,0:0:0:0:
256,192,106681,1,0,0:0:0:0:
256,192,106758,1,8,0:0:0:0:
256,192,106835,1,8,0:0:0:0:
256,192,106912,1,0,0:0:0:0:
256,192,106989,1,8,0:0:0:0:
256,192,107066,1,8,0:0:0:0:
256,192,107143,1,0,0:0:0:0:
256,192,107220,1,8,0:0:0:0:
256,192,107297,1,8,0:0:0:0:
256,192,107374,1,8,0:0:0:0:
256,192,107451,1,0,0:0:0:0:
256,192,107528,1,8,0:0:0:0:
256,192,107605,1,8,0:0:0:0:
256,192,107681,1,8,0:0:0:0:
256,192,107758,1,0,0:0:0:0:
256,192,107835,1,0,0:0:0:0:
256,192,107912,1,8,0:0:0:0:
256,192,107989,1,8,0:0:0:0:
256,192,108066,1,0,0:0:0:0:
256,192,108143,1,0,0:0:0:0:
256,192,108220,1,8,0:0:0:0:
256,192,108297,1,8,0:0:0:0:
256,192,108374,1,0,0:0:0:0:
256,192,108451,1,8,0:0:0:0:
256,192,108528,1,8,0:0:0:0:
256,192,108605,1,8,0:0:0:0:
256,192,108681,1,0,0:0:0:0:
256,192,108758,1,0,0:0:0:0:
256,192,108835,1,0,0:0:0:0:
256,192,108912,1,8,0:0:0:0:
256,192,108989,1,8,0:0:0:0:
256,192,109066,1,0,0:0:0:0:
256,192,109143,1,0,0:0:0:0:
256,192,109220,1,8,0:0:0:0:
256,192,109297,1,0,0:0:0:0:
256,192,109374,1,0,0:0:0:0:
256,192,109451,1,0,0:0:0:0:
256,192,109528,1,8,0:0:0:0:
256,192,109605,1,8,0:0:0:0:
256,192,109681,1,0,0:0:0:0:
256,192,109758,1,0,0:0:0:0:
256,192,109835,1,8,0:0:0:0:
256,192,109912,1,0,0:0:0:0:
256,192,109989,1,0,0:0:0:0:
256,192,110066,1,0,0:0:0:0:
256,192,110143,1,8,0:0:0:0:
256,192,110220,1,8,0:0:0:0:
256,192,110297,1,8,0:0:0:0:
256,192,110374,1,0,0:0:0:0:
256,192,110451,1,8,0:0:0:0:
256,192,110528,1,8,0:0:0:0:
256,192,110605,1,0,0:0:0:0:
256,192,110681,1,8,0:0:0:0:
256,192,110758,1,0,0:0:0:0:
256,192,110835,1,0,0:0:0:0:
256,192,110912,1,8,0:0:0:0:
256,192,110989,1,0,0:0:0:0:
256,192,111066,1,8,0:0:0:0:
256,192,111143,1,8,0:0:0:0:
256,192,111220,1,8,0:0:0:0:
256,192,111374,1,4,0:0:0:0:
256,192,111528,1,8,0:0:0:0:
256,192,111681,1,0,0:0:0:0:
256,192,111835,1,8,0:0:0:0:
256,192,111912,1,8,0:0:0:0:
256,192,111989,1,8,0:0:0:0:
256,192,112066,1,0,0:0:0:0:
256,192,112143,1,8,0:0:0:0:
256,192,112220,1,8,0:0:0:0:
256,192,112297,1,8,0:0:0:0:
256,192,112451,1,8,0:0:0:0:
256,192,112605,1,0,0:0:0:0:
256,192,112758,1,8,0:0:0:0:
256,192,112835,1,8,0:0:0:0:
256,192,112912,1,0,0:0:0:0:
256,192,113066,1,8,0:0:0:0:
256,192,113143,1,0,0:0:0:0:
256,192,113220,1,0,0:0:0:0:
256,192,113297,1,8,0:0:0:0:
256,192,113374,1,8,0:0:0:0:
256,192,113451,1,0,0:0:0:0:
256,192,113528,1,8,0:0:0:0:
256,192,113681,1,8,0:0:0:0:
256,192,113835,1,0,0:0:0:0:
256,192,113989,1,8,0:0:0:0:
256,192,114143,1,0,0:0:0:0:
256,192,114297,1,8,0:0:0:0:
256,192,114374,1,0,0:0:0:0:
256,192,114451,1,8,0:0:0:0:
256,192,114605,1,8,0:0:0:0:
256,192,114681,1,8,0:0:0:0:
256,192,114758,1,0,0:0:0:0:
256,192,114835,1,0,0:0:0:0:
256,192,114912,1,8,0:0:0:0:
256,192,115066,1,0,0:0:0:0:
256,192,115220,1,8,0:0:0:0:
256,192,115297,1,8,0:0:0:0:
256,192,115374,1,0,0:0:0:0:
256,192,115528,1,8,0:0:0:0:
256,192,115605,1,0,0:0:0:0:
256,192,115681,1,8,0:0:0:0:
256,192,115835,1,0,0:0:0:0:
256,192,115912,1,8,0:0:0:0:
256,192,115989,1,0,0:0:0:0:
256,192,116066,1,0,0:0:0:0:
256,192,116143,1,8,0:0:0:0:
256,192,116297,1,0,0:0:0:0:
256,192,116451,1,8,0:0:0:0:
256,192,116528,1,8,0:0:0:0:
256,192,116605,1,0,0:0:0:0:
256,192,116681,1,8,0:0:0:0:
256,192,116758,1,8,0:0:0:0:
256,192,116835,1,8,0:0:0:0:
256,192,116912,1,0,0:0:0:0:
256,192,116989,1,0,0:0:0:0:
256,192,117066,1,8,0:0:0:0:
256,192,117143,1,8,0:0:0:0:
256,192,117220,1,0,0:0:0:0:
256,192,117297,1,8,0:0:0:0:
256,192,117374,1,8,0:0:0:0:
256,192,117451,1,0,0:0:0:0:
256,192,117528,1,8,0:0:0:0:
256,192,117605,1,8,0:0:0:0:
256,192,117681,1,8,0:0:0:0:
256,192,117758,1,0,0:0:0:0:
256,192,117835,1,8,0:0:0:0:
256,192,117912,1,8,0:0:0:0:
256,192,117989,1,0,0:0:0:0:
256,192,118066,1,0,0:0:0:0:
256,192,118143,1,8,0:0:0:0:
256,192,118220,1,8,0:0:0:0:
256,192,118297,1,8,0:0:0:0:
256,192,118374,1,0,0:0:0:0:
256,192,118451,1,8,0:0:0:0:
256,192,118528,1,8,0:0:0:0:
256,192,118605,1,0,0:0:0:0:
256,192,118681,1,0,0:0:0:0:
256,192,118758,1,8,0:0:0:0:
256,192,118835,1,0,0:0:0:0:
256,192,118912,1,8,0:0:0:0:
256,192,118989,1,0,0:0:0:0:
256,192,119066,1,8,0:0:0:0:
256,192,119143,1,8,0:0:0:0:
256,192,119220,1,0,0:0:0:0:
256,192,119297,1,0,0:0:0:0:
256,192,119374,1,8,0:0:0:0:
256,192,119451,1,0,0:0:0:0:
256,192,119528,1,8,0:0:0:0:
256,192,119605,1,0,0:0:0:0:
256,192,119681,1,8,0:0:0:0:
256,192,119758,1,8,0:0:0:0:
256,192,119835,1,0,0:0:0:0:
256,192,119912,1,0,0:0:0:0:
256,192,119989,1,8,0:0:0:0:
256,192,120066,1,0,0:0:0:0:
256,192,120143,1,8,0:0:0:0:
256,192,120220,1,8,0:0:0:0:
256,192,120297,1,8,0:0:0:0:
256,192,120374,1,0,0:0:0:0:
256,192,120451,1,8,0:0:0:0:
256,192,120528,1,0,0:0:0:0:
256,192,120605,1,8,0:0:0:0:
256,192,120681,1,8,0:0:0:0:
256,192,120758,1,0,0:0:0:0:
256,192,120810,1,0,0:0:0:0:
256,192,120861,1,0,0:0:0:0:
256,192,120912,1,8,0:0:0:0:
256,192,120989,1,8,0:0:0:0:
256,192,121066,1,0,0:0:0:0:
256,192,121220,1,12,0:0:0:0:
256,192,121374,1,0,0:0:0:0:
256,192,121451,1,0,0:0:0:0:
256,192,121528,1,8,0:0:0:0:
256,192,121681,1,0,0:0:0:0:
256,192,121835,1,8,0:0:0:0:
256,192,121912,1,8,0:0:0:0:
256,192,121989,1,8,0:0:0:0:
256,192,122143,1,0,0:0:0:0:
256,192,122297,1,8,0:0:0:0:
256,192,122374,1,8,0:0:0:0:
256,192,122451,1,0,0:0:0:0:
256,192,122605,1,0,0:0:0:0:
256,192,122758,1,8,0:0:0:0:
256,192,122835,1,8,0:0:0:0:
256,192,122912,1,8,0:0:0:0:
256,192,123066,1,0,0:0:0:0:
256,192,123143,1,0,0:0:0:0:
256,192,123220,1,8,0:0:0:0:
256,192,123297,1,8,0:0:0:0:
256,192,123374,1,8,0:0:0:0:
256,192,123451,1,0,0:0:0:0:
256,192,123528,1,8,0:0:0:0:
256,192,123681,1,0,0:0:0:0:
256,192,123835,1,0,0:0:0:0:
256,192,123912,1,0,0:0:0:0:
256,192,123989,1,8,0:0:0:0:
256,192,124143,1,0,0:0:0:0:
256,192,124297,1,8,0:0:0:0:
256,192,124374,1,0,0:0:0:0:
256,192,124451,1,8,0:0:0:0:
256,192,124605,1,8,0:0:0:0:
256,192,124758,1,0,0:0:0:0:
256,192,124835,1,0,0:0:0:0:
256,192,124912,1,8,0:0:0:0:
256,192,125066,1,0,0:0:0:0:
256,192,125220,1,8,0:0:0:0:
256,192,125297,1,0,0:0:0:0:
256,192,125374,1,8,0:0:0:0:
256,192,125451,1,8,0:0:0:0:
256,192,125528,1,0,0:0:0:0:
256,192,125681,1,8,0:0:0:0:
256,192,125758,1,8,0:0:0:0:
256,192,125835,1,0,0:0:0:0:
256,192,125912,1,0,0:0:0:0:
256,192,125989,1,8,0:0:0:0:
256,192,126066,1,0,0:0:0:0:
256,192,126143,1,8,0:0:0:0:
256,192,126297,1,0,0:0:0:0:
256,192,126374,1,0,0:0:0:0:
256,192,126451,1,8,0:0:0:0:
256,192,126605,1,0,0:0:0:0:
256,192,126758,1,8,0:0:0:0:
256,192,126835,1,8,0:0:0:0:
256,192,126912,1,8,0:0:0:0:
256,192,127066,1,0,0:0:0:0:
256,192,127220,1,8,0:0:0:0:
256,192,127297,1,0,0:0:0:0:
256,192,127374,1,8,0:0:0:0:
256,192,127528,1,0,0:0:0:0:
256,192,127681,1,8,0:0:0:0:
256,192,127835,1,0,0:0:0:0:
256,192,127912,1,0,0:0:0:0:
256,192,127989,1,8,0:0:0:0:
256,192,128066,1,0,0:0:0:0:
256,192,128143,1,8,0:0:0:0:
256,192,128220,1,8,0:0:0:0:
256,192,128297,1,0,0:0:0:0:
256,192,128451,1,8,0:0:0:0:
256,192,128605,1,0,0:0:0:0:
256,192,128758,1,8,0:0:0:0:
256,192,128835,1,0,0:0:0:0:
256,192,128912,1,8,0:0:0:0:
256,192,129066,1,0,0:0:0:0:
256,192,129220,1,8,0:0:0:0:
256,192,129297,1,8,0:0:0:0:
256,192,129374,1,0,0:0:0:0:
256,192,129528,1,8,0:0:0:0:
256,192,129681,1,0,0:0:0:0:
256,192,129758,1,0,0:0:0:0:
256,192,129835,1,8,0:0:0:0:
256,192,129989,1,0,0:0:0:0:
256,192,130066,1,0,0:0:0:0:
256,192,130143,1,8,0:0:0:0:
256,192,130220,1,8,0:0:0:0:
256,192,130297,1,8,0:0:0:0:
256,192,130374,1,0,0:0:0:0:
256,192,130451,1,8,0:0:0:0:
256,192,130528,1,8,0:0:0:0:
256,192,130605,1,0,0:0:0:0:
256,192,130656,1,0,0:0:0:0:
256,192,130707,1,0,0:0:0:0:
256,192,130758,1,8,0:0:0:0:
256,192,130912,1,8,0:0:0:0:
256,192,131066,1,4,0:0:0:0:
256,192,140912,5,12,0:0:0:0:
256,192,141066,12,12,146143,0:0:0:0:
