osu file format v14

[General]
AudioFilename: audio.mp3
AudioLeadIn: 0
PreviewTime: 1525
Countdown: 0
SampleSet: Soft
StackLeniency: 0.4
Mode: 0
LetterboxInBreaks: 0
WidescreenStoryboard: 1

[Editor]
Bookmarks: 31525
DistanceSpacing: 1.7
BeatDivisor: 4
GridSize: 8
TimelineZoom: 1

[Metadata]
Title:Life
TitleUnicode:Life
Artist:ARForest
ArtistUnicode:ARForest
Creator:LeQuack
Version:Hard
Source:
Tags:
BeatmapID:1272370
BeatmapSetID:602291

[Difficulty]
HPDrainRate:5
CircleSize:3.8
OverallDifficulty:6
ApproachRate:7.5
SliderMultiplier:1.3
SliderTickRate:1

[Events]
//Background and Video events
0,0,"62288856_p0.jpg",0,0
//Break Periods
//Storyboard Layer 0 (Background)
//Storyboard Layer 1 (Fail)
//Storyboard Layer 2 (Pass)
//Storyboard Layer 3 (Foreground)
//Storyboard Sound Samples

[TimingPoints]
1525,468.75,4,2,1,70,1,0
31525,-100,4,2,2,70,0,0

[Colours]
Combo1 : 128,255,128
Combo2 : 0,255,255
Combo3 : 235,235,235

[HitObjects]
118,206,1525,5,6,0:0:0:0:
230,230,1759,1,0,0:0:0:0:
230,230,1993,1,0,0:0:0:0:
233,119,2228,1,2,0:0:0:0:
318,71,2462,2,0,L|358:72,2,32.5,0|0|0,0:0|0:0|0:0,0:0:0:0:
209,51,2931,2,0,P|176:71|161:111,1,65,2|0,0:0|0:0,0:0:0:0:
150,190,3400,6,0,L|152:263,1,65,8|0,0:0|0:0,0:0:0:0:
203,314,3868,1,0,0:0:0:0:
271,275,4103,2,0,L|387:276,2,97.5,8|8|10,0:0|0:0|0:0,0:0:0:0:
76,270,5275,6,0,P|72:234|85:192,1,65,6|0,0:0|0:0,0:0:0:0:
138,130,5743,1,0,0:0:0:0:
162,238,5978,1,2,0:0:0:0:
76,270,6212,2,0,L|29:268,2,32.5,0|0|0,0:0|0:0|0:0,0:0:0:0:
178,314,6681,2,0,B|212:320|253:308,1,65,2|0,0:0|0:0,0:0:0:0:
323,256,7150,6,0,P|345:222|344:173,1,65,8|0,0:0|0:0,0:0:0:0:
346,166,7501,1,0,0:0:0:0:
332,137,7618,1,0,0:0:0:0:
269,91,7853,6,0,P|306:64|363:68,1,97.5,8|8,0:0|0:0,0:0:0:0:
390,84,8321,1,0,0:0:0:0:
390,84,8439,1,0,0:0:0:0:
390,84,8556,1,8,0:0:0:0:
419,177,8790,2,0,L|376:183,1,32.5,2|0,0:0|0:0,0:0:0:0:
348,187,9025,5,6,0:0:0:0:
253,165,9259,1,0,0:0:0:0:
174,222,9493,1,0,0:0:0:0:
244,308,9728,1,2,0:0:0:0:
149,330,9962,2,0,L|114:353,2,32.5,0|0|0,0:0|0:0|0:0,0:0:0:0:
174,222,10431,2,0,P|178:181|171:145,1,65,2|0,0:0|0:0,0:0:0:0:
145,85,10900,5,8,0:0:0:0:
80,48,11134,1,0,0:0:0:0:
80,48,11251,1,0,0:0:0:0:
80,48,11368,1,0,0:0:0:0:
38,118,11603,6,0,P|34:162|44:218,1,97.5,8|8,0:0|0:0,0:0:0:0:
99,269,12189,1,8,0:0:0:0:
99,269,12306,1,8,0:0:0:0:
217,113,12775,6,0,L|306:116,1,65,6|0,0:0|0:0,0:0:0:0:
362,171,13243,1,0,0:0:0:0:
255,199,13478,1,2,0:0:0:0:
159,180,13712,2,0,L|124:179,2,32.5,0|0|0,0:0|0:0|0:0,0:0:0:0:
192,286,14181,2,0,P|186:322|162:349,1,65,2|0,0:0|0:0,0:0:0:0:
116,287,14650,6,0,L|48:287,1,65,8|0,0:0|0:0,0:0:0:0:
30,212,15118,1,0,0:0:0:0:
106,193,15353,2,0,P|136:170|150:134,1,65,8|0,0:0|0:0,0:0:0:0:
131,36,16056,1,10,0:0:0:0:
147,146,16290,1,2,0:0:0:0:
163,256,16525,6,0,P|201:261|245:254,1,65,6|0,0:0|0:0,0:0:0:0:
322,234,16993,1,0,0:0:0:0:
394,150,17228,2,0,L|391:81,1,65,2|0,0:0|0:0,0:0:0:0:
307,36,17696,1,0,0:0:0:0:
245,129,17931,2,0,P|206:133|166:125,1,65,2|0,0:0|0:0,0:0:0:0:
118,54,18400,6,0,L|47:58,1,65,8|0,0:0|0:0,0:0:0:0:
34,133,18868,1,0,0:0:0:0:
88,190,19103,2,0,L|194:176,2,97.5,8|8|10,0:0|0:0|0:0,0:0:0:0:
37,249,20040,1,0,0:0:0:0:
127,287,20275,6,0,P|165:293|207:283,1,65,6|0,0:0|0:0,0:0:0:0:
277,243,20743,1,0,0:0:0:0:
374,189,20978,2,0,P|387:222|386:262,1,65,2|0,0:0|0:0,0:0:0:0:
339,335,21446,1,0,0:0:0:0:
277,243,21681,2,0,L|278:149,1,65,2|0,0:0|0:0,0:0:0:0:
222,98,22150,6,0,P|183:96|146:111,1,65,8|0,0:0|0:0,0:0:0:0:
129,117,22501,1,0,0:0:0:0:
106,140,22618,1,0,0:0:0:0:
136,233,22853,6,0,P|171:241|234:230,1,97.5,8|8,0:0|0:0,0:0:0:0:
263,223,23321,1,0,0:0:0:0:
263,223,23439,1,0,0:0:0:0:
263,223,23556,1,8,0:0:0:0:
336,159,23790,2,0,L|338:125,1,32.5,2|0,0:0|0:0,0:0:0:0:
341,87,24025,5,6,0:0:0:0:
259,35,24259,1,0,0:0:0:0:
208,118,24493,1,0,0:0:0:0:
277,205,24728,1,2,0:0:0:0:
359,153,24962,2,0,L|406:154,2,32.5,0|0|0,0:0|0:0|0:0,0:0:0:0:
266,93,25431,2,0,P|236:100|207:118,1,65,2|0,0:0|0:0,0:0:0:0:
140,189,25900,5,8,0:0:0:0:
216,222,26134,1,0,0:0:0:0:
216,222,26251,1,0,0:0:0:0:
216,222,26368,1,0,0:0:0:0:
294,215,26603,2,0,P|343:204|391:167,1,97.5,8|8,0:0|0:0,0:0:0:0:
431,117,27189,1,8,0:0:0:0:
431,117,27306,1,10,0:0:0:0:
236,121,27775,6,0,L|156:118,1,65,6|0,0:0|0:0,0:0:0:0:
88,169,28243,1,0,0:0:0:0:
182,227,28478,2,0,P|183:265|171:297,1,65,2|0,0:0|0:0,0:0:0:0:
90,339,28946,1,0,0:0:0:0:
70,230,29181,2,0,P|77:190|94:159,1,65,2|0,0:0|0:0,0:0:0:0:
165,109,29650,5,8,0:0:0:0:
240,156,29884,1,0,0:0:0:0:
240,156,30001,1,0,0:0:0:0:
240,156,30118,1,0,0:0:0:0:
188,222,30353,1,0,0:0:0:0:
249,270,30587,2,0,L|332:267,1,65,8|0,0:0|0:0,0:0:0:0:
391,254,31056,5,0,0:0:0:0:
361,148,31290,1,0,0:0:0:0:
268,88,31525,1,2,0:0:0:0:
