osu file format v14

[General]
AudioFilename: Lantinid.mp3
AudioLeadIn: 0
PreviewTime: 61834
Countdown: 0
SampleSet: Normal
StackLeniency: 0.7
Mode: 1
LetterboxInBreaks: 0
WidescreenStoryboard: 0

[Editor]
DistanceSpacing: 0.5
BeatDivisor: 4
GridSize: 8
TimelineZoom: 2.4

[Metadata]
Title:Lantinid
TitleUnicode:Lantinid
Artist:ARForest
ArtistUnicode:ARForest
Creator:ptar124
Version:Muzukashii
Source:Zyon 載音
Tags:aquatrax nixin studio artcore instrumental electronic
BeatmapID:902847
BeatmapSetID:416362

[Difficulty]
HPDrainRate:5
CircleSize:5
OverallDifficulty:5
ApproachRate:7
SliderMultiplier:1.4
SliderTickRate:1

[Events]
//Background and Video events
0,0,"Zyon.jpg",0,0
//Break Periods
//Storyboard Layer 0 (Background)
//Storyboard Layer 1 (Fail)
//Storyboard Layer 2 (Pass)
//Storyboard Layer 3 (Foreground)
//Storyboard Layer 4 (Overlay)
//Storyboard Sound Samples

[TimingPoints]
666,297.029702970297,4,1,0,60,1,0
666,-133.333333333333,4,1,0,60,0,0
19675,-111.111111111111,4,1,0,45,0,0
22052,-100,4,1,0,60,0,0
31557,-100,4,1,0,60,0,1
41062,-100,4,1,0,60,0,0
43438,-200,4,1,0,30,0,0
50566,-133.333333333333,4,1,0,45,0,0
55319,-117.647058823529,4,1,0,45,0,0
62448,-153.846153846154,4,1,0,45,0,0
82646,-100,4,1,0,45,0,0
83537,-100,4,1,0,70,0,0
83834,-100,4,1,0,70,0,1
102844,-100,4,1,0,70,0,0
104626,-166.666666666667,4,1,0,45,0,0

[HitObjects]
256,192,666,5,8,0:0:0:0:
256,192,1111,1,0,0:0:0:0:
256,192,1557,1,0,0:0:0:0:
256,192,1854,1,8,0:0:0:0:
256,192,2299,1,0,0:0:0:0:
256,192,2745,1,8,0:0:0:0:
256,192,3042,1,8,0:0:0:0:
256,192,3339,1,0,0:0:0:0:
256,192,3487,1,0,0:0:0:0:
256,192,3784,1,0,0:0:0:0:
256,192,4081,1,8,0:0:0:0:
256,192,4378,1,0,0:0:0:0:
256,192,4527,1,0,0:0:0:0:
256,192,4824,1,0,0:0:0:0:
256,192,5121,1,8,0:0:0:0:
256,192,5418,1,8,0:0:0:0:
256,192,5864,1,0,0:0:0:0:
256,192,6309,1,0,0:0:0:0:
256,192,6606,1,8,0:0:0:0:
256,192,7052,1,0,0:0:0:0:
256,192,7497,1,8,0:0:0:0:
256,192,7794,1,8,0:0:0:0:
256,192,8091,1,0,0:0:0:0:
256,192,8240,1,8,0:0:0:0:
256,192,8537,1,8,0:0:0:0:
256,192,8834,1,0,0:0:0:0:
256,192,9131,1,0,0:0:0:0:
256,192,9279,1,0,0:0:0:0:
256,192,9576,1,0,0:0:0:0:
256,192,9873,1,8,0:0:0:0:
256,192,10022,1,0,0:0:0:0:
256,192,10170,1,8,0:0:0:0:
256,192,10616,1,0,0:0:0:0:
256,192,11062,1,0,0:0:0:0:
256,192,11359,1,8,0:0:0:0:
256,192,11804,1,0,0:0:0:0:
256,192,12250,1,8,0:0:0:0:
256,192,12547,1,8,0:0:0:0:
256,192,12844,1,0,0:0:0:0:
256,192,12992,1,0,0:0:0:0:
256,192,13289,1,0,0:0:0:0:
256,192,13586,1,8,0:0:0:0:
256,192,13883,1,0,0:0:0:0:
256,192,14032,1,8,0:0:0:0:
256,192,14329,1,8,0:0:0:0:
256,192,14626,1,0,0:0:0:0:
256,192,14923,1,8,0:0:0:0:
256,192,15368,1,8,0:0:0:0:
256,192,15814,1,0,0:0:0:0:
256,192,16111,1,8,0:0:0:0:
256,192,16557,1,0,0:0:0:0:
256,192,17002,1,8,0:0:0:0:
256,192,17299,1,8,0:0:0:0:
256,192,17596,1,0,0:0:0:0:
256,192,17745,1,8,0:0:0:0:
256,192,18042,1,8,0:0:0:0:
256,192,18339,1,8,0:0:0:0:
256,192,18636,1,0,0:0:0:0:
256,192,18784,1,8,0:0:0:0:
256,192,19081,1,8,0:0:0:0:
256,192,19378,1,0,0:0:0:0:
256,192,19527,1,8,0:0:0:0:
256,192,19675,1,0,0:0:0:0:
256,192,19824,1,0,0:0:0:0:
256,192,19972,1,8,0:0:0:0:
256,192,20269,1,0,0:0:0:0:
256,192,20418,1,8,0:0:0:0:
256,192,20715,1,0,0:0:0:0:
256,192,20864,1,8,0:0:0:0:
256,192,21161,1,0,0:0:0:0:
256,192,21309,1,8,0:0:0:0:
256,192,21458,1,0,0:0:0:0:
256,192,21606,1,0,0:0:0:0:
256,192,21755,1,8,0:0:0:0:
256,192,21829,1,8,0:0:0:0:
256,192,21903,1,8,0:0:0:0:
256,192,22052,1,4,0:0:0:0:
256,192,22349,1,8,0:0:0:0:
256,192,22497,1,0,0:0:0:0:
256,192,22646,1,0,0:0:0:0:
256,192,22794,1,0,0:0:0:0:
256,192,22943,1,8,0:0:0:0:
256,192,23091,1,8,0:0:0:0:
256,192,23537,1,8,0:0:0:0:
256,192,23685,1,8,0:0:0:0:
256,192,23834,1,0,0:0:0:0:
256,192,23982,1,0,0:0:0:0:
256,192,24131,1,8,0:0:0:0:
256,192,24279,1,0,0:0:0:0:
256,192,24725,1,8,0:0:0:0:
256,192,24873,1,0,0:0:0:0:
256,192,25022,1,0,0:0:0:0:
256,192,25170,1,0,0:0:0:0:
256,192,25319,1,8,0:0:0:0:
256,192,25467,1,8,0:0:0:0:
256,192,25913,1,8,0:0:0:0:
256,192,26062,1,0,0:0:0:0:
256,192,26210,1,0,0:0:0:0:
256,192,26359,1,8,0:0:0:0:
256,192,26507,1,8,0:0:0:0:
256,192,26656,1,0,0:0:0:0:
256,192,26804,1,0,0:0:0:0:
256,192,27101,1,8,0:0:0:0:
256,192,27250,1,0,0:0:0:0:
256,192,27398,1,0,0:0:0:0:
256,192,27547,1,0,0:0:0:0:
256,192,27695,1,8,0:0:0:0:
256,192,27844,1,0,0:0:0:0:
256,192,28289,1,8,0:0:0:0:
256,192,28438,1,8,0:0:0:0:
256,192,28586,1,0,0:0:0:0:
256,192,28735,1,0,0:0:0:0:
256,192,28883,1,8,0:0:0:0:
256,192,29032,1,0,0:0:0:0:
256,192,29477,1,8,0:0:0:0:
256,192,29626,1,0,0:0:0:0:
256,192,29774,1,0,0:0:0:0:
256,192,29923,1,0,0:0:0:0:
256,192,30071,1,8,0:0:0:0:
256,192,30220,1,8,0:0:0:0:
256,192,30517,1,0,0:0:0:0:
256,192,30666,1,8,0:0:0:0:
256,192,30814,1,8,0:0:0:0:
256,192,30963,1,0,0:0:0:0:
256,192,31111,1,8,0:0:0:0:
256,192,31260,1,0,0:0:0:0:
256,192,31334,1,0,0:0:0:0:
256,192,31408,1,0,0:0:0:0:
256,192,31557,1,12,0:0:0:0:
256,192,31854,1,8,0:0:0:0:
256,192,32002,1,8,0:0:0:0:
256,192,32151,1,0,0:0:0:0:
256,192,32299,1,0,0:0:0:0:
256,192,32448,1,8,0:0:0:0:
256,192,32745,1,8,0:0:0:0:
256,192,32893,1,8,0:0:0:0:
256,192,33042,1,0,0:0:0:0:
256,192,33190,1,0,0:0:0:0:
256,192,33339,1,8,0:0:0:0:
256,192,33487,1,0,0:0:0:0:
256,192,33636,1,8,0:0:0:0:
256,192,33933,1,8,0:0:0:0:
256,192,34081,1,0,0:0:0:0:
256,192,34230,1,8,0:0:0:0:
256,192,34378,1,8,0:0:0:0:
256,192,34527,1,0,0:0:0:0:
256,192,34675,1,0,0:0:0:0:
256,192,34824,1,8,0:0:0:0:
256,192,35121,1,8,0:0:0:0:
256,192,35269,1,0,0:0:0:0:
256,192,35418,1,0,0:0:0:0:
256,192,35566,1,8,0:0:0:0:
256,192,35715,1,8,0:0:0:0:
256,192,35864,1,0,0:0:0:0:
256,192,36012,1,8,0:0:0:0:
256,192,36309,1,12,0:0:0:0:
256,192,36458,1,0,0:0:0:0:
256,192,36606,1,0,0:0:0:0:
256,192,36755,1,8,0:0:0:0:
256,192,36903,1,0,0:0:0:0:
256,192,37052,1,0,0:0:0:0:
256,192,37200,1,8,0:0:0:0:
256,192,37497,1,8,0:0:0:0:
256,192,37646,1,0,0:0:0:0:
256,192,37794,1,8,0:0:0:0:
256,192,37943,1,8,0:0:0:0:
256,192,38091,1,8,0:0:0:0:
256,192,38240,1,0,0:0:0:0:
256,192,38388,1,8,0:0:0:0:
256,192,38685,1,4,0:0:0:0:
256,192,38834,1,8,0:0:0:0:
256,192,38982,1,0,0:0:0:0:
256,192,39131,1,0,0:0:0:0:
256,192,39279,1,8,0:0:0:0:
256,192,39428,1,0,0:0:0:0:
256,192,39576,1,8,0:0:0:0:
256,192,39725,1,8,0:0:0:0:
256,192,39873,1,4,0:0:0:0:
256,192,40170,1,0,0:0:0:0:
256,192,40319,1,0,0:0:0:0:
256,192,40467,1,8,0:0:0:0:
256,192,40616,1,0,0:0:0:0:
256,192,40765,1,8,0:0:0:0:
256,192,40839,1,8,0:0:0:0:
256,192,40913,1,8,0:0:0:0:
256,192,41062,1,4,0:0:0:0:
256,192,43438,1,8,0:0:0:0:
256,192,45814,1,8,0:0:0:0:
256,192,48190,1,8,0:0:0:0:
256,192,50566,1,0,0:0:0:0:
256,192,51161,1,8,0:0:0:0:
256,192,51458,1,0,0:0:0:0:
256,192,51606,1,0,0:0:0:0:
256,192,52052,1,0,0:0:0:0:
256,192,52349,1,8,0:0:0:0:
256,192,52943,1,0,0:0:0:0:
256,192,53537,1,8,0:0:0:0:
256,192,53834,1,0,0:0:0:0:
256,192,53982,1,0,0:0:0:0:
256,192,54428,1,0,0:0:0:0:
256,192,54725,1,8,0:0:0:0:
256,192,55022,1,0,0:0:0:0:
256,192,55170,1,8,0:0:0:0:
256,192,55319,1,0,0:0:0:0:
256,192,55616,1,8,0:0:0:0:
256,192,55765,1,0,0:0:0:0:
256,192,55913,1,8,0:0:0:0:
256,192,56210,1,0,0:0:0:0:
256,192,56359,1,0,0:0:0:0:
256,192,56804,1,8,0:0:0:0:
256,192,56953,1,0,0:0:0:0:
256,192,57101,1,8,0:0:0:0:
256,192,57398,1,0,0:0:0:0:
256,192,57547,1,8,0:0:0:0:
256,192,57695,1,0,0:0:0:0:
256,192,57992,1,0,0:0:0:0:
256,192,58141,1,8,0:0:0:0:
256,192,58586,1,8,0:0:0:0:
256,192,59032,1,8,0:0:0:0:
256,192,59329,1,0,0:0:0:0:
256,192,59477,1,8,0:0:0:0:
256,192,59774,1,8,0:0:0:0:
256,192,59849,1,8,0:0:0:0:
256,192,59923,1,8,0:0:0:0:
256,192,60071,1,0,0:0:0:0:
256,192,62448,1,4,0:0:0:0:
256,192,62893,1,8,0:0:0:0:
256,192,63339,1,8,0:0:0:0:
273,227,64230,1,8,0:0:0:0:
273,227,64527,1,0,0:0:0:0:
273,227,64824,1,8,0:0:0:0:
273,227,65269,1,0,0:0:0:0:
273,227,65715,1,8,0:0:0:0:
273,227,66606,1,8,0:0:0:0:
273,227,66903,1,8,0:0:0:0:
273,227,67200,1,8,0:0:0:0:
273,227,67646,1,0,0:0:0:0:
273,227,68091,1,0,0:0:0:0:
273,227,68537,1,8,0:0:0:0:
273,227,68982,1,8,0:0:0:0:
273,227,69279,1,0,0:0:0:0:
273,227,69576,1,8,0:0:0:0:
273,227,70022,1,8,0:0:0:0:
273,227,70467,1,0,0:0:0:0:
273,227,70913,1,8,0:0:0:0:
273,227,71359,1,8,0:0:0:0:
273,227,71656,1,0,0:0:0:0:
273,227,71953,1,0,0:0:0:0:
273,227,72398,1,8,0:0:0:0:
273,227,72844,1,8,0:0:0:0:
273,227,73735,1,8,0:0:0:0:
273,227,74032,1,0,0:0:0:0:
273,227,74329,1,8,0:0:0:0:
273,227,74774,1,0,0:0:0:0:
273,227,75220,1,8,0:0:0:0:
273,227,75666,1,8,0:0:0:0:
273,227,76111,1,8,0:0:0:0:
258,187,76408,1,0,0:0:0:0:
258,187,76705,1,8,0:0:0:0:
258,187,77151,1,8,0:0:0:0:
258,187,77596,1,0,0:0:0:0:
258,187,78042,1,0,0:0:0:0:
273,227,78487,1,8,0:0:0:0:
258,187,78636,1,0,0:0:0:0:
258,187,78784,1,8,0:0:0:0:
258,187,79081,1,8,0:0:0:0:
258,187,79527,1,8,0:0:0:0:
258,187,79972,1,0,0:0:0:0:
258,187,80418,1,0,0:0:0:0:
258,187,80864,1,8,0:0:0:0:
258,187,81012,1,0,0:0:0:0:
258,187,81161,1,8,0:0:0:0:
258,187,81458,1,12,0:0:0:0:
258,187,82646,1,0,0:0:0:0:
258,187,82794,1,0,0:0:0:0:
258,187,82943,1,8,0:0:0:0:
258,187,83091,1,0,0:0:0:0:
258,187,83240,1,0,0:0:0:0:
258,187,83388,1,0,0:0:0:0:
258,187,83537,1,8,0:0:0:0:
258,187,83611,1,8,0:0:0:0:
258,187,83685,1,8,0:0:0:0:
258,187,83834,1,4,0:0:0:0:
258,187,84131,1,8,0:0:0:0:
258,187,84279,1,0,0:0:0:0:
258,187,84576,1,8,0:0:0:0:
258,187,84725,1,8,0:0:0:0:
258,187,84873,1,0,0:0:0:0:
258,187,85170,1,8,0:0:0:0:
258,187,85319,1,8,0:0:0:0:
258,187,85467,1,0,0:0:0:0:
258,187,85616,1,8,0:0:0:0:
258,187,85765,1,0,0:0:0:0:
258,187,85913,1,8,0:0:0:0:
258,187,85987,1,8,0:0:0:0:
258,187,86062,1,8,0:0:0:0:
258,187,86210,1,0,0:0:0:0:
258,187,86507,1,8,0:0:0:0:
258,187,86656,1,0,0:0:0:0:
258,187,86953,1,8,0:0:0:0:
258,187,87101,1,8,0:0:0:0:
258,187,87250,1,0,0:0:0:0:
258,187,87547,1,0,0:0:0:0:
258,187,87695,1,8,0:0:0:0:
258,187,87844,1,8,0:0:0:0:
258,187,87992,1,0,0:0:0:0:
258,187,88141,1,0,0:0:0:0:
258,187,88289,1,8,0:0:0:0:
258,187,88364,1,8,0:0:0:0:
258,187,88438,1,8,0:0:0:0:
258,187,88586,1,0,0:0:0:0:
258,187,88883,1,8,0:0:0:0:
258,187,89032,1,0,0:0:0:0:
258,187,89329,1,0,0:0:0:0:
258,187,89477,1,8,0:0:0:0:
258,187,89626,1,0,0:0:0:0:
258,187,89923,1,8,0:0:0:0:
258,187,90071,1,8,0:0:0:0:
258,187,90220,1,0,0:0:0:0:
258,187,90368,1,8,0:0:0:0:
258,187,90517,1,0,0:0:0:0:
258,187,90666,1,8,0:0:0:0:
258,187,90740,1,8,0:0:0:0:
258,187,90814,1,8,0:0:0:0:
258,187,90963,1,12,0:0:0:0:
258,187,91260,1,0,0:0:0:0:
258,187,91408,1,0,0:0:0:0:
258,187,91557,1,8,0:0:0:0:
258,187,91705,1,0,0:0:0:0:
258,187,91854,1,8,0:0:0:0:
258,187,92002,1,0,0:0:0:0:
258,187,92151,1,12,0:0:0:0:
258,187,92596,1,12,0:0:0:0:
258,187,92893,1,12,0:0:0:0:
258,187,93190,1,12,0:0:0:0:
258,187,93339,1,4,0:0:0:0:
258,187,93636,1,8,0:0:0:0:
258,187,93784,1,8,0:0:0:0:
258,187,93933,1,0,0:0:0:0:
258,187,94081,1,0,0:0:0:0:
258,187,94230,1,8,0:0:0:0:
258,187,94378,1,0,0:0:0:0:
258,187,94675,1,0,0:0:0:0:
258,187,94824,1,8,0:0:0:0:
258,187,94972,1,8,0:0:0:0:
258,187,95121,1,0,0:0:0:0:
258,187,95269,1,0,0:0:0:0:
258,187,95418,1,8,0:0:0:0:
258,187,95492,1,8,0:0:0:0:
258,187,95566,1,8,0:0:0:0:
258,187,95715,1,0,0:0:0:0:
258,187,96012,1,8,0:0:0:0:
258,187,96161,1,0,0:0:0:0:
258,187,96309,1,0,0:0:0:0:
258,187,96458,1,0,0:0:0:0:
258,187,96606,1,8,0:0:0:0:
258,187,96755,1,0,0:0:0:0:
258,187,97052,1,8,0:0:0:0:
258,187,97200,1,8,0:0:0:0:
258,187,97349,1,0,0:0:0:0:
258,187,97497,1,8,0:0:0:0:
258,187,97646,1,0,0:0:0:0:
258,187,97794,1,8,0:0:0:0:
258,187,97868,1,8,0:0:0:0:
258,187,97943,1,8,0:0:0:0:
258,187,98091,1,12,0:0:0:0:
258,187,98388,1,0,0:0:0:0:
258,187,98537,1,8,0:0:0:0:
258,187,98834,1,0,0:0:0:0:
258,187,98982,1,8,0:0:0:0:
258,187,99131,1,8,0:0:0:0:
258,187,99428,1,8,0:0:0:0:
258,187,99576,1,0,0:0:0:0:
258,187,99873,1,8,0:0:0:0:
258,187,100022,1,0,0:0:0:0:
258,187,100170,1,8,0:0:0:0:
258,187,100245,1,8,0:0:0:0:
258,187,100319,1,8,0:0:0:0:
258,187,100467,1,4,0:0:0:0:
258,187,100765,1,0,0:0:0:0:
258,187,100913,1,8,0:0:0:0:
258,187,101210,1,0,0:0:0:0:
258,187,101359,1,8,0:0:0:0:
258,187,101656,1,8,0:0:0:0:
258,187,101804,1,8,0:0:0:0:
258,187,101953,1,0,0:0:0:0:
258,187,102101,1,0,0:0:0:0:
258,187,102250,1,8,0:0:0:0:
258,187,102398,1,0,0:0:0:0:
258,187,102547,1,8,0:0:0:0:
258,187,102621,1,8,0:0:0:0:
258,187,102695,1,8,0:0:0:0:
258,187,102844,1,4,0:0:0:0:
258,187,104626,1,8,0:0:0:0:
258,187,105220,1,8,0:0:0:0:
258,187,106111,1,0,0:0:0:0:
258,187,106260,1,0,0:0:0:0:
258,187,106408,1,8,0:0:0:0:
258,187,106854,1,8,0:0:0:0:
258,187,107299,1,0,0:0:0:0:
258,187,107596,1,8,0:0:0:0:
258,187,109675,1,0,0:0:0:0:
258,187,109824,1,8,0:0:0:0:
258,187,109972,1,8,0:0:0:0:
258,187,110418,1,8,0:0:0:0:
258,187,110864,1,0,0:0:0:0:
258,187,111309,1,0,0:0:0:0:
258,187,111755,1,0,0:0:0:0:
258,187,111903,1,0,0:0:0:0:
258,187,112052,1,8,0:0:0:0:
258,187,112349,1,12,0:0:0:0:
