osu file format v14

[General]
AudioFilename: audio.mp3
AudioLeadIn: 0
PreviewTime: 62502
Countdown: 0
SampleSet: Soft
StackLeniency: 0.3
Mode: 0
LetterboxInBreaks: 0
WidescreenStoryboard: 0

[Editor]
Bookmarks: 19804,22181,31686,41191,50695,83963
DistanceSpacing: 0.3
BeatDivisor: 4
GridSize: 16
TimelineZoom: 3.299999

[Metadata]
Title:Lantinid
TitleUnicode:Lantinid
Artist:ARForest
ArtistUnicode:ARForest
Creator:Einja
Version:Master
Source:
Tags:fursum [[pika]] pika
BeatmapID:1353750
BeatmapSetID:638118

[Difficulty]
HPDrainRate:6
CircleSize:4.2
OverallDifficulty:8.5
ApproachRate:9.5
SliderMultiplier:1.8
SliderTickRate:1

[Events]
//Background and Video events
0,0,"stop looking through the beatmap files.jpg",0,0
//Break Periods
//Storyboard Layer 0 (Background)
//Storyboard Layer 1 (Fail)
//Storyboard Layer 2 (Pass)
//Storyboard Layer 3 (Foreground)
//Storyboard Sound Samples

[TimingPoints]
795,297.029702970297,4,2,0,30,1,0
795,-166.666666666667,4,2,0,30,0,0
19804,-125,4,2,0,50,0,0
21587,-125,4,2,0,50,0,0
31686,-83.3333333333333,4,2,0,50,0,0
41191,-200,4,2,0,50,0,0
41785,-192.307692307692,4,2,0,50,0,0
42082,-185.185185185185,4,2,0,50,0,0
42379,-200,4,2,0,50,0,0
43864,-192.307692307692,4,2,0,50,0,0
44161,-185.185185185185,4,2,0,50,0,0
44458,-178.571428571429,4,2,0,50,0,0
45052,-200,4,2,0,50,0,0
46537,-192.307692307692,4,2,0,50,0,0
46834,-185.185185185185,4,2,0,50,0,0
47131,-200,4,2,0,50,0,0
50101,-192.307692307692,4,2,0,50,0,0
50398,-185.185185185185,4,2,0,50,0,0
50695,-133.333333333333,4,2,0,50,0,0
60200,-200,4,2,0,50,0,0
60795,-66.6666666666667,4,2,0,50,0,0
61686,-40,4,2,0,50,0,0
62280,-100,4,2,0,50,0,0
62428,-133.333333333333,4,2,0,50,0,0
62577,-200,4,2,0,30,0,0
82775,-100,4,2,0,50,0,0
83963,-76.9230769230769,4,2,0,50,0,1
92280,-100,4,2,0,50,0,0
93468,-76.9230769230769,4,2,0,50,0,1
102973,-100,4,2,0,50,0,0
104755,-200,4,2,0,20,0,0

[Colours]
Combo1 : 219,219,219
Combo2 : 89,172,255
Combo3 : 120,220,220

[HitObjects]
72,104,795,6,0,P|123:97|170:123,1,107.999996704102
152,214,1240,2,0,P|100:220|53:194,1,107.999996704102
296,140,1686,2,0,L|285:207,1,53.9999983520508
486,297,1983,6,0,L|476:189,1,107.999996704102
296,140,2428,2,0,B|345:150|345:150|400:130,1,107.999996704102
405,213,2874,2,0,P|395:238|379:259,1,53.9999983520508,0|0,0:3|0:0,0:0:0:0:
255,316,3171,6,0,L|202:328,1,53.9999983520508,0|0,0:3|0:0,0:0:0:0:
135,221,3468,1,0,0:0:0:0:
135,221,3616,2,0,L|203:232,1,53.9999983520508
352,328,3913,2,0,L|340:260,1,53.9999983520508
324,168,4210,1,0,0:0:0:0:
324,168,4507,5,0,0:0:0:0:
135,221,4656,1,0,0:0:0:0:
257,124,4953,6,0,P|275:104|300:92,1,53.9999983520508
464,153,5250,2,0,P|445:172|420:185,1,53.9999983520508
145,324,5547,6,0,B|125:269|125:269|136:212,1,107.999996704102
313,257,5993,2,0,P|265:278|213:269,1,107.999996704102
56,238,6438,2,0,L|46:291,1,53.9999983520508
256,201,6735,6,0,L|238:94,1,107.999996704102
410,55,7181,2,0,P|360:74|308:60,1,107.999996704102,0|0,2:0|2:0,2:0:0:0:
160,122,7626,2,0,P|148:146|144:172,1,53.9999983520508
348,279,7923,5,0,0:0:0:0:
443,89,8220,1,0,0:0:0:0:
443,89,8369,2,0,L|454:153,1,53.9999983520508
286,229,8666,2,0,L|290:175,1,53.9999983520508
214,262,8963,5,0,0:0:0:0:
214,262,9260,5,0,0:0:0:0:
274,36,9409,1,0,0:0:0:0:
274,36,9705,6,0,P|286:59|290:87,1,53.9999983520508
260,160,10002,1,0,0:0:0:0:
185,186,10151,1,0,0:0:0:0:
417,303,10299,6,0,B|365:321|365:321|313:313,1,107.999996704102
339,129,10745,2,0,L|358:258,1,107.999996704102
197,354,11191,2,0,P|186:330|184:302,1,53.9999983520508
439,325,11488,6,0,L|458:196,1,107.999996704102
310,147,11933,2,0,P|360:164|411:149,1,107.999996704102
244,205,12379,2,0,L|250:272,1,53.9999983520508
157,328,12676,6,0,P|132:336|104:335,1,53.9999983520508
55,190,12973,1,0,0:0:0:0:
55,190,13121,2,0,L|120:206,1,53.9999983520508
273,336,13418,2,0,P|274:309|267:283,1,53.9999983520508
175,154,13715,5,0,0:0:0:0:
175,154,14012,5,0,0:0:0:0:
373,261,14161,1,0,0:0:0:0:
324,103,14458,6,0,P|296:102|271:109,1,53.9999983520508
156,230,14755,2,0,P|184:231|209:224,1,53.9999983520508
448,333,15052,6,0,L|462:225,1,107.999996704102
360,256,15497,2,0,P|315:265|276:249,1,80.9999975280763
260,234,15794,1,0,0:0:0:0:
330,159,15943,2,0,B|350:135|350:135|358:95,1,53.9999983520508
107,118,16240,6,0,L|119:240,1,107.999996704102
217,330,16686,2,0,B|257:344|257:344|296:338,1,80.9999975280763
331,332,16983,1,0,0:0:0:0:
260,234,17131,2,0,P|242:213|232:188,1,53.9999983520508
191,46,17428,5,0,0:0:0:0:
191,46,17725,5,0,0:0:0:0:
414,199,17874,2,0,P|392:182|377:160,1,53.9999983520508
274,255,18171,2,0,P|283:229|299:208,1,53.9999983520508
178,139,18468,2,0,P|204:139|230:148,1,53.9999983520508
258,11,18765,1,0,0:0:0:0:
258,11,18913,2,0,P|265:36|264:63,1,53.9999983520508
404,48,19210,2,0,P|381:63|355:70,1,53.9999983520508
308,135,19507,5,0,0:0:0:0:
308,135,19656,1,0,0:0:0:0:
75,57,19804,6,0,P|93:72|111:95,1,36
151,272,19952,1,0,0:0:0:0:
116,264,20026,1,0,0:0:0:0:
84,248,20101,2,0,P|66:233|48:210,1,36
249,184,20250,5,0,0:0:0:0:
288,208,20324,1,0,0:0:0:0:
305,252,20398,1,0,0:0:0:0:
294,296,20472,1,0,0:0:0:0:
260,326,20547,2,0,P|241:337|213:346,1,36
174,192,20695,5,0,0:0:0:0:
158,137,20769,1,0,0:0:0:0:
179,82,20843,1,0,0:0:0:0:
225,50,20917,1,0,0:0:0:0:
281,50,20993,2,0,P|300:60|322:79,1,36
452,173,21141,5,0,0:0:0:0:
451,182,21215,1,0,0:0:0:0:
450,192,21289,1,0,0:0:0:0:
449,202,21364,1,0,0:0:0:0:
447,212,21438,5,0,0:0:0:0:
377,237,21512,2,0,P|357:237|335:228,3,36
155,312,21884,6,0,L|154:340,1,18
208,312,21958,2,0,L|207:340,1,18
261,312,22032,2,0,L|260:340,1,18
314,312,22106,2,0,L|313:340,1,18
366,312,22181,5,0,0:0:0:0:
174,192,22329,1,0,0:0:0:0:
374,86,22478,2,0,P|410:64|454:69,1,72
469,72,22700,1,0,0:0:0:0:
497,87,22775,1,0,0:0:0:0:
297,193,22923,1,0,0:0:0:0:
297,193,22997,1,0,0:0:0:0:
297,193,23072,1,0,0:0:0:0:
335,14,23220,1,0,0:0:0:0:
452,232,23369,5,0,0:0:0:0:
238,105,23517,2,0,L|220:166,1,36
166,272,23666,2,0,P|132:261|108:234,1,72
94,207,23889,1,0,0:0:0:0:
92,175,23964,1,0,0:0:0:0:
287,257,24111,1,0,0:0:0:0:
287,257,24186,1,0,0:0:0:0:
287,257,24260,1,0,0:0:0:0:
132,372,24408,1,0,0:0:0:0:
238,105,24557,5,0,0:0:0:0:
475,138,24705,2,0,L|451:178,1,36
327,326,24854,2,0,P|293:338|257:331,1,72
230,317,25077,1,0,0:0:0:0:
210,292,25151,1,0,0:0:0:0:
356,161,25299,1,0,0:0:0:0:
356,161,25374,1,0,0:0:0:0:
356,161,25448,1,0,0:0:0:0:
410,351,25596,1,0,0:0:0:0:
227,182,25745,5,0,0:0:0:0:
497,64,25894,1,0,0:0:0:0:
426,52,25968,1,0,0:0:0:0:
356,37,26042,2,0,P|319:40|285:67,1,72
273,85,26265,1,0,0:0:0:0:
270,115,26339,1,0,0:0:0:0:
418,212,26488,1,0,0:0:0:0:
345,111,26636,1,0,0:0:0:0:
298,296,26785,1,0,0:0:0:0:
178,120,26933,5,0,0:0:0:0:
111,322,27082,2,0,L|115:275,1,36
147,46,27230,2,0,P|196:42|233:65,1,72
241,67,27453,1,0,0:0:0:0:
255,94,27527,1,0,0:0:0:0:
156,220,27676,1,0,0:0:0:0:
156,220,27750,1,0,0:0:0:0:
156,220,27824,1,0,0:0:0:0:
64,62,27973,1,0,0:0:0:0:
309,206,28121,5,0,0:0:0:0:
432,65,28270,2,0,L|416:114,1,36
323,285,28418,2,0,P|274:277|243:247,1,72
239,240,28641,1,0,0:0:0:0:
231,210,28715,1,0,0:0:0:0:
455,228,28864,1,0,0:0:0:0:
455,228,28938,1,0,0:0:0:0:
455,228,29012,1,0,0:0:0:0:
265,362,29161,1,0,0:0:0:0:
243,130,29309,5,0,0:0:0:0:
81,48,29458,2,0,L|125:55,1,36
330,75,29606,2,0,P|374:96|394:134,1,72
394,143,29829,1,0,0:0:0:0:
395,174,29903,1,0,0:0:0:0:
208,55,30052,1,0,0:0:0:0:
202,45,30126,1,0,0:0:0:0:
196,36,30200,1,0,0:0:0:0:
323,247,30349,1,0,0:0:0:0:
70,195,30497,5,0,0:0:0:0:
184,252,30646,5,0,0:0:0:0:
212,273,30720,1,0,0:0:0:0:
241,295,30794,1,0,0:0:0:0:
161,171,30943,5,0,0:0:0:0:
214,176,31017,1,0,0:0:0:0:
268,184,31091,1,0,0:0:0:0:
103,118,31240,5,0,0:0:0:0:
175,95,31315,1,0,0:0:0:0:
246,73,31389,2,0,P|270:63|291:49,1,36
467,106,31537,2,0,P|445:93|429:75,1,36
358,30,31686,6,0,P|363:112|337:243,1,215.999993408203
179,214,32131,1,0,0:0:0:0:
303,316,32280,1,0,0:0:0:0:
335,329,32354,1,0,0:0:0:0:
382,335,32428,1,0,0:0:0:0:
439,321,32502,1,0,0:0:0:0:
493,275,32577,2,0,P|503:248|506:211,1,53.9999983520508
286,129,32725,2,0,P|276:156|273:192,1,53.9999983520508
374,220,32874,5,0,0:0:0:0:
81,108,33022,2,0,L|200:92,1,107.999996704102
189,202,33319,1,0,0:0:0:0:
157,208,33394,1,0,0:0:0:0:
125,214,33468,1,0,0:0:0:0:
347,112,33616,1,0,0:0:0:0:
382,113,33690,1,0,0:0:0:0:
425,129,33764,1,0,0:0:0:0:
471,166,33838,1,0,0:0:0:0:
507,225,33913,2,0,P|502:258|490:291,1,53.9999983520508
263,298,34062,6,0,P|302:309|368:296,1,107.999996704102
182,252,34359,1,0,0:0:0:0:
101,355,34507,1,0,0:0:0:0:
83,318,34581,1,0,0:0:0:0:
84,278,34655,1,0,0:0:0:0:
344,162,34804,1,0,0:0:0:0:
296,165,34878,1,0,0:0:0:0:
240,168,34952,1,0,0:0:0:0:
176,172,35026,1,0,0:0:0:0:
105,177,35101,2,0,L|50:180,1,53.9999983520508
210,43,35250,5,0,0:0:0:0:
332,236,35398,2,0,L|440:252,1,107.999996704102
501,111,35695,1,0,0:0:0:0:
501,111,35770,1,0,0:0:0:0:
501,111,35844,1,0,0:0:0:0:
247,248,35993,1,0,0:0:0:0:
213,270,36067,1,0,0:0:0:0:
163,286,36141,1,0,0:0:0:0:
96,284,36215,1,0,0:0:0:0:
21,258,36290,2,0,P|8:227|1:196,1,53.9999983520508
323,157,36438,6,0,B|265:168|265:168|205:158,1,107.999996704102
117,70,36735,1,0,0:0:0:0:
339,54,36884,1,0,0:0:0:0:
377,62,36958,1,0,0:0:0:0:
410,87,37032,1,0,0:0:0:0:
492,312,37181,1,0,0:0:0:0:
443,304,37255,1,0,0:0:0:0:
388,295,37329,1,0,0:0:0:0:
323,286,37403,1,0,0:0:0:0:
252,276,37478,2,0,L|196:266,1,53.9999983520508
444,172,37626,5,0,0:0:0:0:
258,85,37775,2,0,P|256:129|283:188,1,107.999996704102
350,319,38072,1,0,0:0:0:0:
350,319,38146,1,0,0:0:0:0:
350,319,38220,6,0,L|342:375,1,53.9999983520508
392,254,38369,2,0,L|385:309,1,53.9999983520508
444,172,38517,2,0,L|435:240,1,53.9999983520508
509,69,38666,2,0,L|498:148,1,53.9999983520508
244,165,38814,5,0,0:0:0:0:
484,262,38963,1,0,0:0:0:0:
416,75,39111,1,0,0:0:0:0:
288,281,39260,1,0,0:0:0:0:
444,172,39408,1,0,0:0:0:0:
274,83,39557,1,0,0:0:0:0:
274,83,39631,1,0,0:0:0:0:
274,83,39705,1,0,0:0:0:0:
367,299,39854,1,0,0:0:0:0:
471,84,40002,5,0,0:0:0:0:
166,140,40151,1,0,0:0:0:0:
122,136,40225,1,0,0:0:0:0:
85,124,40299,2,0,P|60:108|44:88,1,53.9999983520508
346,41,40448,5,0,0:0:0:0:
357,89,40522,1,0,0:0:0:0:
359,136,40596,2,0,P|349:169|336:190,1,53.9999983520508
187,42,40745,5,0,0:0:0:0:
170,90,40819,1,0,0:0:0:0:
166,140,40893,1,0,0:0:0:0:
179,190,40967,1,0,0:0:0:0:
202,236,41042,1,0,0:0:0:0:
205,287,41116,1,0,0:0:0:0:
141,347,41191,5,0,0:0:0:0:
394,283,41339,1,0,0:0:0:0:
394,283,41488,6,0,L|392:329,1,45
402,290,41785,2,0,L|400:336,1,46.7999997143555
410,297,42082,2,0,L|408:345,1,48.6000011865235
252,122,42379,5,0,0:0:0:0:
252,122,42527,1,0,0:0:0:0:
321,47,42676,6,0,P|338:66|349:90,1,45
280,218,42973,2,0,P|254:223|228:220,1,45
153,98,43270,2,0,P|161:73|176:51,1,45
435,88,43567,6,0,L|438:65,2,22.5
443,170,43864,2,0,L|436:220,1,46.7999997143555
451,184,44161,2,0,L|444:234,1,48.6000011865235
459,198,44458,2,0,L|452:249,1,50.4000006152344
139,277,44755,5,0,0:0:0:0:
134,265,44829,1,0,0:0:0:0:
130,254,44903,1,0,0:0:0:0:
127,242,44977,1,0,0:0:0:0:
125,229,45052,6,0,P|133:204|148:182,1,45
224,91,45349,2,0,P|241:110|253:134,1,45
294,245,45646,2,0,P|268:250|241:248,1,45
407,110,45943,5,0,0:0:0:0:
407,110,46092,1,0,0:0:0:0:
435,226,46240,6,0,L|428:271,1,45
442,233,46537,2,0,L|435:278,1,46.7999997143555
449,240,46834,2,0,L|442:288,1,48.6000011865235
165,198,47131,5,0,0:0:0:0:
165,198,47280,1,0,0:0:0:0:
247,297,47428,6,0,P|221:282|199:259,1,45
35,223,47725,2,0,P|60:207|91:200,1,45
232,90,48022,2,0,P|232:120|223:150,1,45
323,216,48319,6,0,P|323:227|323:238,2,22.5
503,100,48616,2,0,P|483:111|462:119,1,45
272,14,48913,2,0,P|295:14|315:23,1,45
374,116,49210,5,0,0:0:0:0:
374,116,49359,1,0,0:0:0:0:
132,146,49507,5,0,0:0:0:0:
132,146,49656,1,0,0:0:0:0:
168,278,49804,6,0,L|161:323,1,45
175,285,50101,2,0,L|168:330,1,46.7999997143555
182,292,50398,2,0,L|175:340,1,48.6000011865235
412,175,50695,6,0,L|425:100,2,67.5000025749208
327,327,51290,1,0,0:0:0:0:
230,182,51587,1,0,0:0:0:0:
230,182,51735,1,0,0:0:0:0:
230,182,52181,5,0,0:0:0:0:
285,51,52478,2,0,L|358:49,2,67.5000025749208
171,66,52923,1,0,0:0:0:0:
76,129,53072,1,0,0:0:0:0:
76,129,53146,6,0,L|61:240,1,101.250003862381
159,322,53517,1,0,0:0:0:0:
159,322,53666,1,0,0:0:0:0:
298,319,53963,1,0,0:0:0:0:
298,319,54111,1,0,0:0:0:0:
424,210,54260,5,0,0:0:0:0:
434,201,54334,1,0,0:0:0:0:
442,193,54408,1,0,0:0:0:0:
451,184,54482,1,0,0:0:0:0:
458,174,54557,6,0,P|462:148|449:98,1,67.5000025749208
287,16,54780,2,0,L|261:34,1,16.8750006437302
263,44,54854,2,0,P|255:77|262:110,2,67.5000025749208
329,79,55299,1,0,0:0:0:0:
204,304,55448,5,0,0:0:0:0:
75,171,55596,1,0,0:0:0:0:
225,137,55745,1,0,0:0:0:0:
70,294,55894,1,0,0:0:0:0:
77,302,55968,1,0,0:0:0:0:
77,302,56042,1,0,0:0:0:0:
273,210,56191,1,0,0:0:0:0:
94,89,56339,1,0,0:0:0:0:
204,304,56488,1,0,0:0:0:0:
204,304,56562,1,0,0:0:0:0:
204,304,56636,6,0,B|224:340|224:340|226:379,1,67.5000025749208
225,137,56933,1,0,0:0:0:0:
394,290,57082,1,0,0:0:0:0:
394,290,57156,1,0,0:0:0:0:
394,290,57230,1,0,0:0:0:0:
416,139,57379,6,0,L|421:109,4,16.8750006437302
205,61,57676,1,0,0:0:0:0:
205,61,57750,1,0,0:0:0:0:
205,61,57824,6,0,L|121:61,1,67.5000025749208
100,63,58047,1,0,0:0:0:0:
63,63,58121,1,0,0:0:0:0:
179,191,58270,1,0,0:0:0:0:
295,24,58418,1,0,0:0:0:0:
92,140,58567,1,0,0:0:0:0:
294,258,58715,2,0,P|329:277|368:278,1,67.5000025749208
484,105,59012,5,0,0:0:0:0:
491,123,59087,1,0,0:0:0:0:
492,140,59161,1,0,0:0:0:0:
192,260,59309,1,0,0:0:0:0:
197,223,59383,1,0,0:0:0:0:
215,190,59457,1,0,0:0:0:0:
240,164,59531,1,0,0:0:0:0:
273,148,59606,1,0,0:0:0:0:
176,22,59755,1,0,0:0:0:0:
60,106,59903,5,0,0:0:0:0:
58,152,59977,1,0,0:0:0:0:
58,199,60051,1,0,0:0:0:0:
58,247,60125,1,0,0:0:0:0:
116,319,60200,6,0,B|202:346|202:346|254:340,1,135
344,175,60720,1,0,0:0:0:0:
344,175,60795,6,0,P|345:152|345:175,1,67.5000025749208
476,284,61240,6,0,L|319:316,1,135.000005149842
131,219,61686,1,0,0:0:0:0:
131,219,61760,6,0,B|109:135|115:57|115:57|183:32|183:32|237:74|237:74|223:113,1,337.5
363,11,62280,5,0,0:0:0:0:
361,55,62354,1,0,0:0:0:0:
359,100,62428,1,0,0:0:0:0:
357,145,62502,1,0,0:0:0:0:
402,219,62577,6,0,P|394:262|363:294,1,90
200,225,63022,2,0,B|240:209|272:225|272:225|304:241|332:230,1,135
341,60,64210,5,0,0:0:0:0:
415,111,64359,1,0,0:0:0:0:
333,149,64507,1,0,0:0:0:0:
427,4,64656,5,0,0:0:0:0:
415,209,64804,1,0,0:0:0:0:
243,96,64953,2,0,B|203:69|203:69|191:31|191:31|146:2,1,135
131,154,65695,1,0,0:0:0:0:
131,154,65844,1,0,0:0:0:0:
100,287,66290,5,0,0:0:0:0:
170,310,66438,1,0,0:0:0:0:
244,294,66587,1,0,0:0:0:0:
357,135,66735,5,0,0:0:0:0:
406,203,66883,1,0,0:0:0:0:
414,287,67032,1,0,0:0:0:0:
380,365,67181,1,0,0:0:0:0:
244,294,67329,6,0,L|223:198,1,90
203,97,67775,2,0,B|213:124|247:135|247:135|281:147|298:186,1,135
371,326,68666,5,0,0:0:0:0:
371,326,68963,5,0,0:0:0:0:
397,257,69111,1,0,0:0:0:0:
385,182,69260,1,0,0:0:0:0:
187,272,69408,5,0,0:0:0:0:
310,258,69557,1,0,0:0:0:0:
88,197,69705,6,0,L|75:335,2,135
431,23,71042,5,0,0:0:0:0:
431,23,71339,5,0,0:0:0:0:
457,92,71487,1,0,0:0:0:0:
445,167,71636,1,0,0:0:0:0:
243,100,71785,5,0,0:0:0:0:
375,87,71933,1,0,0:0:0:0:
342,316,72082,6,0,B|296:327|296:327|253:324,1,90
354,239,72527,2,0,P|409:273|415:338,1,135
156,112,73715,5,0,0:0:0:0:
179,198,73864,1,0,0:0:0:0:
92,175,74012,1,0,0:0:0:0:
237,142,74161,5,0,0:0:0:0:
120,256,74310,1,0,0:0:0:0:
81,95,74458,2,0,P|126:43|190:44,1,135
331,127,75200,1,0,0:0:0:0:
331,127,75349,1,0,0:0:0:0:
319,291,75795,5,0,0:0:0:0:
319,291,76092,5,0,0:0:0:0:
250,230,76240,1,0,0:0:0:0:
232,321,76389,1,0,0:0:0:0:
337,200,76537,1,0,0:0:0:0:
337,200,76686,1,0,0:0:0:0:
465,332,76834,5,0,0:0:0:0:
461,256,76982,1,0,0:0:0:0:
457,180,77131,1,0,0:0:0:0:
475,319,77280,5,0,0:0:0:0:
471,243,77428,1,0,0:0:0:0:
467,167,77577,1,0,0:0:0:0:
399,98,77725,5,0,0:0:0:0:
284,225,77874,1,0,0:0:0:0:
294,125,78022,1,0,0:0:0:0:
384,225,78170,5,0,0:0:0:0:
303,31,78319,1,0,0:0:0:0:
512,54,78468,1,0,0:0:0:0:
133,86,78616,5,0,0:0:0:0:
224,59,78765,1,0,0:0:0:0:
145,99,78913,1,0,0:0:0:0:
236,72,79062,1,0,0:0:0:0:
318,206,79210,5,0,0:0:0:0:
318,206,79359,1,0,0:0:0:0:
318,206,79507,1,0,0:0:0:0:
318,206,79656,1,0,0:0:0:0:
318,206,79804,1,0,0:0:0:0:
318,206,79953,1,0,0:0:0:0:
318,206,80101,1,0,0:0:0:0:
318,206,80250,1,0,0:0:0:0:
318,206,80398,5,0,0:0:0:0:
283,279,80547,1,0,0:0:0:0:
192,318,80695,1,0,0:0:0:0:
76,299,80844,1,0,0:0:0:0:
32,170,80993,1,0,0:0:0:0:
175,220,81141,1,0,0:0:0:0:
310,148,81290,1,0,0:0:0:0:
369,7,81438,1,0,0:0:0:0:
369,7,81587,5,0,0:0:0:0:
468,90,82478,6,0,L|469:63,3,22.5
477,118,82775,2,0,L|472:240,1,90
321,193,83072,6,0,L|276:198,1,45
204,208,83220,1,0,0:0:0:0:
181,109,83295,2,0,L|225:118,1,45
298,122,83443,1,0,0:0:0:0:
298,122,83517,1,0,0:0:0:0:
112,34,83666,5,0,0:0:0:0:
84,98,83740,1,0,0:0:0:0:
76,170,83814,1,0,0:0:0:0:
92,240,83888,1,0,0:0:0:0:
128,302,83963,6,0,P|182:322|240:314,1,116.999994644165
414,209,84260,1,0,0:0:0:0:
205,132,84408,2,0,P|185:186|193:244,1,116.999994644165
282,74,84705,1,0,0:0:0:0:
102,257,84854,1,0,0:0:0:0:
112,296,84928,1,0,0:0:0:0:
149,336,85002,1,0,0:0:0:0:
210,364,85076,1,0,0:0:0:0:
284,341,85151,6,0,P|332:309|360:258,1,116.999994644165
389,89,85448,1,0,0:0:0:0:
257,257,85596,1,0,0:0:0:0:
457,178,85745,5,0,0:0:0:0:
474,176,85819,1,0,0:0:0:0:
491,162,85894,1,0,0:0:0:0:
503,132,85968,1,0,0:0:0:0:
492,92,86042,1,0,0:0:0:0:
448,67,86116,1,0,0:0:0:0:
389,89,86191,1,0,0:0:0:0:
312,100,86265,1,0,0:0:0:0:
229,73,86339,6,0,P|176:96|140:142,1,116.999994644165
257,257,86636,1,0,0:0:0:0:
417,179,86785,2,0,L|448:66,1,116.999994644165
198,304,87082,1,0,0:0:0:0:
297,144,87230,1,0,0:0:0:0:
330,121,87304,1,0,0:0:0:0:
385,115,87378,1,0,0:0:0:0:
445,144,87452,1,0,0:0:0:0:
490,209,87527,6,0,P|504:264|490:321,1,116.999994644165
425,49,87824,1,0,0:0:0:0:
375,262,87973,1,0,0:0:0:0:
195,81,88121,5,0,0:0:0:0:
191,99,88195,1,0,0:0:0:0:
191,123,88269,1,0,0:0:0:0:
195,153,88343,1,0,0:0:0:0:
207,192,88418,1,0,0:0:0:0:
228,236,88492,1,0,0:0:0:0:
263,282,88566,1,0,0:0:0:0:
316,328,88640,1,0,0:0:0:0:
390,348,88715,6,0,P|446:356|502:336,1,116.999994644165
352,180,89012,1,0,0:0:0:0:
162,349,89161,2,0,L|176:232,1,116.999994644165
293,104,89458,1,0,0:0:0:0:
29,178,89606,1,0,0:0:0:0:
69,182,89680,1,0,0:0:0:0:
124,187,89754,1,0,0:0:0:0:
192,194,89828,1,0,0:0:0:0:
269,201,89903,5,0,0:0:0:0:
193,35,90052,1,0,0:0:0:0:
40,258,90200,2,0,P|54:313|94:356,1,116.999994644165
414,279,90497,5,0,0:0:0:0:
431,277,90571,1,0,0:0:0:0:
448,263,90645,1,0,0:0:0:0:
460,233,90720,1,0,0:0:0:0:
449,193,90794,1,0,0:0:0:0:
405,168,90868,1,0,0:0:0:0:
346,190,90942,1,0,0:0:0:0:
269,201,91017,1,0,0:0:0:0:
186,174,91092,5,0,0:0:0:0:
341,107,91240,1,0,0:0:0:0:
321,274,91389,1,0,0:0:0:0:
244,94,91537,1,0,0:0:0:0:
227,53,91611,1,0,0:0:0:0:
193,23,91685,1,0,0:0:0:0:
374,219,91834,1,0,0:0:0:0:
415,235,91908,1,0,0:0:0:0:
460,233,91982,1,0,0:0:0:0:
408,57,92131,1,0,0:0:0:0:
196,255,92280,5,0,0:0:0:0:
179,251,92354,1,0,0:0:0:0:
162,248,92428,1,0,0:0:0:0:
146,245,92502,1,0,0:0:0:0:
137,202,92577,5,0,0:0:0:0:
166,195,92651,1,0,0:0:0:0:
196,189,92725,1,0,0:0:0:0:
224,184,92799,1,0,0:0:0:0:
237,129,92874,5,0,0:0:0:0:
198,119,92948,1,0,0:0:0:0:
159,111,93022,1,0,0:0:0:0:
122,105,93096,1,0,0:0:0:0:
68,50,93171,5,0,0:0:0:0:
136,32,93245,1,0,0:0:0:0:
204,18,93319,1,0,0:0:0:0:
273,8,93393,1,0,0:0:0:0:
343,1,93468,6,0,P|395:33|410:85,1,116.999994644165
329,242,93765,1,0,0:0:0:0:
333,81,93913,1,0,0:0:0:0:
483,227,94062,2,0,L|425:242,1,58.4999973220826
233,144,94210,2,0,L|290:153,1,58.4999973220826
377,329,94359,1,0,0:0:0:0:
335,324,94433,1,0,0:0:0:0:
282,320,94507,1,0,0:0:0:0:
214,314,94581,1,0,0:0:0:0:
133,306,94656,6,0,P|80:281|53:231,1,116.999994644165
88,28,94953,1,0,0:0:0:0:
249,229,95101,1,0,0:0:0:0:
106,168,95250,5,0,0:0:0:0:
124,172,95324,1,0,0:0:0:0:
146,177,95398,1,0,0:0:0:0:
177,177,95472,1,0,0:0:0:0:
214,163,95547,1,0,0:0:0:0:
250,130,95621,1,0,0:0:0:0:
290,83,95695,1,0,0:0:0:0:
362,58,95769,1,0,0:0:0:0:
446,81,95844,6,0,P|493:112|512:166,1,116.999994644165
217,22,96141,1,0,0:0:0:0:
313,315,96290,2,0,L|333:199,1,116.999994644165
446,81,96587,1,0,0:0:0:0:
173,111,96735,1,0,0:0:0:0:
132,122,96809,1,0,0:0:0:0:
91,158,96883,1,0,0:0:0:0:
62,218,96957,1,0,0:0:0:0:
70,299,97032,6,0,P|96:349|148:374,1,116.999994644165
304,356,97329,1,0,0:0:0:0:
175,194,97478,1,0,0:0:0:0:
151,297,97626,5,0,0:0:0:0:
168,295,97700,1,0,0:0:0:0:
194,289,97774,1,0,0:0:0:0:
227,275,97848,1,0,0:0:0:0:
263,240,97923,1,0,0:0:0:0:
299,188,97997,1,0,0:0:0:0:
369,158,98071,1,0,0:0:0:0:
451,193,98145,1,0,0:0:0:0:
373,267,98220,5,0,0:0:0:0:
273,93,98369,1,0,0:0:0:0:
209,371,98517,1,0,0:0:0:0:
369,158,98666,1,0,0:0:0:0:
135,135,98815,5,0,0:0:0:0:
91,143,98889,1,0,0:0:0:0:
55,170,98963,1,0,0:0:0:0:
35,210,99037,1,0,0:0:0:0:
35,254,99112,1,0,0:0:0:0:
184,282,99260,1,0,0:0:0:0:
103,45,99408,1,0,0:0:0:0:
103,45,99483,1,0,0:0:0:0:
103,45,99557,6,0,L|219:66,1,116.999994644165
481,197,99854,2,0,L|459:142,1,58.4999973220826
481,27,100002,5,0,0:0:0:0:
437,36,100076,1,0,0:0:0:0:
393,46,100151,2,0,L|327:62,1,58.4999973220826
104,151,100299,6,0,L|94:191,1,29.2499986610413
147,160,100374,2,0,L|137:200,1,29.2499986610413
191,170,100448,2,0,L|181:210,1,29.2499986610413
235,179,100522,2,0,L|225:219,1,29.2499986610413
280,192,100596,5,0,0:0:0:0:
153,335,100745,1,0,0:0:0:0:
104,151,100894,1,0,0:0:0:0:
268,303,101042,1,0,0:0:0:0:
268,303,101116,1,0,0:0:0:0:
268,303,101191,1,0,0:0:0:0:
54,369,101339,1,0,0:0:0:0:
54,369,101413,1,0,0:0:0:0:
54,369,101488,1,0,0:0:0:0:
187,224,101636,1,0,0:0:0:0:
187,224,101710,1,0,0:0:0:0:
187,224,101785,6,0,P|216:213|249:213,1,58.4999973220826
438,242,101933,2,0,P|466:254|489:278,1,58.4999973220826
317,43,102082,6,0,P|345:55|368:79,1,58.4999973220826
481,232,102230,2,0,P|492:260|492:293,1,58.4999973220826
248,161,102379,5,0,0:0:0:0:
196,135,102453,1,0,0:0:0:0:
140,147,102527,1,0,0:0:0:0:
104,191,102601,1,0,0:0:0:0:
103,249,102676,1,0,0:0:0:0:
138,294,102750,1,0,0:0:0:0:
193,308,102824,1,0,0:0:0:0:
245,284,102898,1,0,0:0:0:0:
187,224,102973,5,0,0:0:0:0:
32,305,104755,5,0,0:0:0:0:
118,121,105349,1,0,0:0:0:0:
323,106,106240,1,0,0:0:0:0:
323,106,106389,1,0,0:0:0:0:
323,106,106537,6,0,P|344:168|312:226,2,135
264,161,107725,1,0,0:0:0:0:
264,161,109804,5,0,0:0:0:0:
264,161,109953,1,0,0:0:0:0:
132,75,110101,5,0,0:0:0:0:
122,147,110249,1,0,0:0:0:0:
116,221,110398,1,0,0:0:0:0:
110,295,110546,1,0,0:0:0:0:
143,88,110695,5,0,0:0:0:0:
133,160,110843,1,0,0:0:0:0:
127,234,110992,1,0,0:0:0:0:
121,308,111140,1,0,0:0:0:0:
205,350,111290,5,0,0:0:0:0:
239,340,111438,1,0,0:0:0:0:
284,310,111587,1,0,0:0:0:0:
319,247,111735,1,0,0:0:0:0:
310,157,111884,1,0,0:0:0:0:
228,87,112032,1,0,0:0:0:0:
102,99,112181,1,0,0:0:0:0:
1,188,112329,1,0,0:0:0:0:
13,331,112478,5,0,0:0:0:0:
