osu file format v14

[General]
AudioFilename: audio.mp3
AudioLeadIn: 0
PreviewTime: 96720
Countdown: 0
SampleSet: Normal
StackLeniency: 1
Mode: 1
LetterboxInBreaks: 0
WidescreenStoryboard: 1

[Editor]
Bookmarks: 67920,87120
DistanceSpacing: 0.8
BeatDivisor: 2
GridSize: 32
TimelineZoom: 2.799999

[Metadata]
Title:Journey
TitleUnicode:Journey
Artist:ARForest
ArtistUnicode:ARForest
Creator:Vulkin
Version:duski's Adventure
Source:Lanota
Tags:video game instrumental electronic orchestra artcore Noxy Games Arcaea lowiro Groove Coaster 4EX Infinity Highway Taito Corporation osu! fa featured artist duski
BeatmapID:2673663
BeatmapSetID:1275784

[Difficulty]
HPDrainRate:6
CircleSize:7
OverallDifficulty:6
ApproachRate:10
SliderMultiplier:1.4
SliderTickRate:1

[Events]
//Background and Video events
0,0,"20181228_204641.jpg",0,0
//Break Periods
//Storyboard Layer 0 (Background)
//Storyboard Layer 1 (Fail)
//Storyboard Layer 2 (Pass)
//Storyboard Layer 3 (Foreground)
//Storyboard Layer 4 (Overlay)
//Storyboard Sound Samples

[TimingPoints]
720,300,4,1,0,50,1,0
720,-133.333333333333,4,1,0,50,0,0
10170,-117.647058823529,4,1,0,60,0,0
19770,-111.111111111111,4,1,0,70,0,0
29370,-105.263157894737,4,1,0,80,0,0
38820,-104.166666666667,4,1,0,80,0,0
38970,-102.040816326531,4,1,0,80,0,0
39120,-100,4,1,0,80,0,0
39270,-100,4,1,0,60,0,0
48570,-100,4,1,0,70,0,0
56970,-100,4,1,0,80,0,0
57270,-100,4,1,0,70,0,0
77445,-100,4,1,0,80,0,0
95370,-100,4,1,0,70,0,0
96570,-100,4,1,0,90,0,0
96720,-90.9090909090909,4,1,0,90,0,1
115920,-90.9090909090909,4,1,0,90,0,0
116070,-100,4,1,0,60,0,0
116295,-105.263157894737,4,1,0,60,0,0
116445,-111.111111111111,4,1,0,60,0,0
117045,-125,4,1,0,60,0,0

[HitObjects]
256,192,720,5,8,0:0:0:0:
256,192,1020,1,0,0:0:0:0:
256,192,1170,1,0,0:0:0:0:
256,192,1320,1,8,0:0:0:0:
256,192,1920,1,8,0:0:0:0:
256,192,2220,1,0,0:0:0:0:
256,192,2370,1,8,0:0:0:0:
256,192,2520,1,8,0:0:0:0:
256,192,2820,1,8,0:0:0:0:
256,192,3120,1,0,0:0:0:0:
256,192,3420,1,0,0:0:0:0:
256,192,3570,1,8,0:0:0:0:
256,192,3720,1,0,0:0:0:0:
256,192,4020,1,8,0:0:0:0:
256,192,4320,1,8,0:0:0:0:
256,192,4620,1,0,0:0:0:0:
256,192,4920,1,0,0:0:0:0:
256,192,5220,1,8,0:0:0:0:
256,192,5520,1,8,0:0:0:0:
256,192,5820,1,0,0:0:0:0:
256,192,5970,1,0,0:0:0:0:
256,192,6120,1,8,0:0:0:0:
256,192,6420,1,8,0:0:0:0:
256,192,6720,1,0,0:0:0:0:
256,192,7020,1,8,0:0:0:0:
256,192,7170,1,8,0:0:0:0:
256,192,7320,1,0,0:0:0:0:
256,192,7620,1,8,0:0:0:0:
256,192,7920,1,0,0:0:0:0:
256,192,8220,1,0,0:0:0:0:
256,192,8370,1,8,0:0:0:0:
256,192,8520,1,8,0:0:0:0:
256,192,8820,1,8,0:0:0:0:
256,192,9120,1,8,0:0:0:0:
256,192,9420,1,0,0:0:0:0:
256,192,9720,1,0,0:0:0:0:
256,192,10020,1,8,0:0:0:0:
256,192,10320,1,0,0:0:0:0:
256,192,10620,1,0,0:0:0:0:
256,192,10770,1,0,0:0:0:0:
256,192,10920,1,8,0:0:0:0:
256,192,11220,1,0,0:0:0:0:
256,192,11520,1,8,0:0:0:0:
256,192,11820,1,8,0:0:0:0:
256,192,11970,1,8,0:0:0:0:
256,192,12120,1,8,0:0:0:0:
256,192,12420,1,8,0:0:0:0:
256,192,12720,1,0,0:0:0:0:
256,192,13020,1,0,0:0:0:0:
256,192,13170,1,0,0:0:0:0:
256,192,13320,1,8,0:0:0:0:
256,192,13620,1,8,0:0:0:0:
256,192,13920,1,0,0:0:0:0:
256,192,14220,1,0,0:0:0:0:
256,192,14370,1,8,0:0:0:0:
256,192,14520,1,0,0:0:0:0:
256,192,14670,1,8,0:0:0:0:
256,192,14820,1,8,0:0:0:0:
256,192,14970,1,0,0:0:0:0:
256,192,15120,1,8,0:0:0:0:
256,192,15420,1,0,0:0:0:0:
256,192,15570,1,8,0:0:0:0:
256,192,15720,1,8,0:0:0:0:
256,192,16020,1,8,0:0:0:0:
256,192,16320,1,0,0:0:0:0:
256,192,16620,1,0,0:0:0:0:
256,192,16770,1,0,0:0:0:0:
256,192,16920,1,8,0:0:0:0:
256,192,17220,1,8,0:0:0:0:
256,192,17520,1,0,0:0:0:0:
256,192,17820,1,0,0:0:0:0:
256,192,17970,1,8,0:0:0:0:
256,192,18120,1,0,0:0:0:0:
256,192,18420,1,0,0:0:0:0:
256,192,18720,1,8,0:0:0:0:
256,192,19020,1,8,0:0:0:0:
256,192,19320,1,0,0:0:0:0:
256,192,19620,1,8,0:0:0:0:
256,192,19920,1,4,0:0:0:0:
256,192,20220,1,0,0:0:0:0:
256,192,20370,1,8,0:0:0:0:
256,192,20820,1,0,0:0:0:0:
256,192,21120,1,8,0:0:0:0:
256,192,21420,1,8,0:0:0:0:
256,192,21570,1,0,0:0:0:0:
256,192,21720,2,8,L|196:192,6,31.4999990386963
256,192,22320,1,0,0:0:0:0:
256,192,22620,1,8,0:0:0:0:
256,192,22770,1,0,0:0:0:0:
256,192,22920,1,0,0:0:0:0:
256,192,23070,1,0,0:0:0:0:
256,192,23220,1,8,0:0:0:0:
256,192,23520,1,0,0:0:0:0:
256,192,23670,1,8,0:0:0:0:
256,192,23820,1,0,0:0:0:0:
256,192,23970,1,8,0:0:0:0:
256,192,24120,1,0,0:0:0:0:
256,192,24420,1,8,0:0:0:0:
256,192,24720,1,4,0:0:0:0:
256,192,25020,1,8,0:0:0:0:
256,192,25170,1,0,0:0:0:0:
256,192,25620,1,8,0:0:0:0:
256,192,25920,1,8,0:0:0:0:
256,192,26220,2,8,L|225:192,8,31.4999990386963
256,192,27120,1,8,0:0:0:0:
256,192,27420,1,0,0:0:0:0:
256,192,27570,1,8,0:0:0:0:
256,192,27720,1,0,0:0:0:0:
256,192,28020,1,0,0:0:0:0:
256,192,28320,1,8,0:0:0:0:
256,192,28620,1,0,0:0:0:0:
256,192,28920,1,0,0:0:0:0:
256,192,29220,1,8,0:0:0:0:
256,192,29520,1,4,0:0:0:0:
256,192,29970,1,8,0:0:0:0:
256,192,30270,1,8,0:0:0:0:
256,192,30420,1,8,0:0:0:0:
256,192,30945,1,8,0:0:0:0:
256,192,31020,1,8,0:0:0:0:
256,192,31170,1,8,0:0:0:0:
256,192,31320,1,8,0:0:0:0:
256,192,31470,1,8,0:0:0:0:
256,192,31770,1,8,0:0:0:0:
256,192,31920,1,8,0:0:0:0:
256,192,32070,1,8,0:0:0:0:
256,192,32370,1,8,0:0:0:0:
256,192,32670,1,8,0:0:0:0:
256,192,32820,1,8,0:0:0:0:
256,192,33345,1,8,0:0:0:0:
256,192,33420,1,8,0:0:0:0:
256,192,33570,1,8,0:0:0:0:
256,192,33720,1,8,0:0:0:0:
256,192,33870,1,8,0:0:0:0:
256,192,33945,1,8,0:0:0:0:
256,192,34020,1,8,0:0:0:0:
256,192,34170,1,8,0:0:0:0:
256,192,34245,1,8,0:0:0:0:
256,192,34320,1,0,0:0:0:0:
256,192,34470,1,8,0:0:0:0:
256,192,34770,1,8,0:0:0:0:
256,192,35070,1,8,0:0:0:0:
256,192,35220,1,8,0:0:0:0:
256,192,35745,1,8,0:0:0:0:
256,192,35820,1,8,0:0:0:0:
256,192,35970,1,8,0:0:0:0:
256,192,36120,1,8,0:0:0:0:
256,192,36270,1,8,0:0:0:0:
256,192,36570,1,8,0:0:0:0:
256,192,36720,1,8,0:0:0:0:
256,192,36870,1,8,0:0:0:0:
256,192,37170,1,8,0:0:0:0:
256,192,37470,1,8,0:0:0:0:
256,192,37545,1,8,0:0:0:0:
256,192,37620,1,8,0:0:0:0:
256,192,37770,1,8,0:0:0:0:
256,192,38145,1,8,0:0:0:0:
256,192,38220,1,8,0:0:0:0:
256,192,38520,1,8,0:0:0:0:
256,192,38820,1,8,0:0:0:0:
256,192,38970,1,8,0:0:0:0:
256,192,39120,1,0,0:0:0:0:
256,192,39420,2,0,L|192:192,4,35
256,192,40020,1,8,0:0:0:0:
256,192,40170,1,0,0:0:0:0:
256,192,40245,1,8,0:0:0:0:
256,192,40320,1,0,0:0:0:0:
256,192,40770,1,8,0:0:0:0:
256,192,40920,1,0,0:0:0:0:
256,192,41220,1,8,0:0:0:0:
256,192,41295,1,8,0:0:0:0:
256,192,41370,1,8,0:0:0:0:
256,192,41445,1,8,0:0:0:0:
256,192,41520,1,0,0:0:0:0:
256,192,41670,1,8,0:0:0:0:
256,192,41820,1,0,0:0:0:0:
256,192,42120,1,0,0:0:0:0:
256,192,42270,1,8,0:0:0:0:
256,192,42320,1,8,0:0:0:0:
256,192,42370,1,8,0:0:0:0:
256,192,42420,1,0,0:0:0:0:
256,192,42570,1,0,0:0:0:0:
256,192,42720,1,0,0:0:0:0:
256,192,42795,1,8,0:0:0:0:
256,192,42870,1,8,0:0:0:0:
256,192,43020,1,8,0:0:0:0:
256,192,43170,1,8,0:0:0:0:
256,192,43245,1,8,0:0:0:0:
256,192,43320,1,0,0:0:0:0:
256,192,43470,1,8,0:0:0:0:
256,192,43545,1,0,0:0:0:0:
256,192,43620,1,0,0:0:0:0:
256,192,43770,1,8,0:0:0:0:
256,192,43920,1,0,0:0:0:0:
256,192,44370,1,0,0:0:0:0:
256,192,44520,1,8,0:0:0:0:
256,192,44820,1,8,0:0:0:0:
256,192,44970,1,0,0:0:0:0:
256,192,45045,1,0,0:0:0:0:
256,192,45120,1,8,0:0:0:0:
256,192,45195,1,0,0:0:0:0:
256,192,45570,1,0,0:0:0:0:
256,192,45720,1,8,0:0:0:0:
256,192,46020,1,8,0:0:0:0:
256,192,46095,1,8,0:0:0:0:
256,192,46170,1,8,0:0:0:0:
256,192,46245,1,8,0:0:0:0:
256,192,46320,1,0,0:0:0:0:
256,192,46545,1,8,0:0:0:0:
256,192,46620,1,0,0:0:0:0:
256,192,46920,1,0,0:0:0:0:
256,192,47070,1,8,0:0:0:0:
256,192,47220,1,0,0:0:0:0:
256,192,47295,1,0,0:0:0:0:
256,192,47370,1,0,0:0:0:0:
256,192,47520,1,0,0:0:0:0:
256,192,47595,1,8,0:0:0:0:
256,192,47670,1,8,0:0:0:0:
256,192,47820,1,8,0:0:0:0:
256,192,47970,1,0,0:0:0:0:
256,192,48045,1,0,0:0:0:0:
256,192,48120,1,8,0:0:0:0:
256,192,48270,1,8,0:0:0:0:
256,192,48420,1,0,0:0:0:0:
256,192,48570,1,8,0:0:0:0:
256,192,48720,1,0,0:0:0:0:
256,192,48870,1,0,0:0:0:0:
256,192,49020,1,8,0:0:0:0:
256,192,49170,1,0,0:0:0:0:
256,192,49320,1,8,0:0:0:0:
256,192,49395,1,8,0:0:0:0:
256,192,49470,1,8,0:0:0:0:
256,192,49620,1,8,0:0:0:0:
256,192,49920,1,8,0:0:0:0:
256,192,49995,1,0,0:0:0:0:
256,192,50070,1,0,0:0:0:0:
256,192,50220,1,8,0:0:0:0:
256,192,50370,1,0,0:0:0:0:
256,192,50520,1,8,0:0:0:0:
256,192,50670,1,0,0:0:0:0:
256,192,50820,1,8,0:0:0:0:
256,192,50895,1,8,0:0:0:0:
256,192,50970,1,8,0:0:0:0:
256,192,51045,1,8,0:0:0:0:
256,192,51120,1,0,0:0:0:0:
256,192,51270,1,8,0:0:0:0:
256,192,51420,1,0,0:0:0:0:
256,192,51570,1,0,0:0:0:0:
256,192,51720,1,8,0:0:0:0:
256,192,51870,1,8,0:0:0:0:
256,192,51920,1,0,0:0:0:0:
256,192,51970,1,0,0:0:0:0:
256,192,52020,1,8,0:0:0:0:
256,192,52170,1,8,0:0:0:0:
256,192,52320,1,0,0:0:0:0:
256,192,52395,1,0,0:0:0:0:
256,192,52470,1,8,0:0:0:0:
256,192,52520,1,8,0:0:0:0:
256,192,52570,1,8,0:0:0:0:
256,192,52620,1,0,0:0:0:0:
256,192,52770,1,8,0:0:0:0:
256,192,52845,1,8,0:0:0:0:
256,192,52920,1,0,0:0:0:0:
256,192,53070,1,8,0:0:0:0:
256,192,53220,1,0,0:0:0:0:
256,192,53370,1,8,0:0:0:0:
256,192,53520,1,8,0:0:0:0:
256,192,53670,1,8,0:0:0:0:
256,192,53745,1,8,0:0:0:0:
256,192,53820,1,0,0:0:0:0:
256,192,53870,1,0,0:0:0:0:
256,192,53920,1,0,0:0:0:0:
256,192,53970,1,8,0:0:0:0:
256,192,54020,1,8,0:0:0:0:
256,192,54070,1,8,0:0:0:0:
256,192,54120,1,0,0:0:0:0:
256,192,54270,1,8,0:0:0:0:
256,192,54420,1,0,0:0:0:0:
256,192,54495,1,0,0:0:0:0:
256,192,54570,1,8,0:0:0:0:
256,192,54645,1,8,0:0:0:0:
256,192,54720,1,0,0:0:0:0:
256,192,54870,1,0,0:0:0:0:
256,192,55020,1,8,0:0:0:0:
256,192,55170,1,0,0:0:0:0:
256,192,55320,1,8,0:0:0:0:
256,192,55470,1,8,0:0:0:0:
256,192,55620,1,8,0:0:0:0:
256,192,55695,1,8,0:0:0:0:
256,192,55770,1,8,0:0:0:0:
256,192,55845,1,8,0:0:0:0:
256,192,55920,1,0,0:0:0:0:
256,192,56070,1,0,0:0:0:0:
256,192,56220,1,8,0:0:0:0:
256,192,56370,1,0,0:0:0:0:
256,192,56520,1,8,0:0:0:0:
256,192,56670,1,0,0:0:0:0:
256,192,56820,1,8,0:0:0:0:
256,192,56920,1,0,0:0:0:0:
256,192,57020,1,0,0:0:0:0:
256,192,57120,1,8,0:0:0:0:
256,192,58320,1,8,0:0:0:0:
256,192,58470,1,0,0:0:0:0:
256,192,58620,1,8,0:0:0:0:
256,192,58770,1,0,0:0:0:0:
256,192,58845,1,0,0:0:0:0:
256,192,58920,1,8,0:0:0:0:
256,192,59070,1,8,0:0:0:0:
256,192,59145,1,0,0:0:0:0:
256,192,59220,1,8,0:0:0:0:
256,192,59370,1,0,0:0:0:0:
256,192,59520,1,0,0:0:0:0:
256,192,59595,1,8,0:0:0:0:
256,192,59670,1,0,0:0:0:0:
256,192,59820,1,8,0:0:0:0:
256,192,59970,1,0,0:0:0:0:
256,192,60045,1,0,0:0:0:0:
256,192,60120,1,8,0:0:0:0:
256,192,60270,1,8,0:0:0:0:
256,192,60345,1,0,0:0:0:0:
256,192,60420,1,8,0:0:0:0:
256,192,60570,1,8,0:0:0:0:
256,192,60720,1,0,0:0:0:0:
256,192,60870,1,8,0:0:0:0:
256,192,61020,1,8,0:0:0:0:
256,192,61170,1,0,0:0:0:0:
256,192,61245,1,0,0:0:0:0:
256,192,61320,1,8,0:0:0:0:
256,192,61470,1,0,0:0:0:0:
256,192,61545,1,0,0:0:0:0:
256,192,61620,1,8,0:0:0:0:
256,192,61695,1,8,0:0:0:0:
256,192,61770,1,0,0:0:0:0:
256,192,61920,1,8,0:0:0:0:
256,192,62070,1,0,0:0:0:0:
256,192,62145,1,0,0:0:0:0:
256,192,62220,1,8,0:0:0:0:
256,192,62295,1,0,0:0:0:0:
256,192,62370,1,0,0:0:0:0:
256,192,62445,1,0,0:0:0:0:
256,192,62520,1,8,0:0:0:0:
256,192,62670,1,0,0:0:0:0:
256,192,62745,1,0,0:0:0:0:
256,192,62820,1,8,0:0:0:0:
256,192,62895,1,0,0:0:0:0:
256,192,62970,1,8,0:0:0:0:
256,192,63120,1,0,0:0:0:0:
256,192,63270,1,0,0:0:0:0:
256,192,63420,1,8,0:0:0:0:
256,192,63570,1,0,0:0:0:0:
256,192,63645,1,0,0:0:0:0:
256,192,63720,1,8,0:0:0:0:
256,192,63870,1,8,0:0:0:0:
256,192,63945,1,0,0:0:0:0:
256,192,64020,1,8,0:0:0:0:
256,192,64170,1,0,0:0:0:0:
256,192,64320,1,0,0:0:0:0:
256,192,64395,1,8,0:0:0:0:
256,192,64470,1,8,0:0:0:0:
256,192,64620,1,8,0:0:0:0:
256,192,64770,1,0,0:0:0:0:
256,192,64845,1,0,0:0:0:0:
256,192,64920,1,8,0:0:0:0:
256,192,65070,1,8,0:0:0:0:
256,192,65145,1,0,0:0:0:0:
256,192,65220,1,8,0:0:0:0:
256,192,65370,1,8,0:0:0:0:
256,192,65520,1,0,0:0:0:0:
256,192,65670,1,0,0:0:0:0:
256,192,65820,1,8,0:0:0:0:
256,192,65970,1,0,0:0:0:0:
256,192,66045,1,0,0:0:0:0:
256,192,66120,1,8,0:0:0:0:
256,192,66270,1,0,0:0:0:0:
256,192,66345,1,0,0:0:0:0:
256,192,66420,1,8,0:0:0:0:
256,192,66495,1,8,0:0:0:0:
256,192,66570,1,0,0:0:0:0:
256,192,66720,1,8,0:0:0:0:
256,192,66870,1,0,0:0:0:0:
256,192,66945,1,0,0:0:0:0:
256,192,67020,1,8,0:0:0:0:
256,192,67095,1,0,0:0:0:0:
256,192,67170,1,0,0:0:0:0:
256,192,67245,1,0,0:0:0:0:
256,192,67320,1,8,0:0:0:0:
256,192,67470,1,0,0:0:0:0:
256,192,67545,1,0,0:0:0:0:
256,192,67620,1,8,0:0:0:0:
256,192,67695,1,0,0:0:0:0:
256,192,67770,1,8,0:0:0:0:
256,192,67845,1,8,0:0:0:0:
256,192,67920,1,0,0:0:0:0:
256,192,68070,1,0,0:0:0:0:
256,192,68220,1,8,0:0:0:0:
256,192,68370,1,0,0:0:0:0:
256,192,68445,1,0,0:0:0:0:
256,192,68520,1,8,0:0:0:0:
256,192,68670,1,8,0:0:0:0:
256,192,68745,1,0,0:0:0:0:
256,192,68820,1,8,0:0:0:0:
256,192,68970,1,0,0:0:0:0:
256,192,69120,1,0,0:0:0:0:
256,192,69195,1,8,0:0:0:0:
256,192,69270,1,0,0:0:0:0:
256,192,69420,1,8,0:0:0:0:
256,192,69570,1,0,0:0:0:0:
256,192,69645,1,0,0:0:0:0:
256,192,69720,1,8,0:0:0:0:
256,192,69870,1,8,0:0:0:0:
256,192,69945,1,0,0:0:0:0:
256,192,70020,1,8,0:0:0:0:
256,192,70170,1,8,0:0:0:0:
256,192,70320,1,0,0:0:0:0:
256,192,70470,1,8,0:0:0:0:
256,192,70620,1,8,0:0:0:0:
256,192,70770,1,0,0:0:0:0:
256,192,70845,1,0,0:0:0:0:
256,192,70920,1,8,0:0:0:0:
256,192,71070,1,0,0:0:0:0:
256,192,71145,1,0,0:0:0:0:
256,192,71220,1,8,0:0:0:0:
256,192,71295,1,8,0:0:0:0:
256,192,71370,1,0,0:0:0:0:
256,192,71520,1,8,0:0:0:0:
256,192,71670,1,0,0:0:0:0:
256,192,71745,1,0,0:0:0:0:
256,192,71820,1,8,0:0:0:0:
256,192,71895,1,0,0:0:0:0:
256,192,71970,1,0,0:0:0:0:
256,192,72045,1,0,0:0:0:0:
256,192,72120,1,8,0:0:0:0:
256,192,72270,1,0,0:0:0:0:
256,192,72345,1,0,0:0:0:0:
256,192,72420,1,8,0:0:0:0:
256,192,72495,1,0,0:0:0:0:
256,192,72570,1,8,0:0:0:0:
256,192,72720,1,0,0:0:0:0:
256,192,72870,1,0,0:0:0:0:
256,192,73020,1,8,0:0:0:0:
256,192,73170,1,0,0:0:0:0:
256,192,73245,1,0,0:0:0:0:
256,192,73320,1,8,0:0:0:0:
256,192,73470,1,8,0:0:0:0:
256,192,73545,1,0,0:0:0:0:
256,192,73620,1,8,0:0:0:0:
256,192,73770,1,0,0:0:0:0:
256,192,73920,1,0,0:0:0:0:
256,192,73995,1,8,0:0:0:0:
256,192,74070,1,8,0:0:0:0:
256,192,74220,1,8,0:0:0:0:
256,192,74370,1,0,0:0:0:0:
256,192,74445,1,0,0:0:0:0:
256,192,74520,1,8,0:0:0:0:
256,192,74670,1,8,0:0:0:0:
256,192,74745,1,0,0:0:0:0:
256,192,74820,1,8,0:0:0:0:
256,192,74970,1,8,0:0:0:0:
256,192,75120,1,0,0:0:0:0:
256,192,75270,1,0,0:0:0:0:
256,192,75420,1,8,0:0:0:0:
256,192,75570,1,0,0:0:0:0:
256,192,75645,1,0,0:0:0:0:
256,192,75720,1,8,0:0:0:0:
256,192,75870,1,0,0:0:0:0:
256,192,75945,1,0,0:0:0:0:
256,192,76020,1,8,0:0:0:0:
256,192,76095,1,8,0:0:0:0:
256,192,76170,1,0,0:0:0:0:
256,192,76320,1,8,0:0:0:0:
256,192,76470,1,0,0:0:0:0:
256,192,76545,1,0,0:0:0:0:
256,192,76620,1,8,0:0:0:0:
256,192,76695,1,0,0:0:0:0:
256,192,76770,1,0,0:0:0:0:
256,192,76845,1,0,0:0:0:0:
256,192,76920,1,8,0:0:0:0:
256,192,77070,1,0,0:0:0:0:
256,192,77145,1,0,0:0:0:0:
256,192,77220,1,8,0:0:0:0:
256,192,77295,1,0,0:0:0:0:
256,192,77370,1,8,0:0:0:0:
256,192,77445,1,8,0:0:0:0:
256,192,77520,1,4,0:0:0:0:
256,192,77970,1,8,0:0:0:0:
256,192,78270,1,0,0:0:0:0:
256,192,78420,1,12,0:0:0:0:
256,192,78945,1,8,0:0:0:0:
256,192,79020,1,8,0:0:0:0:
256,192,79170,1,8,0:0:0:0:
256,192,79320,1,8,0:0:0:0:
256,192,79470,1,8,0:0:0:0:
256,192,79770,1,8,0:0:0:0:
256,192,79920,1,4,0:0:0:0:
256,192,80070,1,8,0:0:0:0:
256,192,80370,1,12,0:0:0:0:
256,192,80670,1,0,0:0:0:0:
256,192,80820,1,12,0:0:0:0:
256,192,81345,1,8,0:0:0:0:
256,192,81420,1,8,0:0:0:0:
256,192,81570,1,8,0:0:0:0:
256,192,81720,1,8,0:0:0:0:
256,192,81870,1,0,0:0:0:0:
256,192,81945,1,0,0:0:0:0:
256,192,82020,1,8,0:0:0:0:
256,192,82170,1,8,0:0:0:0:
256,192,82245,1,8,0:0:0:0:
256,192,82320,1,4,0:0:0:0:
256,192,82470,1,8,0:0:0:0:
256,192,82770,1,12,0:0:0:0:
256,192,83070,1,0,0:0:0:0:
256,192,83220,1,12,0:0:0:0:
256,192,83745,1,8,0:0:0:0:
256,192,83820,1,8,0:0:0:0:
256,192,83970,1,8,0:0:0:0:
256,192,84120,1,8,0:0:0:0:
256,192,84270,1,8,0:0:0:0:
256,192,84570,1,8,0:0:0:0:
256,192,84720,1,4,0:0:0:0:
256,192,84870,1,8,0:0:0:0:
256,192,85170,1,12,0:0:0:0:
256,192,85470,1,0,0:0:0:0:
256,192,85545,1,0,0:0:0:0:
256,192,85620,1,12,0:0:0:0:
256,192,85770,1,8,0:0:0:0:
256,192,86070,1,0,0:0:0:0:
256,192,86145,1,0,0:0:0:0:
256,192,86220,1,8,0:0:0:0:
256,192,86520,1,8,0:0:0:0:
256,192,86670,1,0,0:0:0:0:
256,192,86745,1,0,0:0:0:0:
256,192,86820,1,8,0:0:0:0:
256,192,86970,1,8,0:0:0:0:
256,192,87045,1,8,0:0:0:0:
256,192,87120,1,4,0:0:0:0:
256,192,87270,1,8,0:0:0:0:
256,192,87570,1,12,0:0:0:0:
256,192,87870,1,0,0:0:0:0:
256,192,88020,1,12,0:0:0:0:
256,192,88545,1,8,0:0:0:0:
256,192,88620,1,8,0:0:0:0:
256,192,88770,1,8,0:0:0:0:
256,192,88920,1,8,0:0:0:0:
256,192,89070,1,8,0:0:0:0:
256,192,89370,1,8,0:0:0:0:
256,192,89520,1,4,0:0:0:0:
256,192,89670,1,8,0:0:0:0:
256,192,89970,1,12,0:0:0:0:
256,192,90270,1,0,0:0:0:0:
256,192,90420,1,12,0:0:0:0:
256,192,90945,1,8,0:0:0:0:
256,192,91020,1,8,0:0:0:0:
256,192,91170,1,8,0:0:0:0:
256,192,91320,1,0,0:0:0:0:
256,192,91470,1,0,0:0:0:0:
256,192,91545,1,0,0:0:0:0:
256,192,91620,1,8,0:0:0:0:
256,192,91770,1,8,0:0:0:0:
256,192,91845,1,8,0:0:0:0:
256,192,91920,1,4,0:0:0:0:
256,192,92070,1,8,0:0:0:0:
256,192,92370,1,12,0:0:0:0:
256,192,92670,1,0,0:0:0:0:
256,192,92820,1,12,0:0:0:0:
256,192,93345,1,8,0:0:0:0:
256,192,93420,1,8,0:0:0:0:
256,192,93570,1,8,0:0:0:0:
256,192,93720,1,8,0:0:0:0:
256,192,93870,1,8,0:0:0:0:
256,192,94170,1,8,0:0:0:0:
256,192,94320,1,4,0:0:0:0:
256,192,94470,1,8,0:0:0:0:
256,192,94770,1,12,0:0:0:0:
256,192,95070,1,0,0:0:0:0:
256,192,95145,1,0,0:0:0:0:
256,192,95220,1,12,0:0:0:0:
256,192,95520,1,0,0:0:0:0:
256,192,95570,1,0,0:0:0:0:
256,192,95620,1,0,0:0:0:0:
256,192,95670,1,0,0:0:0:0:
256,192,95820,1,0,0:0:0:0:
256,192,95970,1,8,0:0:0:0:
256,192,96120,1,0,0:0:0:0:
256,192,96195,1,8,0:0:0:0:
256,192,96270,1,8,0:0:0:0:
256,192,96345,1,8,0:0:0:0:
256,192,96420,1,0,0:0:0:0:
256,192,96720,1,4,0:0:0:0:
256,192,96870,1,0,0:0:0:0:
256,192,96945,1,0,0:0:0:0:
256,192,97020,1,8,0:0:0:0:
256,192,97170,1,0,0:0:0:0:
256,192,97245,1,8,0:0:0:0:
256,192,97320,1,8,0:0:0:0:
256,192,97470,1,0,0:0:0:0:
256,192,97620,1,8,0:0:0:0:
256,192,97770,1,0,0:0:0:0:
256,192,97920,1,8,0:0:0:0:
256,192,98070,1,0,0:0:0:0:
256,192,98145,1,0,0:0:0:0:
256,192,98220,1,8,0:0:0:0:
256,192,98370,1,8,0:0:0:0:
256,192,98445,1,0,0:0:0:0:
256,192,98520,1,8,0:0:0:0:
256,192,98670,1,0,0:0:0:0:
256,192,98820,1,8,0:0:0:0:
256,192,98970,1,0,0:0:0:0:
256,192,99045,1,8,0:0:0:0:
256,192,99120,1,0,0:0:0:0:
256,192,99270,1,0,0:0:0:0:
256,192,99420,1,8,0:0:0:0:
256,192,99570,1,8,0:0:0:0:
256,192,99645,1,0,0:0:0:0:
256,192,99720,1,0,0:0:0:0:
256,192,99870,1,8,0:0:0:0:
256,192,100020,1,8,0:0:0:0:
256,192,100095,1,8,0:0:0:0:
256,192,100170,1,0,0:0:0:0:
256,192,100320,1,8,0:0:0:0:
256,192,100470,1,0,0:0:0:0:
256,192,100545,1,0,0:0:0:0:
256,192,100620,1,8,0:0:0:0:
256,192,100770,1,0,0:0:0:0:
256,192,100845,1,8,0:0:0:0:
256,192,100920,1,0,0:0:0:0:
256,192,101070,1,0,0:0:0:0:
256,192,101145,1,0,0:0:0:0:
256,192,101220,1,8,0:0:0:0:
256,192,101295,1,0,0:0:0:0:
256,192,101370,1,8,0:0:0:0:
256,192,101445,1,8,0:0:0:0:
256,192,101520,1,0,0:0:0:0:
256,192,101670,1,0,0:0:0:0:
256,192,101820,1,8,0:0:0:0:
256,192,101970,1,0,0:0:0:0:
256,192,102045,1,8,0:0:0:0:
256,192,102120,1,0,0:0:0:0:
256,192,102270,1,8,0:0:0:0:
256,192,102420,1,8,0:0:0:0:
256,192,102570,1,0,0:0:0:0:
256,192,102720,1,0,0:0:0:0:
256,192,102870,1,0,0:0:0:0:
256,192,102945,1,0,0:0:0:0:
256,192,103020,1,8,0:0:0:0:
256,192,103170,1,8,0:0:0:0:
256,192,103245,1,0,0:0:0:0:
256,192,103320,1,8,0:0:0:0:
256,192,103470,1,0,0:0:0:0:
256,192,103620,1,0,0:0:0:0:
256,192,103770,1,0,0:0:0:0:
256,192,103845,1,0,0:0:0:0:
256,192,103920,1,8,0:0:0:0:
256,192,104070,1,0,0:0:0:0:
256,192,104220,1,8,0:0:0:0:
256,192,104370,1,0,0:0:0:0:
256,192,104520,1,8,0:0:0:0:
256,192,104595,1,8,0:0:0:0:
256,192,104670,1,0,0:0:0:0:
256,192,104745,1,0,0:0:0:0:
256,192,104820,1,8,0:0:0:0:
256,192,104970,1,0,0:0:0:0:
256,192,105045,1,8,0:0:0:0:
256,192,105120,1,0,0:0:0:0:
256,192,105270,1,0,0:0:0:0:
256,192,105345,1,0,0:0:0:0:
256,192,105420,1,8,0:0:0:0:
256,192,105570,1,0,0:0:0:0:
256,192,105720,1,0,0:0:0:0:
256,192,105795,1,8,0:0:0:0:
256,192,105870,1,0,0:0:0:0:
256,192,105945,1,0,0:0:0:0:
256,192,106020,1,8,0:0:0:0:
256,192,106170,1,0,0:0:0:0:
256,192,106245,1,0,0:0:0:0:
256,192,106320,1,12,0:0:0:0:
256,192,106470,1,0,0:0:0:0:
256,192,106620,1,8,0:0:0:0:
256,192,106770,1,0,0:0:0:0:
256,192,106845,1,8,0:0:0:0:
256,192,106920,1,8,0:0:0:0:
256,192,107070,1,0,0:0:0:0:
256,192,107220,1,8,0:0:0:0:
256,192,107370,1,0,0:0:0:0:
256,192,107520,1,8,0:0:0:0:
256,192,107670,1,0,0:0:0:0:
256,192,107745,1,0,0:0:0:0:
256,192,107820,1,8,0:0:0:0:
256,192,107970,1,8,0:0:0:0:
256,192,108045,1,0,0:0:0:0:
256,192,108120,1,8,0:0:0:0:
256,192,108270,1,0,0:0:0:0:
256,192,108420,1,8,0:0:0:0:
256,192,108570,1,0,0:0:0:0:
256,192,108645,1,8,0:0:0:0:
256,192,108720,1,0,0:0:0:0:
256,192,108870,1,0,0:0:0:0:
256,192,109020,1,8,0:0:0:0:
256,192,109170,1,8,0:0:0:0:
256,192,109245,1,0,0:0:0:0:
256,192,109320,1,0,0:0:0:0:
256,192,109470,1,8,0:0:0:0:
256,192,109620,1,8,0:0:0:0:
256,192,109695,1,8,0:0:0:0:
256,192,109770,1,0,0:0:0:0:
256,192,109920,1,8,0:0:0:0:
256,192,110070,1,0,0:0:0:0:
256,192,110145,1,0,0:0:0:0:
256,192,110220,1,8,0:0:0:0:
256,192,110370,1,0,0:0:0:0:
256,192,110445,1,8,0:0:0:0:
256,192,110520,1,0,0:0:0:0:
256,192,110595,1,8,0:0:0:0:
256,192,110670,1,0,0:0:0:0:
256,192,110745,1,0,0:0:0:0:
256,192,110820,1,8,0:0:0:0:
256,192,110970,1,0,0:0:0:0:
256,192,111045,1,0,0:0:0:0:
256,192,111120,1,12,0:0:0:0:
256,192,111270,1,0,0:0:0:0:
256,192,111345,1,0,0:0:0:0:
256,192,111420,1,0,0:0:0:0:
256,192,111570,1,8,0:0:0:0:
256,192,111720,1,8,0:0:0:0:
256,192,111795,1,8,0:0:0:0:
256,192,111870,1,0,0:0:0:0:
256,192,112020,1,8,0:0:0:0:
256,192,112170,1,0,0:0:0:0:
256,192,112245,1,8,0:0:0:0:
256,192,112320,1,0,0:0:0:0:
256,192,112395,1,0,0:0:0:0:
256,192,112470,1,8,0:0:0:0:
256,192,112545,1,0,0:0:0:0:
256,192,112620,1,8,0:0:0:0:
256,192,112770,1,0,0:0:0:0:
256,192,112845,1,0,0:0:0:0:
256,192,112920,1,8,0:0:0:0:
256,192,113070,1,0,0:0:0:0:
256,192,113145,1,0,0:0:0:0:
256,192,113220,1,8,0:0:0:0:
256,192,113295,1,0,0:0:0:0:
256,192,113370,1,0,0:0:0:0:
256,192,113445,1,0,0:0:0:0:
256,192,113520,1,12,0:0:0:0:
256,192,113670,1,0,0:0:0:0:
256,192,113745,1,0,0:0:0:0:
256,192,113820,1,8,0:0:0:0:
256,192,113895,1,8,0:0:0:0:
256,192,113970,1,0,0:0:0:0:
256,192,114045,1,8,0:0:0:0:
256,192,114120,1,8,0:0:0:0:
256,192,114195,1,8,0:0:0:0:
256,192,114270,1,0,0:0:0:0:
256,192,114345,1,0,0:0:0:0:
256,192,114420,1,8,0:0:0:0:
256,192,114495,1,0,0:0:0:0:
256,192,114570,1,8,0:0:0:0:
256,192,114645,1,0,0:0:0:0:
256,192,114720,1,8,0:0:0:0:
256,192,114795,1,8,0:0:0:0:
256,192,114870,1,0,0:0:0:0:
256,192,114945,1,8,0:0:0:0:
256,192,115020,1,0,0:0:0:0:
256,192,115095,1,0,0:0:0:0:
256,192,115170,1,8,0:0:0:0:
256,192,115245,1,0,0:0:0:0:
256,192,115320,1,8,0:0:0:0:
256,192,115395,1,0,0:0:0:0:
256,192,115470,1,8,0:0:0:0:
256,192,115545,1,8,0:0:0:0:
256,192,115620,1,8,0:0:0:0:
256,192,115695,1,0,0:0:0:0:
256,192,115770,1,0,0:0:0:0:
256,192,115845,1,8,0:0:0:0:
256,192,115920,1,8,0:0:0:0:
256,192,116220,1,0,0:0:0:0:
256,192,116370,1,8,0:0:0:0:
256,192,116520,1,0,0:0:0:0:
256,192,117120,1,8,0:0:0:0:
256,192,117420,1,0,0:0:0:0:
256,192,117720,1,0,0:0:0:0:
256,192,118020,1,8,0:0:0:0:
256,192,118320,1,0,0:0:0:0:
256,192,118620,1,0,0:0:0:0:
256,192,118920,1,8,0:0:0:0:
256,192,119220,1,8,0:0:0:0:
256,192,119520,1,0,0:0:0:0:
256,192,119820,1,0,0:0:0:0:
256,192,120120,1,0,0:0:0:0:
256,192,120420,1,8,0:0:0:0:
256,192,120720,1,0,0:0:0:0:
256,192,121020,1,0,0:0:0:0:
256,192,121320,1,8,0:0:0:0:
256,192,121620,1,0,0:0:0:0:
256,192,121920,1,8,0:0:0:0:
256,192,122220,1,8,0:0:0:0:
256,192,122520,1,0,0:0:0:0:
256,192,122820,1,0,0:0:0:0:
256,192,123120,1,8,0:0:0:0:
256,192,123420,1,8,0:0:0:0:
256,192,123720,1,8,0:0:0:0:
256,192,124020,1,0,0:0:0:0:
256,192,124320,1,0,0:0:0:0:
256,192,124620,1,0,0:0:0:0:
256,192,124920,1,8,0:0:0:0:
256,192,125220,1,0,0:0:0:0:
256,192,125520,1,8,0:0:0:0:
256,192,125820,1,0,0:0:0:0:
256,192,125870,1,0,0:0:0:0:
256,192,125920,1,0,0:0:0:0:
256,192,125970,1,0,0:0:0:0:
256,192,126120,1,8,0:0:0:0:
256,192,126720,1,8,0:0:0:0:
256,192,127020,1,0,0:0:0:0:
256,192,127320,1,0,0:0:0:0:
256,192,127395,1,0,0:0:0:0:
256,192,127470,1,0,0:0:0:0:
256,192,127545,1,0,0:0:0:0:
256,192,127620,1,8,0:0:0:0:
256,192,127920,1,8,0:0:0:0:
256,192,128070,1,0,0:0:0:0:
256,192,128220,1,8,0:0:0:0:
256,192,128295,1,0,0:0:0:0:
256,192,128445,1,0,0:0:0:0:
256,192,128520,1,8,0:0:0:0:
256,192,128820,1,8,0:0:0:0:
256,192,129120,1,0,0:0:0:0:
256,192,129420,1,0,0:0:0:0:
256,192,129720,1,8,0:0:0:0:
256,192,130020,1,8,0:0:0:0:
256,192,130095,1,8,0:0:0:0:
256,192,130170,1,8,0:0:0:0:
256,192,130245,1,8,0:0:0:0:
256,192,130320,1,0,0:0:0:0:
256,192,130620,2,0,L|208:192,4,28
256,192,131220,1,0,0:0:0:0:
256,192,131520,1,0,0:0:0:0:
256,192,131670,1,8,0:0:0:0:
256,192,131820,1,0,0:0:0:0:
256,192,132120,1,0,0:0:0:0:
256,192,132420,1,8,0:0:0:0:
256,192,132720,1,0,0:0:0:0:
