osu file format v14

[General]
AudioFilename: audio.mp3
AudioLeadIn: 0
PreviewTime: 96720
Countdown: 0
SampleSet: Normal
StackLeniency: 1
Mode: 1
LetterboxInBreaks: 0
WidescreenStoryboard: 0

[Editor]
Bookmarks: 67920
DistanceSpacing: 0.8
BeatDivisor: 2
GridSize: 32
TimelineZoom: 1

[Metadata]
Title:Journey
TitleUnicode:Journey
Artist:ARForest
ArtistUnicode:ARForest
Creator:Vulkin
Version:Kantan
Source:Lanota
Tags:video game instrumental electronic orchestra artcore Noxy Games Arcaea lowiro Groove Coaster 4EX Infinity Highway Taito Corporation osu! fa featured artist duski
BeatmapID:2650719
BeatmapSetID:1275784

[Difficulty]
HPDrainRate:8
CircleSize:7
OverallDifficulty:3
ApproachRate:10
SliderMultiplier:1.4
SliderTickRate:1

[Events]
//Background and Video events
0,0,"20181228_204641.jpg",0,0
//Break Periods
//Storyboard Layer 0 (Background)
//Storyboard Layer 1 (Fail)
//Storyboard Layer 2 (Pass)
//Storyboard Layer 3 (Foreground)
//Storyboard Layer 4 (Overlay)
//Storyboard Sound Samples

[TimingPoints]
720,300,4,1,0,50,1,0
10170,-100,4,1,0,60,0,0
19770,-100,4,1,0,70,0,0
29370,-100,4,1,0,80,0,0
39270,-100,4,1,0,60,0,0
48570,-100,4,1,0,70,0,0
56970,-100,4,1,0,80,0,0
57270,-100,4,1,0,70,0,0
77370,-100,4,1,0,80,0,0
95370,-100,4,1,0,70,0,0
96570,-100,4,1,0,90,0,0
96720,-100,4,1,0,90,0,1
115920,-100,4,1,0,90,0,0
116070,-100,4,1,0,60,0,0

[HitObjects]
256,192,720,5,0,0:0:0:0:
256,192,1170,1,8,0:0:0:0:
256,192,1920,1,0,0:0:0:0:
256,192,2370,1,8,0:0:0:0:
256,192,3120,1,0,0:0:0:0:
256,192,4020,1,8,0:0:0:0:
256,192,4320,1,8,0:0:0:0:
256,192,4920,1,0,0:0:0:0:
256,192,5520,1,0,0:0:0:0:
256,192,5970,1,8,0:0:0:0:
256,192,6720,1,0,0:0:0:0:
256,192,7170,1,0,0:0:0:0:
256,192,7920,1,0,0:0:0:0:
256,192,8370,1,8,0:0:0:0:
256,192,9120,1,8,0:0:0:0:
256,192,9720,1,8,0:0:0:0:
256,192,10320,1,0,0:0:0:0:
256,192,11220,1,8,0:0:0:0:
256,192,12720,1,0,0:0:0:0:
256,192,13620,1,0,0:0:0:0:
256,192,15120,1,0,0:0:0:0:
256,192,16020,1,8,0:0:0:0:
256,192,16920,1,0,0:0:0:0:
256,192,17520,1,8,0:0:0:0:
256,192,17970,1,0,0:0:0:0:
256,192,18420,1,0,0:0:0:0:
256,192,18720,1,8,0:0:0:0:
256,192,19320,1,8,0:0:0:0:
256,192,19920,1,0,0:0:0:0:
256,192,20370,1,0,0:0:0:0:
256,192,21120,1,8,0:0:0:0:
256,192,22320,1,8,0:0:0:0:
256,192,22770,1,0,0:0:0:0:
256,192,23520,1,0,0:0:0:0:
256,192,24720,1,0,0:0:0:0:
256,192,25170,1,0,0:0:0:0:
256,192,25920,1,8,0:0:0:0:
256,192,27120,1,8,0:0:0:0:
256,192,27570,1,0,0:0:0:0:
256,192,28320,1,8,0:0:0:0:
256,192,28620,1,0,0:0:0:0:
256,192,28920,1,8,0:0:0:0:
256,192,29520,1,4,0:0:0:0:
256,192,29970,1,0,0:0:0:0:
256,192,30420,1,8,0:0:0:0:
256,192,31020,1,0,0:0:0:0:
256,192,31320,1,8,0:0:0:0:
256,192,31920,1,8,0:0:0:0:
256,192,32370,1,8,0:0:0:0:
256,192,32820,1,0,0:0:0:0:
256,192,33720,1,0,0:0:0:0:
256,192,34320,1,0,0:0:0:0:
256,192,34770,1,0,0:0:0:0:
256,192,35220,1,8,0:0:0:0:
256,192,35820,1,0,0:0:0:0:
256,192,36120,1,8,0:0:0:0:
256,192,36720,1,8,0:0:0:0:
256,192,37170,1,8,0:0:0:0:
256,192,37620,1,0,0:0:0:0:
256,192,38220,1,8,0:0:0:0:
256,192,38520,1,0,0:0:0:0:
256,192,39120,1,12,0:0:0:0:
256,192,40020,1,0,0:0:0:0:
256,192,40320,1,8,0:0:0:0:
256,192,40920,1,8,0:0:0:0:
256,192,41220,1,0,0:0:0:0:
256,192,41520,1,8,0:0:0:0:
256,192,42420,1,0,0:0:0:0:
256,192,42720,1,8,0:0:0:0:
256,192,43320,1,8,0:0:0:0:
256,192,43920,1,8,0:0:0:0:
256,192,44820,1,0,0:0:0:0:
256,192,45120,1,8,0:0:0:0:
256,192,45720,1,8,0:0:0:0:
256,192,46020,1,0,0:0:0:0:
256,192,46320,1,8,0:0:0:0:
256,192,47220,1,0,0:0:0:0:
256,192,47520,1,8,0:0:0:0:
256,192,47820,1,0,0:0:0:0:
256,192,48120,1,8,0:0:0:0:
256,192,48720,1,0,0:0:0:0:
256,192,49320,1,8,0:0:0:0:
256,192,49920,1,8,0:0:0:0:
256,192,50820,1,0,0:0:0:0:
256,192,51120,1,0,0:0:0:0:
256,192,51720,1,8,0:0:0:0:
256,192,52320,1,8,0:0:0:0:
256,192,52620,1,0,0:0:0:0:
256,192,53220,1,0,0:0:0:0:
256,192,53520,1,0,0:0:0:0:
256,192,54120,1,8,0:0:0:0:
256,192,54720,1,8,0:0:0:0:
256,192,55620,1,0,0:0:0:0:
256,192,55920,1,0,0:0:0:0:
256,192,56520,1,0,0:0:0:0:
256,192,57120,1,12,0:0:0:0:
256,192,58320,1,4,0:0:0:0:
256,192,58770,1,0,0:0:0:0:
256,192,59220,1,0,0:0:0:0:
256,192,60120,1,8,0:0:0:0:
256,192,60720,1,0,0:0:0:0:
256,192,61170,1,0,0:0:0:0:
256,192,61620,1,0,0:0:0:0:
256,192,62520,1,0,0:0:0:0:
256,192,63120,1,0,0:0:0:0:
256,192,63570,1,0,0:0:0:0:
256,192,64020,1,0,0:0:0:0:
256,192,64920,1,8,0:0:0:0:
256,192,65520,1,0,0:0:0:0:
256,192,65970,1,0,0:0:0:0:
256,192,66420,1,0,0:0:0:0:
256,192,67020,1,8,0:0:0:0:
256,192,67320,1,0,0:0:0:0:
256,192,67920,1,4,0:0:0:0:
256,192,68520,1,8,0:0:0:0:
256,192,69420,1,0,0:0:0:0:
256,192,69720,1,8,0:0:0:0:
256,192,70320,1,0,0:0:0:0:
256,192,70620,1,0,0:0:0:0:
256,192,70920,1,8,0:0:0:0:
256,192,71220,1,0,0:0:0:0:
256,192,72120,1,8,0:0:0:0:
256,192,72720,1,0,0:0:0:0:
256,192,73320,1,8,0:0:0:0:
256,192,74220,1,0,0:0:0:0:
256,192,74520,1,8,0:0:0:0:
256,192,75120,1,0,0:0:0:0:
256,192,75420,1,0,0:0:0:0:
256,192,75720,1,8,0:0:0:0:
256,192,76020,1,0,0:0:0:0:
256,192,76620,1,0,0:0:0:0:
256,192,76920,1,8,0:0:0:0:
256,192,77520,1,12,0:0:0:0:
256,192,77970,1,0,0:0:0:0:
256,192,78420,1,8,0:0:0:0:
256,192,79320,1,0,0:0:0:0:
256,192,79920,1,8,0:0:0:0:
256,192,80370,1,8,0:0:0:0:
256,192,80820,1,0,0:0:0:0:
256,192,81720,1,0,0:0:0:0:
256,192,82320,1,8,0:0:0:0:
256,192,82770,1,0,0:0:0:0:
256,192,83220,1,8,0:0:0:0:
256,192,84120,1,0,0:0:0:0:
256,192,84720,1,8,0:0:0:0:
256,192,85170,1,8,0:0:0:0:
256,192,85620,1,0,0:0:0:0:
256,192,86220,1,0,0:0:0:0:
256,192,86520,1,0,0:0:0:0:
256,192,87120,1,8,0:0:0:0:
256,192,87570,1,0,0:0:0:0:
256,192,88020,1,8,0:0:0:0:
256,192,88920,1,0,0:0:0:0:
256,192,89520,1,8,0:0:0:0:
256,192,89970,1,8,0:0:0:0:
256,192,90420,1,0,0:0:0:0:
256,192,91320,1,0,0:0:0:0:
256,192,91920,1,8,0:0:0:0:
256,192,92370,1,0,0:0:0:0:
256,192,92820,1,8,0:0:0:0:
256,192,93720,1,0,0:0:0:0:
256,192,94320,1,8,0:0:0:0:
256,192,94770,1,8,0:0:0:0:
256,192,95220,1,8,0:0:0:0:
256,192,95520,8,0,96420,0:0:0:0:
256,192,96720,5,4,0:0:0:0:
256,192,97020,1,8,0:0:0:0:
256,192,97620,1,8,0:0:0:0:
256,192,97920,1,0,0:0:0:0:
256,192,98520,1,0,0:0:0:0:
256,192,99120,1,0,0:0:0:0:
256,192,99420,1,8,0:0:0:0:
256,192,100020,1,8,0:0:0:0:
256,192,100320,1,0,0:0:0:0:
256,192,101520,1,0,0:0:0:0:
256,192,101820,1,8,0:0:0:0:
256,192,102420,1,8,0:0:0:0:
256,192,102720,1,0,0:0:0:0:
256,192,103320,1,0,0:0:0:0:
256,192,103920,1,8,0:0:0:0:
256,192,104520,1,0,0:0:0:0:
256,192,105120,1,8,0:0:0:0:
256,192,106320,1,4,0:0:0:0:
256,192,106620,1,8,0:0:0:0:
256,192,107220,1,8,0:0:0:0:
256,192,107520,1,0,0:0:0:0:
256,192,108120,1,0,0:0:0:0:
256,192,108720,1,0,0:0:0:0:
256,192,109020,1,8,0:0:0:0:
256,192,109620,1,8,0:0:0:0:
256,192,109920,1,0,0:0:0:0:
256,192,110820,1,0,0:0:0:0:
256,192,111120,1,12,0:0:0:0:
256,192,111570,1,0,0:0:0:0:
256,192,112020,1,8,0:0:0:0:
256,192,112470,1,0,0:0:0:0:
256,192,112920,1,8,0:0:0:0:
256,192,113520,1,12,0:0:0:0:
256,192,113820,1,0,0:0:0:0:
256,192,114120,1,8,0:0:0:0:
256,192,114720,1,12,0:0:0:0:
256,192,115020,1,0,0:0:0:0:
256,192,115320,1,0,0:0:0:0:
256,192,115920,1,12,0:0:0:0:
256,192,118320,1,0,0:0:0:0:
256,192,118920,1,8,0:0:0:0:
256,192,119520,1,0,0:0:0:0:
256,192,120720,1,0,0:0:0:0:
256,192,121320,1,8,0:0:0:0:
256,192,121920,1,8,0:0:0:0:
256,192,123120,1,8,0:0:0:0:
256,192,123720,1,8,0:0:0:0:
256,192,124320,1,0,0:0:0:0:
256,192,124920,1,8,0:0:0:0:
256,192,125520,1,0,0:0:0:0:
256,192,126720,1,0,0:0:0:0:
256,192,127920,1,8,0:0:0:0:
256,192,128520,1,8,0:0:0:0:
256,192,129120,1,0,0:0:0:0:
256,192,130320,1,0,0:0:0:0:
256,192,131520,1,8,0:0:0:0:
256,192,132120,1,0,0:0:0:0:
256,192,132720,1,0,0:0:0:0:
